osu file format v14

[General]
AudioFilename: audio.mp3
AudioLeadIn: 0
PreviewTime: -1
Countdown: 1
SampleSet: Normal
StackLeniency: 0.7
Mode: 0
LetterboxInBreaks: 0
WidescreenStoryboard: 0

[Editor]
DistanceSpacing: 0.3
BeatDivisor: 4
GridSize: 4
TimelineZoom: 1

[Metadata]
Title:Promised Land (Original Mix)
TitleUnicode:Promised Land (Original Mix)
Artist:D-Block & S-te-Fan
ArtistUnicode:D-Block & S-te-Fan
Creator:CrackedGoose
Version:Normal
Source:
Tags:hardstyle
BeatmapID:1813443
BeatmapSetID:867476

[Difficulty]
HPDrainRate:5
CircleSize:3
OverallDifficulty:7
ApproachRate:7
SliderMultiplier:1.4
SliderTickRate:1

[Events]
//Background and Video events
0,0,"promise-land-1024x682.jpg",0,0
//Break Periods
//Storyboard Layer 0 (Background)
//Storyboard Layer 1 (Fail)
//Storyboard Layer 2 (Pass)
//Storyboard Layer 3 (Foreground)
//Storyboard Sound Samples

[TimingPoints]
30,400,4,1,0,80,1,0
12800,-200,4,1,0,80,0,0
57600,-117.647058823529,4,1,0,80,0,0
99900,-200,4,1,0,80,0,0
102800,-117.647058823529,4,1,0,80,0,0

[HitObjects]
142,238,13730,5,0,0:0:0:0:
181,136,13930,1,0,0:0:0:0:
288,97,14130,1,0,0:0:0:0:
399,132,14530,2,0,P|432:157|430:194,1,70
404,250,15330,2,0,P|371:270|343:286,1,70
247,264,16130,2,0,L|201:263,1,35
152,244,16530,1,0,0:0:0:0:
52,124,16930,2,0,P|80:113|116:78,1,70
283,91,17730,2,0,L|355:135,1,70
370,226,18530,1,0,0:0:0:0:
370,226,18930,1,0,0:0:0:0:
308,170,19730,1,0,0:0:0:0:
181,229,20130,2,0,L|101:229,2,70
304,224,21330,2,0,P|355:211|368:188,1,70
319,109,22130,1,0,0:0:0:0:
225,90,22530,1,0,0:0:0:0:
86,257,22930,2,0,P|97:278|146:290,1,70
320,279,23730,2,0,P|345:242|344:214,1,70
291,92,24530,2,0,L|219:61,2,70
311,179,25730,1,0,0:0:0:0:
229,231,26130,2,0,P|156:242|130:215,1,105
131,167,26930,1,8,0:0:0:0:
281,111,27730,1,0,0:0:0:0:
347,186,28130,1,0,0:0:0:0:
244,270,28530,6,0,L|170:286,1,70
74,228,29330,2,0,P|50:170|74:137,1,105
119,96,30130,1,8,0:0:0:0:
181,223,30530,1,0,0:0:0:0:
257,112,30930,2,0,L|334:129,2,70
69,116,32130,1,0,0:0:0:0:
169,221,32530,2,0,P|263:247|276:250,1,105
332,252,33330,1,8,0:0:0:0:
382,128,33730,2,0,P|366:91|338:79,1,70
202,80,34530,1,0,0:0:0:0:
182,119,34930,1,0,0:0:0:0:
158,165,35330,1,0,0:0:0:0:
228,293,35730,2,0,P|310:283|322:264,1,105
336,223,36530,1,8,0:0:0:0:
266,116,36930,1,0,0:0:0:0:
224,90,37330,1,0,0:0:0:0:
171,73,37730,1,0,0:0:0:0:
100,188,38130,2,0,P|91:243|129:270,1,105
160,273,38930,1,10,0:0:0:0:
339,265,39330,2,0,L|421:253,1,70
354,146,40130,2,0,L|280:117,1,70
143,106,40930,2,0,P|108:124|95:150,2,70
201,108,42130,1,0,0:0:0:0:
286,108,42530,1,0,0:0:0:0:
370,209,42930,6,0,P|382:253|362:280,1,70
280,232,43730,1,0,0:0:0:0:
238,226,43930,1,0,0:0:0:0:
189,198,44130,1,0,0:0:0:0:
116,89,44530,2,0,P|148:70|183:60,1,70
291,107,45330,2,0,P|338:157|336:190,1,105
334,237,46130,1,8,0:0:0:0:
170,266,46530,1,0,0:0:0:0:
71,133,46930,2,0,L|123:87,1,70
167,147,47730,2,0,L|235:96,1,70
402,150,48530,2,0,P|460:174|485:210,1,105
502,273,49330,1,8,0:0:0:0:
356,302,49730,2,0,L|285:298,1,70
106,244,50530,1,0,0:0:0:0:
67,164,50930,1,0,0:0:0:0:
197,127,51330,1,0,0:0:0:0:
280,202,51730,1,6,0:0:0:0:
256,192,52130,12,0,55930,0:0:0:0:
96,143,58130,5,0,0:0:0:0:
218,114,58530,2,0,L|263:98,1,29.7500005674362
301,140,58730,2,0,L|365:110,1,59.5000011348725
452,151,59330,2,0,P|476:187|485:223,1,59.5000011348725
474,277,59730,2,0,P|430:311|361:284,1,119.000002269745
325,150,60530,6,0,P|303:117|296:110,1,29.7500005674362
245,147,60830,2,0,L|187:114,1,59.5000011348725
167,256,61330,2,0,P|189:297|276:308,1,119.000002269745
286,309,62130,2,0,P|344:287|379:232,1,119.000002269745
196,128,62930,2,0,P|170:113|114:157,1,89.2500017023087
156,238,63430,2,0,L|226:313,1,89.2500017023087
217,126,64130,2,0,L|263:98,1,29.7500005674362
289,131,64330,2,0,L|350:93,1,59.5000011348725
385,136,64930,1,0,0:0:0:0:
385,136,65030,1,0,0:0:0:0:
385,136,65130,1,0,0:0:0:0:
387,293,65330,2,0,P|355:311|254:313,1,119.000002269745
81,257,66130,2,0,L|70:189,1,59.5000011348725
125,130,66530,1,0,0:0:0:0:
252,95,66930,1,0,0:0:0:0:
325,119,67130,2,0,P|352:101|411:100,1,89.2500017023087
444,196,67730,2,0,P|470:279|442:318,1,119.000002269745
297,291,68530,2,0,L|205:284,1,89.2500017023087
197,201,69130,2,0,L|240:197,1,29.7500005674362
411,258,69530,2,0,P|451:246|473:164,1,119.000002269745
430,89,70130,1,8,0:0:0:0:
131,187,70930,6,0,L|18:137,1,119.000002269745
247,86,71730,2,0,L|374:140,1,119.000002269745
420,245,72530,1,0,0:0:0:0:
489,301,72930,1,0,0:0:0:0:
165,334,73330,2,0,L|115:308,1,29.7500005674362
175,245,73630,2,0,L|138:215,1,29.7500005674362
169,78,74030,2,0,P|261:62|315:90,1,148.750002837181
407,189,74930,1,0,0:0:0:0:
252,252,75330,2,0,P|222:279|126:286,1,119.000002269745
143,78,76130,1,0,0:0:0:0:
295,78,76530,1,0,0:0:0:0:
284,250,76930,2,0,L|236:282,2,29.7500005674362
355,231,77330,2,0,L|461:144,1,119.000002269745
246,76,78130,2,0,L|102:104,1,119.000002269745
55,245,78930,2,0,L|87:270,1,29.7500005674362
118,227,79230,2,0,L|165:252,1,29.7500005674362
257,305,79730,2,0,P|311:321|373:285,1,119.000002269745
351,144,80430,2,0,B|319:97|317:96|267:75,1,89.2500017023087
159,82,80930,1,0,0:0:0:0:
109,253,81330,2,0,P|175:307|198:299,1,119.000002269745
256,226,82130,1,0,0:0:0:0:
355,168,82530,1,0,0:0:0:0:
235,113,82930,1,0,0:0:0:0:
164,253,83530,5,0,0:0:0:0:
261,234,83730,2,0,L|261:201,2,29.7500005674362
338,184,84130,6,0,L|384:176,1,29.7500005674362
258,89,84430,2,0,P|174:87|174:87,1,59.5000011348725
81,254,85330,6,0,P|120:272|286:244,1,208.250003972054
91,122,86930,2,0,P|133:99|141:96,1,29.7500005674362
148,146,87130,2,0,L|187:131,1,29.7500005674362
264,145,87430,2,0,P|296:135|336:141,1,59.5000011348725
358,219,87830,1,8,0:0:0:0:
343,68,88530,2,0,P|288:70|121:105,1,208.250003972054
123,239,90130,1,0,0:0:0:0:
227,258,90530,2,0,L|275:237,1,29.7500005674362
229,161,90930,2,0,L|347:108,1,119.000002269745
203,61,91730,2,0,L|165:81,2,29.7500005674362
320,100,92130,2,0,P|387:122|402:180,1,119.000002269745
384,274,92930,2,0,P|343:296|312:302,1,59.5000011348725
265,309,93330,1,8,0:0:0:0:
122,204,93730,2,0,L|55:156,1,59.5000011348725
70,133,94130,1,8,0:0:0:0:
216,111,94530,2,0,L|288:98,1,59.5000011348725
313,102,94930,1,8,0:0:0:0:
365,232,95330,2,0,P|341:255|301:270,1,59.5000011348725
248,252,95730,1,8,0:0:0:0:
122,213,96130,1,8,0:0:0:0:
175,81,96530,1,8,0:0:0:0:
299,115,96930,1,8,0:0:0:0:
304,239,97330,6,0,L|304:290,7,29.7500005674362
261,208,98130,2,0,L|263:153,7,29.7500005674362
217,163,98930,2,0,L|218:123,7,29.7500005674362
167,137,100130,5,0,0:0:0:0:
143,250,100530,1,0,0:0:0:0:
256,283,100930,2,0,P|331:273|417:234,1,157.5
100,183,102930,5,0,0:0:0:0:
190,130,103330,2,0,P|220:108|299:74,1,119.000002269745
192,85,104130,2,0,L|258:99,1,59.5000011348725
302,157,104530,2,0,L|360:212,1,59.5000011348725
389,269,104930,1,8,0:0:0:0:
211,274,105330,2,0,L|181:237,1,29.7500005674362
115,263,105630,2,0,L|74:209,1,59.5000011348725
50,142,106030,2,0,P|47:99|93:63,1,89.2500017023087
131,95,106530,1,8,0:0:0:0:
338,142,106930,2,0,P|409:155|426:202,1,119.000002269745
341,273,107730,2,0,P|301:285|284:285,1,59.5000011348725
204,279,108130,2,0,L|139:283,1,59.5000011348725
94,274,108530,1,8,0:0:0:0:
144,112,109330,1,0,0:0:0:0:
242,123,109730,2,0,P|301:103|370:87,1,119.000002269745
419,113,110530,1,8,0:0:0:0:
427,264,110930,2,0,P|412:299|330:336,1,119.000002269745
63,173,111730,2,0,L|76:110,1,59.5000011348725
138,95,112130,2,0,L|151:177,1,59.5000011348725
326,206,112530,2,0,P|368:217|393:213,1,59.5000011348725
433,188,112930,1,8,0:0:0:0:
313,75,113330,1,0,0:0:0:0:
151,101,113530,2,0,P|104:100|68:116,1,59.5000011348725
92,225,113930,2,0,L|90:269,2,29.7500005674362
185,192,114330,6,0,L|240:137,1,59.5000011348725
316,180,114730,2,0,L|407:137,1,89.2500017023087
106,78,115730,2,0,P|61:130|76:187,1,119.000002269745
252,328,116530,2,0,P|326:329|396:316,1,119.000002269745
370,165,117330,2,0,P|311:170|294:182,1,59.5000011348725
254,203,117730,1,8,0:0:0:0:
111,217,118130,2,0,L|74:160,1,59.5000011348725
143,130,118530,2,0,L|102:67,1,59.5000011348725
149,45,118930,1,8,0:0:0:0:
288,87,119330,2,0,P|337:73|408:94,1,119.000002269745
408,199,120130,2,0,P|417:248|409:275,1,59.5000011348725
351,291,120530,1,8,0:0:0:0:
205,273,120930,2,0,L|74:227,1,119.000002269745
234,142,121730,2,0,L|287:139,2,29.7500005674362
136,192,122130,2,0,L|126:263,1,59.5000011348725
229,319,122530,2,0,P|277:328|309:321,1,59.5000011348725
340,278,122930,1,8,0:0:0:0:
379,98,123330,2,0,P|327:101|293:100,1,59.5000011348725
253,93,123730,1,8,0:0:0:0:
280,205,124030,2,0,L|242:192,1,29.7500005674362
42,67,124430,6,0,L|109:113,1,59.5000011348725
85,204,124830,2,0,L|164:266,1,89.2500017023087
277,271,125330,2,0,L|352:254,1,59.5000011348725
405,236,125730,1,8,0:0:0:0:
34,263,126130,2,0,P|99:248|117:249,1,59.5000011348725
148,295,126530,2,0,L|232:296,1,59.5000011348725
277,300,126930,2,0,L|356:295,1,59.5000011348725
372,189,127330,6,0,L|407:161,2,29.7500005674362
260,144,127730,1,12,0:0:0:0:
