osu file format v14

[General]
AudioFilename: audio.mp3
AudioLeadIn: 0
PreviewTime: -1
Countdown: 1
SampleSet: None
StackLeniency: 0.7
Mode: 0
LetterboxInBreaks: 0
WidescreenStoryboard: 1

[Editor]
DistanceSpacing: 0.3
BeatDivisor: 4
GridSize: 4
TimelineZoom: 1

[Metadata]
Title:Promised Land (Original Mix)
TitleUnicode:Promised Land (Original Mix)
Artist:D-Block & S-te-Fan
ArtistUnicode:D-Block & S-te-Fan
Creator:CrackedGoose
Version:Insane
Source:
Tags:
BeatmapID:1848219
BeatmapSetID:867476

[Difficulty]
HPDrainRate:5
CircleSize:3
OverallDifficulty:8
ApproachRate:8
SliderMultiplier:1.4
SliderTickRate:1

[Events]
//Background and Video events
0,0,"promise-land-1024x682.jpg",0,0
//Break Periods
//Storyboard Layer 0 (Background)
//Storyboard Layer 1 (Fail)
//Storyboard Layer 2 (Pass)
//Storyboard Layer 3 (Foreground)
//Storyboard Sound Samples

[TimingPoints]
0,-200,4,1,0,80,0,0
18,400,4,1,0,80,1,0
12818,-200,4,1,0,80,0,0
57618,-100,4,1,0,80,0,0
99900,-200,4,1,0,80,0,0
102418,-100,4,1,0,80,0,0
114418,-200,4,1,0,80,0,0
115218,-100,4,1,0,80,0,0

[HitObjects]
212,331,13718,6,0,P|179:337|137:322,1,70
95,163,14518,2,0,P|136:126|158:123,1,70
311,101,15218,2,0,L|351:141,1,52.5
395,218,15718,1,8,0:0:0:0:
118,195,16118,1,0,0:0:0:0:
118,195,16518,1,0,0:0:0:0:
239,107,16918,2,0,P|260:85|308:76,1,70
329,263,17718,2,0,P|294:299|261:304,1,70
145,272,18518,2,0,P|115:270|108:259,1,35
79,203,18918,1,8,0:0:0:0:
248,119,19318,1,0,0:0:0:0:
357,219,19718,1,0,0:0:0:0:
95,293,20118,2,0,P|64:265|60:227,1,70
141,201,20918,2,0,P|150:221|187:272,1,70
254,226,21718,1,0,0:0:0:0:
369,139,22118,1,8,0:0:0:0:
201,67,22518,2,0,P|162:74|134:106,1,70
98,231,23318,1,0,0:0:0:0:
242,311,23718,2,0,L|311:301,1,70
195,158,24518,2,0,L|269:157,1,70
344,51,25318,1,8,0:0:0:0:
273,208,25718,2,0,P|275:212|290:218,2,17.5
235,273,26118,2,0,P|210:284|128:252,1,105
116,199,26918,1,8,0:0:0:0:
224,77,27318,5,0,0:0:0:0:
224,77,27718,1,0,0:0:0:0:
305,246,28118,1,0,0:0:0:0:
152,267,28518,2,0,L|77:242,1,70
127,150,29318,2,0,P|200:96|217:89,1,105
300,122,30118,1,8,0:0:0:0:
287,255,30918,2,0,L|260:215,2,35
190,310,31718,2,0,P|128:307|121:305,1,70
87,195,32518,1,0,0:0:0:0:
216,172,32918,2,0,L|258:147,1,35
310,143,33318,1,8,0:0:0:0:
96,83,33718,2,0,P|66:108|59:152,1,70
66,244,34518,1,0,0:0:0:0:
214,296,34918,1,0,0:0:0:0:
214,296,35318,1,0,0:0:0:0:
401,192,35718,2,0,P|411:166|411:131,2,52.5
343,241,36518,1,8,0:0:0:0:
196,275,36918,2,0,P|148:280|124:273,1,70
81,135,37718,2,0,P|97:117|142:88,1,70
234,91,38518,1,0,0:0:0:0:
353,77,38918,2,0,L|354:113,1,35
419,166,39318,2,0,L|416:211,1,35
388,292,39718,1,8,0:0:0:0:
145,266,40118,5,0,0:0:0:0:
86,159,40518,1,0,0:0:0:0:
212,90,40918,2,0,P|243:79|291:69,1,70
159,243,41718,1,0,0:0:0:0:
401,267,42118,2,0,L|401:217,1,35
339,202,42518,2,0,L|339:158,1,35
326,95,42918,1,8,0:0:0:0:
217,290,43318,1,0,0:0:0:0:
73,178,43718,2,0,P|92:151|100:141,2,35
115,217,44318,2,0,P|148:177|185:135,1,105
307,322,45318,2,0,P|352:308|380:309,1,70
381,212,46118,1,8,0:0:0:0:
283,92,46518,1,0,0:0:0:0:
283,92,46918,1,0,0:0:0:0:
103,111,47318,2,0,P|62:100|37:125,1,70
83,280,48118,1,0,0:0:0:0:
273,245,48518,2,0,P|315:228|338:203,1,70
353,146,49118,2,8,L|356:113,2,17.5
200,113,49718,1,0,0:0:0:0:
113,224,50118,1,0,0:0:0:0:
293,307,50518,1,0,0:0:0:0:
121,93,50918,1,0,0:0:0:0:
240,89,51318,2,0,L|273:113,1,35
325,196,51718,1,6,0:0:0:0:
256,192,52518,12,0,55218,0:0:0:0:
87,248,58118,6,0,L|101:193,1,52.5
208,152,58518,2,0,L|240:100,1,52.5000020027161
335,153,58918,2,0,L|293:287,1,140
182,295,59518,1,0,0:0:0:0:
182,295,59618,1,0,0:0:0:0:
182,295,59718,1,0,0:0:0:0:
81,230,60018,2,0,L|58:204,1,35
156,105,60518,2,0,P|188:77|195:74,1,35
253,116,60818,2,0,L|285:92,1,35
353,253,61218,2,0,P|298:269|250:298,1,105
197,283,61718,1,0,0:0:0:0:
107,142,62118,2,0,P|141:111|185:71,1,105
335,145,62718,2,0,P|353:176|338:207,1,70
200,257,63118,2,0,P|116:258|111:232,1,105
109,132,63718,2,0,L|61:53,1,70
305,111,64318,1,0,0:0:0:0:
305,111,64418,1,0,0:0:0:0:
305,111,64518,1,0,0:0:0:0:
354,237,64818,2,0,L|282:291,1,70
195,247,65218,2,0,P|131:256|96:252,1,70
195,85,65718,2,0,P|277:65|289:63,1,70
352,110,66118,2,0,P|388:171|395:182,1,70
367,243,66518,1,0,0:0:0:0:
185,282,66918,2,0,L|154:258,1,35
91,127,67218,2,0,L|132:100,1,35
233,143,67618,2,0,L|357:145,1,105
403,217,68118,1,0,0:0:0:0:
247,290,68518,2,0,L|124:311,1,105
81,119,69118,2,0,L|113:77,2,35
182,294,69518,2,0,P|210:312|241:309,1,35
399,112,69918,2,0,P|350:97|265:90,1,105
208,132,70918,1,0,0:0:0:0:
208,132,71118,1,0,0:0:0:0:
357,115,71318,1,0,0:0:0:0:
352,119,71518,1,0,0:0:0:0:
363,278,71718,2,0,L|283:333,1,70
226,278,72118,2,0,L|149:264,1,70
106,222,72518,1,0,0:0:0:0:
149,87,72718,2,0,L|201:64,2,35
119,257,73318,2,0,P|115:282|143:301,1,35
364,289,73618,2,0,P|397:273|395:260,1,35
345,113,74118,1,0,0:0:0:0:
185,95,74318,2,0,L|98:88,1,70
181,276,74918,2,0,L|282:265,1,70
293,229,75318,1,0,0:0:0:0:
203,101,75718,1,0,0:0:0:0:
357,52,76118,2,0,P|417:68|447:148,1,140
