osu file format v14

[General]
AudioFilename: audio.MP3
AudioLeadIn: 0
PreviewTime: 77949
Countdown: 0
SampleSet: Soft
StackLeniency: 0.5
Mode: 2
LetterboxInBreaks: 0
WidescreenStoryboard: 1

[Editor]
Bookmarks: 6074,12074,36074,45449,48074,49949
DistanceSpacing: 0.2
BeatDivisor: 4
GridSize: 8
TimelineZoom: 1.6

[Metadata]
Title:BRAND NEW WORLD (TV Size)
TitleUnicode:BRAND NEW WORLD (TV Size)
Artist:D-51
ArtistUnicode:D-51
Creator:Secre
Version:Start me up!
Source:ONE PIECE
Tags:chickenbible ワンピース opening op 6 japanese anime 上里優 uezatoyu yu 吉田安英 yoshida yasuhide yasu
BeatmapID:2763028
BeatmapSetID:1333640

[Difficulty]
HPDrainRate:5
CircleSize:4.1
OverallDifficulty:9.1
ApproachRate:9.1
SliderMultiplier:1.85
SliderTickRate:2

[Events]
//Background and Video events
Video,-542,"video.avi"
0,0,"bg.jpg",0,0
//Break Periods
//Storyboard Layer 0 (Background)
//Storyboard Layer 1 (Fail)
//Storyboard Layer 2 (Pass)
//Storyboard Layer 3 (Foreground)
//Storyboard Layer 4 (Overlay)
//Storyboard Sound Samples

[TimingPoints]
74,375,4,2,1,55,1,0
5136,-76.9230769230769,4,2,1,55,0,0
6074,-76.9230769230769,4,2,1,55,0,0
12074,-111.111111111111,4,2,1,55,0,0
34574,-111.111111111111,4,2,1,60,0,0
35136,-100,4,2,1,55,0,0
35886,-83.3333333333333,4,2,1,55,0,0
36074,-100,4,2,17,75,0,0
36261,-100,4,2,1,55,0,0
36917,-76.9230769230769,4,2,1,5,0,0
37011,-76.9230769230769,4,2,1,55,0,0
37105,-76.9230769230769,4,2,1,40,0,0
37199,-76.9230769230769,4,2,1,55,0,0
37386,-76.9230769230769,4,2,1,35,0,0
37574,-105.263157894737,4,2,1,55,0,0
39074,-100,4,2,1,55,0,0
39917,-100,4,2,1,5,0,0
40011,-100,4,2,1,55,0,0
40105,-100,4,2,1,40,0,0
40199,-76.9230769230769,4,2,1,55,0,0
40386,-76.9230769230769,4,2,1,35,0,0
40574,-105.263157894737,4,2,1,55,0,0
42074,-105.263157894737,4,2,1,55,0,0
42636,-100,4,2,1,55,0,0
45824,-83.3333333333333,4,2,1,55,0,0
45870,-83.3333333333333,4,2,1,40,0,0
46011,-83.3333333333333,4,2,1,55,0,0
46058,-83.3333333333333,4,2,1,40,0,0
46574,-100,4,2,1,55,0,0
47136,-71.4285714285714,4,2,1,55,0,0
47324,-100,4,2,1,55,0,0
47511,-71.4285714285714,4,2,17,70,0,0
47558,-71.4285714285714,4,2,1,70,0,0
47699,-71.4285714285714,4,2,1,60,0,0
48074,-90.9090909090909,4,2,17,55,0,1
48261,-90.9090909090909,4,2,1,75,0,1
59886,-100,4,2,1,75,0,0
60074,-90.9090909090909,4,2,1,75,0,1
72074,-111.111111111111,4,2,1,55,0,0
75074,-111.111111111111,4,2,1,65,0,0
76199,-100,4,2,1,65,0,0
78074,-90.9090909090909,4,2,17,55,0,1
78261,-90.9090909090909,4,2,1,75,0,1
89886,-100,4,2,1,75,0,0
90074,-90.9090909090909,4,2,1,75,0,1
102074,-100,4,2,1,60,0,0
106949,-100,4,2,1,60,0,0
108074,-100,4,2,1,60,0,0
108167,-100,4,2,1,5,0,0

[Colours]
Combo1 : 149,236,134
Combo2 : 251,190,108
Combo3 : 242,121,97
Combo4 : 107,173,245

[HitObjects]
412,154,74,5,8,0:0:0:0:
124,153,261,1,8,0:0:0:0:
124,153,449,1,0,0:0:0:0:
268,92,636,2,0,P|325:120|254:197,1,185
141,117,1199,1,0,0:0:0:0:
303,105,1386,1,0,0:0:0:0:
57,160,1574,5,8,0:0:0:0:
371,165,1761,1,8,0:0:0:0:
371,165,1949,1,0,0:0:0:0:
227,104,2136,2,0,P|170:132|241:209,1,185
354,129,2699,1,0,0:0:0:0:
192,117,2886,1,0,0:0:0:0:
437,198,3074,5,8,0:0:0:0:
158,205,3261,1,8,0:0:0:0:
285,158,3449,1,0,0:0:0:0:
116,146,3636,2,0,P|62:111|129:30,1,185
241,51,4199,1,0,0:0:0:0:
74,63,4386,1,0,0:0:0:0:
366,89,4574,6,0,P|427:116|355:177,1,185,8|0,0:0|0:0,0:0:0:0:
69,218,5136,2,0,L|283:221,1,180.374991743088,8|0,0:0|0:0,0:0:0:0:
184,158,5511,1,8,3:0:0:0:
120,125,5605,1,8,3:0:0:0:
329,112,5699,1,8,0:0:0:0:
390,106,5792,1,8,3:0:0:0:
150,56,5886,1,8,3:0:0:0:
84,49,5980,1,0,0:0:0:0:
313,42,6074,5,4,0:0:0:0:
371,48,6167,1,0,0:0:0:0:
414,88,6261,1,0,0:0:0:0:
422,147,6355,1,0,0:0:0:0:
229,137,6449,2,0,L|156:137,1,60.1249972476961,8|0,0:0|0:0,0:0:0:0:
229,137,6636,2,0,L|299:137,1,60.1249972476961
111,207,6824,6,0,L|99:103,1,60.1249972476961,8|0,3:0|0:0,0:0:0:0:
203,88,7011,2,0,L|283:87,1,60.1249972476961
50,114,7199,2,0,L|38:30,1,60.1249972476961,8|0,0:0|0:0,0:0:0:0:
121,32,7386,1,0,0:0:0:0:
432,182,7574,6,0,L|344:183,1,60.1249972476961,8|0,3:0|0:0,0:0:0:0:
189,123,7761,2,0,L|112:126,1,60.1249972476961
303,93,7949,2,0,L|375:95,1,60.1249972476961,8|0,0:0|0:0,0:0:0:0:
140,188,8136,1,0,0:0:0:0:
301,157,8324,6,0,L|442:161,1,120.249994495392,8|0,3:0|0:0,0:0:0:0:
139,93,8699,2,0,L|52:90,1,60.1249972476961,8|0,0:0|0:0,0:0:0:0:
303,75,8886,2,0,L|365:76,1,60.1249972476961
71,191,9074,6,0,L|45:38,1,120.249994495392,8|0,3:0|0:0,0:0:0:0:
324,108,9449,2,0,L|241:105,1,60.1249972476961,8|0,0:0|0:0,0:0:0:0:
71,128,9636,2,0,L|136:129,1,60.1249972476961
434,83,9824,6,0,L|443:219,1,120.249994495392,8|0,3:0|0:0,0:0:0:0:
166,163,10199,2,0,L|251:164,1,60.1249972476961,8|0,0:0|0:0,0:0:0:0:
454,143,10386,2,0,L|381:141,1,60.1249972476961
101,224,10574,6,0,L|84:83,1,120.249994495392,8|0,3:0|0:0,0:0:0:0:
184,84,10855,1,0,0:0:0:0:
285,120,10949,2,0,L|298:32,1,60.1249972476961,8|0,0:0|0:0,0:0:0:0:
204,55,11136,2,0,L|194:-7,1,60.1249972476961
377,65,11324,6,0,L|466:65,1,60.1249972476961,8|0,3:0|0:0,0:0:0:0:
230,143,11511,2,0,L|222:74,1,60.1249972476961
49,97,11699,2,0,L|36:17,1,60.1249972476961,8|0,0:0|0:0,0:0:0:0:
279,65,11886,2,0,L|357:64,1,60.1249972476961
75,197,12074,6,0,L|59:93,1,83.2499974594117,4|0,0:0|0:0,0:0:0:0:
314,86,12449,2,0,P|361:103|387:192,1,124.874996189118,8|0,0:0|0:0,0:0:0:0:
207,165,12824,2,0,L|96:165,1,83.2499974594117,8|0,3:0|0:0,0:0:0:0:
270,102,13199,1,8,0:0:0:0:
122,100,13386,1,0,0:0:0:0:
406,143,13574,5,8,3:0:0:0:
269,191,13761,2,0,L|260:83,1,83.2499974594117,0|8,0:0|0:0,0:0:0:0:
442,96,14136,2,0,P|451:164|357:201,1,166.499994918823
219,118,14699,1,8,0:0:0:0:
373,111,14886,1,0,0:0:0:0:
101,157,15074,5,8,3:0:0:0:
251,114,15261,2,0,L|256:207,1,83.2499974594117,0|8,0:0|0:0,0:0:0:0:
88,218,15636,2,0,P|42:185|108:116,1,166.499994918823
250,118,16199,1,8,0:0:0:0:
91,115,16386,1,0,0:0:0:0:
405,142,16574,5,8,3:0:0:0:
250,118,16761,1,0,0:0:0:0:
405,142,16949,1,8,0:0:0:0:
250,118,17136,2,0,L|238:1,1,83.2499974594117,0|8,0:0|3:0,0:0:0:0:
399,31,17511,1,0,0:0:0:0:
141,60,17699,2,0,L|83:60,1,41.6249987297059,8|0,0:0|0:0,0:0:0:0:
313,75,17886,2,0,L|373:75,1,41.6249987297059
94,140,18074,5,4,0:0:0:0:
350,105,18449,2,0,L|360:212,1,83.2499974594117,8|0,0:0|0:0,0:0:0:0:
101,206,18824,2,0,L|84:86,1,83.2499974594117,8|0,3:0|0:0,0:0:0:0:
247,99,19199,1,8,0:0:0:0:
90,91,19386,1,0,0:0:0:0:
394,94,19574,5,8,3:0:0:0:
236,148,19761,2,0,L|116:149,1,83.2499974594117,0|8,0:0|0:0,0:0:0:0:
419,73,20136,2,0,P|479:89|412:131,1,166.499994918823
172,115,20699,2,0,L|77:115,1,83.2499974594117,8|0,0:0|0:0,0:0:0:0:
394,138,21074,5,8,3:0:0:0:
241,170,21261,2,0,L|339:173,1,83.2499974594117,0|8,0:0|0:0,0:0:0:0:
59,236,21636,2,0,P|4:205|63:141,1,166.499994918823
343,131,22199,2,0,L|433:130,1,83.2499974594117,8|0,0:0|0:0,0:0:0:0:
145,144,22574,5,8,3:0:0:0:
301,127,22761,1,0,0:0:0:0:
145,144,22949,1,8,0:0:0:0:
410,98,23136,2,0,P|460:127|387:197,1,166.499994918823,0|8,0:0|3:0,0:0:0:0:
253,155,23699,1,8,0:0:0:0:
406,80,23886,2,0,L|413:118,2,20.8124993648529
132,85,24074,6,0,L|36:84,1,83.2499974594117,4|0,0:0|0:0,0:0:0:0:
364,93,24449,2,0,L|371:212,1,83.2499974594117,8|0,0:0|0:0,0:0:0:0:
217,181,24824,2,0,L|126:180,1,83.2499974594117,8|0,3:0|0:0,0:0:0:0:
294,116,25199,1,8,0:0:0:0:
134,109,25386,1,0,0:0:0:0:
413,144,25574,5,8,3:0:0:0:
256,164,25761,2,0,L|136:163,1,83.2499974594117,0|8,0:0|0:0,0:0:0:0:
340,90,26136,2,0,P|388:107|321:176,1,166.499994918823
178,184,26699,2,0,L|171:72,1,83.2499974594117,8|0,0:0|0:0,0:0:0:0:
436,117,27074,5,8,3:0:0:0:
284,161,27261,2,0,L|177:164,1,83.2499974594117,0|8,0:0|0:0,0:0:0:0:
366,105,27636,2,0,P|422:134|350:187,1,166.499994918823
212,163,28199,1,8,0:0:0:0:
370,195,28386,1,0,0:0:0:0:
51,156,28574,5,8,3:0:0:0:
212,163,28761,1,0,0:0:0:0:
51,156,28949,1,8,0:0:0:0:
330,83,29136,2,0,P|383:106|316:167,1,166.499994918823
172,119,29699,1,8,0:0:0:0:
334,112,29886,2,0,L|341:40,1,41.6249987297059
116,74,30074,5,8,3:0:0:0:
269,152,30261,2,0,L|369:152,1,83.2499974594117,0|8,0:0|0:0,0:0:0:0:
185,78,30636,2,0,L|95:79,1,83.2499974594117,0|8,0:0|3:0,0:0:0:0:
391,75,31011,2,0,L|475:80,1,83.2499974594117,0|8,0:0|0:0,0:0:0:0:
134,216,31386,6,0,P|77:188|146:141,1,166.499994918823
412,95,31949,2,0,L|426:183,1,83.2499974594117,8|0,0:0|0:0,0:0:0:0:
134,216,32324,2,0,L|311:214,1,166.499994918823,8|8,3:0|0:0,0:0:0:0:
158,141,32886,1,0,0:0:0:0:
417,90,33074,6,0,P|466:119|400:189,1,166.499994918823,8|8,3:0|0:0,0:0:0:0:
250,130,33636,2,0,L|174:129,1,41.6249987297059
383,155,33824,2,0,L|388:45,1,83.2499974594117,8|0,3:0|0:0,0:0:0:0:
304,60,34199,2,0,L|410:78,1,83.2499974594117,8|0,0:0|0:0,0:0:0:0:
125,106,34574,6,0,L|78:106,1,41.6249987297059,8|0,3:0|0:0,0:0:0:0:
308,103,34761,2,0,L|365:102,1,41.6249987297059
112,214,34949,1,8,0:0:0:0:
50,213,35042,1,0,0:0:0:0:
50,213,35136,1,0,0:0:0:0:
112,214,35229,1,0,0:0:0:0:
320,154,35324,5,8,3:0:0:0:
354,154,35370,1,0,0:0:0:0:
390,153,35417,1,0,0:0:0:0:
175,85,35511,1,0,0:0:0:0:
141,85,35557,1,0,0:0:0:0:
105,84,35604,1,0,0:0:0:0:
348,44,35699,1,8,0:0:0:0:
383,67,35745,1,0,0:0:0:0:
348,90,35792,1,0,0:0:0:0:
111,173,35886,1,0,0:0:0:0:
77,173,35932,1,0,0:0:0:0:
41,172,35979,1,0,0:0:0:0:
306,114,36074,6,0,P|351:166|297:191,1,138.75,8|0,3:0|0:0,0:0:0:0:
100,91,36449,1,8,0:0:0:0:
258,250,36636,2,0,L|147:250,2,92.5,0|8|0,0:0|3:0|0:0,0:0:0:0:
341,200,37105,1,0,0:0:0:0:
90,150,37199,2,0,L|76:24,1,120.249994495392,8|0,0:0|0:0,0:0:0:0:
389,76,37574,5,8,3:0:0:0:
226,135,37761,2,0,L|317:135,2,87.8749976534844,0|8|0,0:0|0:0|0:0,0:0:0:0:
486,220,38324,2,0,L|490:164,1,43.9374988267422,8|0,3:0|0:0,0:0:0:0:
426,141,38511,1,0,0:0:0:0:
482,128,38605,1,0,0:0:0:0:
176,173,38699,2,0,L|69:174,1,87.8749976534844,8|0,0:0|0:0,0:0:0:0:
133,105,38980,1,0,0:0:0:0:
368,94,39074,6,0,P|411:116|366:172,1,138.75,8|0,3:0|0:0,0:0:0:0:
133,105,39449,1,8,0:0:0:0:
295,184,39636,2,0,L|182:185,2,92.5,0|8|0,0:0|3:0|0:0,0:0:0:0:
371,137,40105,1,0,0:0:0:0:
65,204,40199,2,0,L|55:84,1,120.249994495392,8|0,0:0|0:0,0:0:0:0:
356,82,40574,5,8,3:0:0:0:
171,142,40761,2,0,L|273:141,2,87.8749976534844,0|8|0,0:0|0:0|0:0,0:0:0:0:
429,177,41324,2,0,L|434:118,1,43.9374988267422,8|0,3:0|0:0,0:0:0:0:
368,103,41511,2,0,L|313:105,1,43.9374988267422
487,128,41699,2,0,L|492:39,1,87.8749976534844,8|0,0:0|0:0,0:0:0:0:
416,35,41980,1,0,0:0:0:0:
122,212,42074,6,0,P|80:177|131:138,1,131.812496480227,12|0,3:0|0:0,0:0:0:0:
379,162,42449,1,8,0:0:0:0:
119,162,42636,2,0,L|276:161,1,138.75,12|0,3:0|0:0,0:0:0:0:
484,187,43011,1,0,0:0:0:0:
132,245,43199,2,0,P|86:202|146:171,1,138.75,12|0,3:0|0:0,0:0:0:0:
362,150,43574,5,8,3:0:0:0:
186,116,43761,2,0,L|246:115,1,46.25
443,93,43949,2,0,L|451:198,1,92.5,8|0,0:0|0:0,0:0:0:0:
137,223,44324,2,0,L|120:112,1,92.5,8|0,3:0|0:0,0:0:0:0:
219,99,44605,1,0,0:0:0:0:
321,104,44699,2,0,L|418:102,1,92.5,8|0,0:0|0:0,0:0:0:0:
75,190,45074,6,0,L|59:97,1,92.5,8|0,3:0|0:0,0:0:0:0:
437,190,45449,2,0,L|453:97,1,92.5,8|0,0:0|0:0,0:0:0:0:
203,77,45824,1,8,3:0:0:0:
288,73,45917,1,0,0:0:0:0:
374,108,46011,1,0,0:0:0:0:
120,126,46199,1,8,0:0:0:0:
374,108,46386,1,0,0:0:0:0:
37,185,46574,6,0,L|150:185,2,92.5,8|0|8,3:0|0:0|0:0,0:0:0:0:
84,122,47042,1,0,0:0:0:0:
293,141,47136,2,0,L|366:142,1,64.7499980239869
139,61,47324,2,0,L|79:61,1,46.25,8|0,3:0|0:0,0:0:0:0:
367,50,47511,5,0,0:0:0:0:
399,48,47557,1,0,0:0:0:0:
428,60,47604,1,0,0:0:0:0:
450,84,47651,1,0,0:0:0:0:
459,114,47698,1,0,0:0:0:0:
453,146,47745,1,0,0:0:0:0:
435,172,47792,1,0,0:0:0:0:
407,188,47839,1,0,0:0:0:0:
375,189,47886,1,0,0:0:0:0:
153,149,47980,1,0,0:0:0:0:
351,98,48074,6,0,P|389:112|341:184,1,152.625004657746,4|0,0:0|0:0,0:0:0:0:
119,196,48449,1,8,0:0:0:0:
440,131,48636,2,0,L|265:134,1,152.625004657746
369,66,49011,1,0,0:0:0:0:
125,104,49199,2,0,L|117:2,1,101.750003105164,8|0,0:0|0:0,0:0:0:0:
389,116,49574,5,8,3:0:0:0:
119,196,49949,1,8,0:0:0:0:
440,131,50136,2,0,L|265:134,1,152.625004657746
369,66,50511,1,0,0:0:0:0:
125,104,50699,2,0,L|117:2,1,101.750003105164,8|0,0:0|0:0,0:0:0:0:
388,107,51074,5,8,3:0:0:0:
120,193,51449,1,8,0:0:0:0:
378,94,51636,2,0,P|422:115|370:190,1,152.625004657746
104,115,52011,1,0,0:0:0:0:
256,85,52199,1,8,0:0:0:0:
408,97,52386,1,0,0:0:0:0:
113,193,52574,6,0,L|98:85,1,101.750003105164,8|0,3:0|0:0,0:0:0:0:
186,78,52855,1,0,0:0:0:0:
396,138,52949,1,8,0:0:0:0:
102,235,53136,2,0,P|51:210|109:159,1,152.625004657746
333,165,53511,2,0,L|454:166,2,101.750003105164,0|8|0,0:0|0:0|0:0,0:0:0:0:
79,140,54074,5,8,3:0:0:0:
244,137,54261,2,0,L|351:138,1,101.750003105164,0|8,0:0|0:0,0:0:0:0:
182,212,54636,2,0,P|120:174|192:90,1,203.500006210327
335,93,55199,1,8,0:0:0:0:
86,175,55386,6,0,L|70:62,1,101.750003105164,0|8,0:0|3:0,0:0:0:0:
420,41,55761,2,0,L|433:161,1,101.750003105164,0|8,0:0|0:0,0:0:0:0:
146,176,56136,2,0,L|354:174,1,203.500006210327
241,112,56699,1,8,0:0:0:0:
403,98,56886,1,0,0:0:0:0:
135,84,57074,6,0,L|31:83,1,101.750003105164,8|0,3:0|0:0,0:0:0:0:
339,156,57449,2,0,L|444:155,1,101.750003105164,8|0,0:0|0:0,0:0:0:0:
284,93,57824,2,0,L|183:93,1,101.750003105164,8|0,3:0|0:0,0:0:0:0:
331,169,58199,1,8,0:0:0:0:
179,178,58386,1,0,0:0:0:0:
444,113,58574,5,8,3:0:0:0:
280,93,58761,2,0,L|158:93,1,101.750003105164,0|8,0:0|0:0,0:0:0:0:
425,176,59136,1,0,0:0:0:0:
155,142,59324,1,8,3:0:0:0:
312,129,59511,1,0,0:0:0:0:
62,205,59699,1,8,0:0:0:0:
20,180,59792,1,0,0:0:0:0:
22,132,59886,1,0,0:0:0:0:
66,113,59980,1,0,0:0:0:0:
345,197,60074,6,0,L|348:78,1,101.750003105164,4|0,0:0|0:0,0:0:0:0:
103,107,60449,1,8,0:0:0:0:
413,100,60636,2,0,P|455:116|397:181,1,152.625004657746
179,152,61011,2,0,L|71:151,1,101.750003105164,0|8,0:0|0:0,0:0:0:0:
391,128,61386,1,0,0:0:0:0:
135,227,61574,5,8,3:0:0:0:
408,106,61949,1,8,0:0:0:0:
99,100,62136,2,0,P|57:116|115:181,1,152.625004657746
333,152,62511,2,0,L|441:151,1,101.750003105164,0|8,0:0|0:0,0:0:0:0:
121,128,62886,1,0,0:0:0:0:
375,226,63074,5,8,3:0:0:0:
103,107,63449,1,8,0:0:0:0:
413,100,63636,2,0,P|455:116|397:181,1,152.625004657746
179,152,64011,1,0,0:0:0:0:
323,117,64199,1,8,0:0:0:0:
469,115,64386,1,0,0:0:0:0:
152,225,64574,6,0,L|143:111,1,101.750003105164,8|0,3:0|0:0,0:0:0:0:
231,99,64855,1,0,0:0:0:0:
428,152,64949,1,8,0:0:0:0:
150,185,65136,2,0,P|106:161|172:103,1,152.625004657746
382,146,65511,2,0,L|500:145,2,101.750003105164,0|8|0,0:0|0:0|0:0,0:0:0:0:
109,124,66074,5,8,3:0:0:0:
265,155,66261,2,0,L|273:50,1,101.750003105164,0|8,0:0|0:0,0:0:0:0:
121,198,66636,2,0,P|66:172|145:92,1,203.500006210327
281,99,67199,1,8,0:0:0:0:
130,85,67386,1,0,0:0:0:0:
419,180,67574,5,8,3:0:0:0:
271,144,67761,2,0,L|149:143,1,101.750003105164,0|8,0:0|0:0,0:0:0:0:
430,80,68136,2,0,P|477:103|415:198,1,203.500006210327
265,133,68699,1,8,0:0:0:0:
414,197,68886,1,0,0:0:0:0:
84,167,69074,6,0,L|78:56,1,101.750003105164,8|0,3:0|0:0,0:0:0:0:
428,167,69449,2,0,L|434:56,1,101.750003105164,8|0,0:0|0:0,0:0:0:0:
264,67,69824,2,0,L|153:67,1,101.750003105164,8|0,3:0|0:0,0:0:0:0:
323,163,70199,2,0,L|428:163,1,101.750003105164,8|0,0:0|0:0,0:0:0:0:
121,134,70574,5,8,3:0:0:0:
279,99,70761,2,0,L|384:97,1,101.750003105164,0|8,0:0|0:0,0:0:0:0:
228,142,71136,1,0,0:0:0:0:
483,223,71324,2,0,L|491:113,1,101.750003105164,8|0,3:0|0:0,0:0:0:0:
147,103,71699,2,0,L|129:-9,1,101.750003105164,8|0,0:0|0:0,0:0:0:0:
417,45,72074,6,0,P|469:71|412:133,1,166.499994918823,8|8,3:0|0:0,0:0:0:0:
326,120,72636,1,0,0:0:0:0:
65,181,72824,2,0,L|57:87,1,83.2499974594117,8|0,3:0|0:0,0:0:0:0:
121,72,73105,1,0,0:0:0:0:
314,164,73199,2,0,L|358:163,1,41.6249987297059,8|0,0:0|0:0,0:0:0:0:
187,100,73386,2,0,L|140:101,1,41.6249987297059
380,63,73574,6,0,P|436:85|376:149,1,166.499994918823,8|8,3:0|0:0,0:0:0:0:
302,148,74136,1,0,0:0:0:0:
51,177,74324,2,0,L|235:179,1,166.499994918823,8|8,3:0|0:0,0:0:0:0:
80,115,74886,1,0,0:0:0:0:
341,143,75074,6,0,L|400:144,1,41.6249987297059,4|0,0:0|0:0,0:0:0:0:
207,88,75261,2,0,L|146:90,1,41.6249987297059
399,34,75449,2,0,L|416:123,1,83.2499974594117,8|0,0:0|0:0,0:0:0:0:
341,143,75730,1,0,0:0:0:0:
146,127,75824,5,8,3:0:0:0:
83,125,75917,1,0,0:0:0:0:
146,127,76011,1,0,0:0:0:0:
210,127,76105,1,0,0:0:0:0:
39,202,76199,2,0,L|26:97,1,92.5,8|0,0:0|0:0,0:0:0:0:
97,71,76480,1,0,0:0:0:0:
326,158,76574,6,0,L|376:158,1,46.25,8|0,3:0|0:0,0:0:0:0:
202,90,76761,2,0,L|146:90,1,46.25
335,106,76949,2,0,L|340:42,1,46.25,8|0,0:0|0:0,0:0:0:0:
491,85,77136,2,0,L|497:22,1,46.25
208,139,77324,6,0,L|144:138,1,46.25,8|0,3:0|0:0,0:0:0:0:
315,202,77511,2,0,L|366:202,1,46.25
156,104,77699,5,8,0:0:0:0:
122,104,77745,1,0,0:0:0:0:
86,103,77792,1,0,0:0:0:0:
328,121,77886,1,0,0:0:0:0:
362,121,77932,1,0,0:0:0:0:
398,120,77979,1,0,0:0:0:0:
161,98,78074,6,0,P|123:112|171:184,1,152.625004657746,4|0,0:0|0:0,0:0:0:0:
393,196,78449,1,8,0:0:0:0:
72,131,78636,2,0,L|247:134,1,152.625004657746
143,66,79011,1,0,0:0:0:0:
387,104,79199,2,0,L|395:2,1,101.750003105164,8|0,0:0|0:0,0:0:0:0:
123,116,79574,5,8,3:0:0:0:
393,196,79949,1,8,0:0:0:0:
72,131,80136,2,0,L|247:134,1,152.625004657746
143,66,80511,1,0,0:0:0:0:
387,104,80699,2,0,L|395:2,1,101.750003105164,8|0,0:0|0:0,0:0:0:0:
124,107,81074,5,8,3:0:0:0:
392,193,81449,1,8,0:0:0:0:
134,94,81636,2,0,P|90:115|142:190,1,152.625004657746
408,115,82011,1,0,0:0:0:0:
256,85,82199,1,8,0:0:0:0:
104,97,82386,1,0,0:0:0:0:
399,193,82574,6,0,L|414:85,1,101.750003105164,8|0,3:0|0:0,0:0:0:0:
326,78,82855,1,0,0:0:0:0:
116,138,82949,1,8,0:0:0:0:
410,235,83136,2,0,P|461:210|403:159,1,152.625004657746
179,165,83511,2,0,L|58:166,2,101.750003105164,0|8|0,0:0|0:0|0:0,0:0:0:0:
433,140,84074,5,8,3:0:0:0:
268,137,84261,2,0,L|161:138,1,101.750003105164,0|8,0:0|0:0,0:0:0:0:
330,212,84636,2,0,P|392:174|320:90,1,203.500006210327
177,93,85199,1,8,0:0:0:0:
426,175,85386,6,0,L|442:62,1,101.750003105164,0|8,0:0|3:0,0:0:0:0:
92,41,85761,2,0,L|79:161,1,101.750003105164,0|8,0:0|0:0,0:0:0:0:
366,176,86136,2,0,L|158:174,1,203.500006210327
271,112,86699,1,8,0:0:0:0:
109,98,86886,1,0,0:0:0:0:
377,84,87074,6,0,L|481:83,1,101.750003105164,8|0,3:0|0:0,0:0:0:0:
173,156,87449,2,0,L|68:155,1,101.750003105164,8|0,0:0|0:0,0:0:0:0:
228,93,87824,2,0,L|329:93,1,101.750003105164,8|0,3:0|0:0,0:0:0:0:
181,169,88199,1,8,0:0:0:0:
333,178,88386,1,0,0:0:0:0:
68,113,88574,5,8,3:0:0:0:
232,93,88761,2,0,L|354:93,1,101.750003105164,0|8,0:0|0:0,0:0:0:0:
87,176,89136,1,0,0:0:0:0:
357,142,89324,1,8,3:0:0:0:
200,129,89511,1,0,0:0:0:0:
450,205,89699,1,8,0:0:0:0:
492,180,89792,1,0,0:0:0:0:
490,132,89886,1,0,0:0:0:0:
446,113,89980,1,0,0:0:0:0:
167,197,90074,6,0,L|164:78,1,101.750003105164,4|0,0:0|0:0,0:0:0:0:
409,107,90449,1,8,0:0:0:0:
99,100,90636,2,0,P|57:116|115:181,1,152.625004657746
333,152,91011,2,0,L|441:151,1,101.750003105164,0|8,0:0|0:0,0:0:0:0:
121,128,91386,1,0,0:0:0:0:
390,227,91574,5,8,3:0:0:0:
103,107,91949,1,8,0:0:0:0:
413,100,92136,2,0,P|455:116|397:181,1,152.625004657746
179,152,92511,2,0,L|71:151,1,101.750003105164,0|8,0:0|0:0,0:0:0:0:
391,128,92886,1,0,0:0:0:0:
127,229,93074,5,8,3:0:0:0:
409,107,93449,1,8,0:0:0:0:
99,100,93636,2,0,P|57:116|115:181,1,152.625004657746
333,152,94011,1,0,0:0:0:0:
189,117,94199,1,8,0:0:0:0:
43,115,94386,1,0,0:0:0:0:
360,225,94574,6,0,L|369:111,1,101.750003105164,8|0,3:0|0:0,0:0:0:0:
281,99,94855,1,0,0:0:0:0:
84,152,94949,1,8,0:0:0:0:
362,185,95136,2,0,P|406:161|340:103,1,152.625004657746
130,146,95511,2,0,L|12:145,2,101.750003105164,0|8|0,0:0|0:0|0:0,0:0:0:0:
403,124,96074,5,8,3:0:0:0:
247,155,96261,2,0,L|239:50,1,101.750003105164,0|8,0:0|0:0,0:0:0:0:
391,198,96636,2,0,P|446:172|367:92,1,203.500006210327
231,99,97199,1,8,0:0:0:0:
382,85,97386,1,0,0:0:0:0:
93,180,97574,5,8,3:0:0:0:
241,144,97761,2,0,L|363:143,1,101.750003105164,0|8,0:0|0:0,0:0:0:0:
82,80,98136,2,0,P|35:103|97:198,1,203.500006210327
247,133,98699,1,8,0:0:0:0:
98,197,98886,1,0,0:0:0:0:
428,167,99074,6,0,L|434:56,1,101.750003105164,8|0,3:0|0:0,0:0:0:0:
84,167,99449,2,0,L|78:56,1,101.750003105164,8|0,0:0|0:0,0:0:0:0:
248,67,99824,2,0,L|359:67,1,101.750003105164,8|0,3:0|0:0,0:0:0:0:
189,163,100199,2,0,L|84:163,1,101.750003105164,8|0,0:0|0:0,0:0:0:0:
391,134,100574,5,8,3:0:0:0:
233,99,100761,2,0,L|227:-3,1,101.750003105164,0|8,0:0|0:0,0:0:0:0:
391,134,101136,1,0,0:0:0:0:
131,113,101324,2,0,L|21:113,1,101.750003105164,8|0,3:0|0:0,0:0:0:0:
381,113,101699,2,0,L|491:113,1,101.750003105164,8|0,0:0|0:0,0:0:0:0:
142,210,102074,6,0,L|130:101,1,92.5,8|0,3:0|0:0,0:0:0:0:
208,93,102355,1,0,0:0:0:0:
412,175,102449,2,0,L|418:75,1,92.5,8|0,0:0|0:0,0:0:0:0:
147,133,102824,2,0,L|140:28,1,92.5,8|0,3:0|0:0,0:0:0:0:
226,39,103105,1,0,0:0:0:0:
386,143,103199,2,0,L|396:91,1,46.25,8|0,0:0|0:0,0:0:0:0:
175,118,103386,2,0,L|164:59,1,46.25
362,82,103574,6,0,L|468:85,1,92.5,8|0,3:0|0:0,0:0:0:0:
175,151,103949,2,0,L|74:148,1,92.5,8|0,0:0|0:0,0:0:0:0:
393,92,104324,2,0,P|462:125|393:169,1,185,8|8,3:0|0:0,0:0:0:0:
307,165,104886,1,0,0:0:0:0:
29,156,105074,6,0,L|81:155,1,46.25,4|0,0:0|0:0,0:0:0:0:
290,108,105261,2,0,L|355:110,1,46.25
99,196,105449,1,8,0:0:0:0:
41,181,105542,1,0,0:0:0:0:
41,111,105636,1,0,0:0:0:0:
98,106,105730,1,0,0:0:0:0:
320,154,105824,5,8,3:0:0:0:
354,154,105870,1,0,0:0:0:0:
390,153,105917,1,0,0:0:0:0:
175,85,106011,1,0,0:0:0:0:
141,85,106057,1,0,0:0:0:0:
105,84,106104,1,0,0:0:0:0:
348,44,106199,1,8,0:0:0:0:
383,67,106245,1,0,0:0:0:0:
348,90,106292,1,0,0:0:0:0:
111,173,106386,1,0,0:0:0:0:
77,173,106432,1,0,0:0:0:0:
41,172,106479,1,0,0:0:0:0:
307,174,106574,6,0,L|369:175,1,46.25,8|0,3:0|0:0,0:0:0:0:
154,117,106761,2,0,L|147:52,1,46.25
376,65,106949,2,0,L|320:62,1,46.25,8|0,0:0|0:0,0:0:0:0:
96,88,107136,2,0,L|88:24,1,46.25
295,106,107324,6,0,L|353:106,1,46.25,8|0,3:0|0:0,0:0:0:0:
147,36,107511,2,0,L|91:34,1,46.25
320,154,107699,1,8,0:0:0:0:
354,154,107745,1,0,0:0:0:0:
390,153,107792,1,0,0:0:0:0:
125,104,107886,1,0,0:0:0:0:
91,104,107932,1,0,0:0:0:0:
55,103,107979,1,0,0:0:0:0:
281,63,108074,6,0,L|377:63,1,92.5,8|0,3:0|0:0,0:0:0:0:
