osu file format v14

[General]
AudioFilename: audio.MP3
AudioLeadIn: 0
PreviewTime: 77949
Countdown: 0
SampleSet: Soft
StackLeniency: 0.5
Mode: 2
LetterboxInBreaks: 0
WidescreenStoryboard: 1

[Editor]
Bookmarks: 6074,12074,36074,45449,48074,49949
DistanceSpacing: 0.2
BeatDivisor: 4
GridSize: 8
TimelineZoom: 1.6

[Metadata]
Title:BRAND NEW WORLD (TV Size)
TitleUnicode:BRAND NEW WORLD (TV Size)
Artist:D-51
ArtistUnicode:D-51
Creator:Secre
Version:Salad
Source:ONE PIECE
Tags:chickenbible ワンピース opening op 6 japanese anime 上里優 uezatoyu yu 吉田安英 yoshida yasuhide yasu
BeatmapID:2788501
BeatmapSetID:1333640

[Difficulty]
HPDrainRate:3
CircleSize:3
OverallDifficulty:6.9
ApproachRate:6.9
SliderMultiplier:1.61
SliderTickRate:1

[Events]
//Background and Video events
Video,-542,"video.avi"
0,0,"bg.jpg",0,0
//Break Periods
//Storyboard Layer 0 (Background)
//Storyboard Layer 1 (Fail)
//Storyboard Layer 2 (Pass)
//Storyboard Layer 3 (Foreground)
//Storyboard Layer 4 (Overlay)
//Storyboard Sound Samples

[TimingPoints]
74,375,4,2,1,55,1,0
5136,-100,4,2,1,55,0,0
6074,-100,4,2,1,55,0,0
12074,-100,4,2,1,55,0,0
34574,-100,4,2,1,60,0,0
35136,-100,4,2,1,55,0,0
35886,-100,4,2,1,55,0,0
36074,-100,4,2,17,75,0,0
36261,-100,4,2,1,55,0,0
36917,-100,4,2,1,5,0,0
37011,-100,4,2,1,55,0,0
37105,-100,4,2,1,40,0,0
37199,-100,4,2,1,55,0,0
37386,-100,4,2,1,35,0,0
37574,-100,4,2,1,55,0,0
39074,-100,4,2,1,55,0,0
39917,-100,4,2,1,5,0,0
40011,-100,4,2,1,55,0,0
40105,-100,4,2,1,40,0,0
40199,-100,4,2,1,55,0,0
40386,-100,4,2,1,35,0,0
40574,-100,4,2,1,55,0,0
42074,-100,4,2,1,55,0,0
42636,-100,4,2,1,55,0,0
45824,-100,4,2,1,55,0,0
45870,-100,4,2,1,40,0,0
46011,-100,4,2,1,55,0,0
46058,-100,4,2,1,40,0,0
46574,-100,4,2,1,55,0,0
47136,-100,4,2,1,55,0,0
47324,-100,4,2,1,55,0,0
47511,-100,4,2,17,70,0,0
47558,-100,4,2,1,70,0,0
47699,-100,4,2,1,60,0,0
47980,-100,4,2,1,5,0,0
48074,-100,4,2,17,55,0,1
48261,-100,4,2,1,75,0,1
59886,-100,4,2,1,75,0,0
60074,-100,4,2,1,75,0,1
72074,-100,4,2,1,55,0,0
73574,-100,4,2,1,55,0,0
75074,-100,4,2,1,65,0,0
76199,-100,4,2,1,65,0,0
78074,-100,4,2,17,55,0,1
78261,-100,4,2,1,75,0,1
89886,-100,4,2,1,75,0,0
90074,-100,4,2,1,75,0,1
102074,-100,4,2,1,60,0,0
106949,-100,4,2,1,60,0,0
108074,-100,4,2,1,60,0,0
108167,-100,4,2,1,5,0,0

[Colours]
Combo1 : 149,236,134
Combo2 : 251,190,108
Combo3 : 242,121,97
Combo4 : 107,173,245

[HitObjects]
340,161,74,5,8,0:0:0:0:
343,77,261,1,8,0:0:0:0:
146,161,1574,5,8,0:0:0:0:
142,77,1761,1,8,0:0:0:0:
391,181,3074,5,8,0:0:0:0:
395,98,3261,1,8,0:0:0:0:
91,226,4574,6,0,P|44:194|114:127,1,161,8|0,0:0|0:0,0:0:0:0:
249,171,5136,2,0,L|410:171,1,161,8|8,0:0|3:0,0:0:0:0:
329,107,5699,1,8,0:0:0:0:
251,111,5886,1,8,3:0:0:0:
87,224,6074,6,0,P|41:193|119:121,1,161,4|8,0:0|0:0,0:0:0:0:
237,142,6824,2,0,L|65:143,1,161,8|8,3:0|0:0,0:0:0:0:
364,288,7574,6,0,P|419:235|353:207,1,161,8|8,3:0|0:0,0:0:0:0:
284,221,8136,2,0,L|116:216,1,161
201,153,8699,1,8,0:0:0:0:
469,242,9074,6,0,L|478:70,1,161,8|8,3:0|0:0,0:0:0:0:
316,156,9824,1,8,3:0:0:0:
396,155,10011,1,0,0:0:0:0:
476,154,10199,1,8,0:0:0:0:
196,255,10574,6,0,P|146:228|200:166,1,161,8|8,3:0|0:0,0:0:0:0:
280,150,11136,1,0,0:0:0:0:
201,139,11324,2,0,L|194:37,1,80.5,8|0,3:0|0:0,0:0:0:0:
277,76,11699,2,0,L|280:-26,1,80.5,8|0,0:0|0:0,0:0:0:0:
116,153,12074,5,4,0:0:0:0:
116,153,12449,2,0,L|291:152,1,161,8|8,0:0|3:0,0:0:0:0:
117,228,13199,2,0,L|112:142,1,80.5,8|0,0:0|0:0,0:0:0:0:
272,144,13574,6,0,L|365:143,1,80.5,8|0,3:0|0:0,0:0:0:0:
210,237,14136,2,0,L|200:69,1,161
285,84,14699,2,0,L|294:182,1,80.5,8|0,0:0|0:0,0:0:0:0:
129,185,15074,6,0,L|34:188,1,80.5,8|0,3:0|0:0,0:0:0:0:
185,241,15636,2,0,L|364:239,1,161
263,167,16199,2,0,L|252:78,1,80.5,8|0,0:0|0:0,0:0:0:0:
332,103,16574,6,0,L|430:103,2,80.5,8|0|8,3:0|0:0|0:0,0:0:0:0:
253,107,17136,2,0,L|55:110,1,161
175,191,17699,1,8,0:0:0:0:
444,205,18074,5,4,0:0:0:0:
444,205,18449,2,0,L|251:206,1,161,8|8,0:0|3:0,0:0:0:0:
431,162,19199,2,0,L|437:51,1,80.5,8|0,0:0|0:0,0:0:0:0:
272,68,19574,6,0,L|185:68,1,80.5,8|0,3:0|0:0,0:0:0:0:
343,192,20136,2,0,L|509:192,1,161
424,126,20699,2,0,L|314:126,1,80.5,8|0,0:0|0:0,0:0:0:0:
183,173,21074,6,0,L|171:66,1,80.5,8|0,3:0|0:0,0:0:0:0:
337,116,21636,2,0,L|145:114,1,161
256,197,22199,2,0,L|347:198,1,80.5,8|0,0:0|0:0,0:0:0:0:
250,260,22574,6,0,L|156:256,2,80.5,8|0|8,3:0|0:0|0:0,0:0:0:0:
331,258,23136,2,0,L|518:260,1,161,0|8,0:0|3:0,0:0:0:0:
409,187,23699,1,8,0:0:0:0:
130,168,24074,5,4,0:0:0:0:
130,168,24449,2,0,L|305:167,1,161,8|8,0:0|3:0,0:0:0:0:
131,243,25199,2,0,L|126:157,1,80.5,8|0,0:0|0:0,0:0:0:0:
286,159,25574,6,0,L|379:158,1,80.5,8|0,3:0|0:0,0:0:0:0:
224,252,26136,2,0,L|214:84,1,161
299,99,26699,2,0,L|308:197,1,80.5,8|0,0:0|0:0,0:0:0:0:
143,200,27074,6,0,L|48:203,1,80.5,8|0,3:0|0:0,0:0:0:0:
199,256,27636,2,0,L|378:254,1,161
277,182,28199,2,0,L|266:93,1,80.5,8|0,0:0|0:0,0:0:0:0:
346,118,28574,6,0,L|444:118,2,80.5,8|0|8,3:0|0:0|0:0,0:0:0:0:
267,122,29136,2,0,L|69:125,1,161
189,206,29699,1,8,0:0:0:0:
268,207,29886,1,0,0:0:0:0:
420,231,30074,6,0,L|424:126,1,80.5,8|0,3:0|0:0,0:0:0:0:
344,138,30449,1,8,0:0:0:0:
418,139,30636,2,0,L|416:44,1,80.5,0|8,0:0|3:0,0:0:0:0:
340,42,31011,2,0,L|243:45,1,80.5,0|8,0:0|0:0,0:0:0:0:
105,209,31386,6,0,P|55:182|124:117,1,161
180,109,31949,1,8,0:0:0:0:
338,133,32324,2,0,L|349:297,1,161,8|8,3:0|0:0,0:0:0:0:
275,293,32886,1,0,0:0:0:0:
110,239,33074,6,0,P|58:202|139:143,1,161,8|8,3:0|0:0,0:0:0:0:
179,133,33636,1,0,0:0:0:0:
258,136,33824,2,0,L|439:141,1,161,8|8,3:0|0:0,0:0:0:0:
144,227,34574,6,0,L|136:131,1,80.5,8|0,3:0|0:0,0:0:0:0:
215,127,34949,1,8,0:0:0:0:
486,152,35324,2,0,L|493:239,1,80.5,8|0,3:0|0:0,0:0:0:0:
409,243,35699,1,8,0:0:0:0:
327,244,35886,1,0,0:0:0:0:
165,225,36074,6,0,L|154:49,1,161,8|8,3:0|0:0,0:0:0:0:
234,52,36636,2,0,L|402:57,1,161
313,144,37199,1,8,0:0:0:0:
154,151,37574,5,8,3:0:0:0:
77,143,37761,2,0,L|71:57,1,80.5,0|8,0:0|0:0,0:0:0:0:
146,69,38136,1,0,0:0:0:0:
226,131,38324,2,0,L|230:42,1,80.5,8|0,3:0|0:0,0:0:0:0:
146,69,38699,2,0,L|143:-25,1,80.5,8|0,0:0|0:0,0:0:0:0:
304,91,39074,6,0,L|465:89,1,161,8|8,3:0|0:0,0:0:0:0:
381,172,39636,2,0,L|193:174,1,161
306,258,40199,1,8,0:0:0:0:
469,267,40574,5,8,3:0:0:0:
385,212,40761,2,0,L|377:117,1,80.5,0|8,0:0|0:0,0:0:0:0:
456,117,41136,1,0,0:0:0:0:
373,120,41324,2,0,L|268:122,1,80.5,8|0,3:0|0:0,0:0:0:0:
373,120,41699,2,0,L|375:25,1,80.5,8|0,0:0|0:0,0:0:0:0:
218,172,42074,6,0,L|40:174,1,161,12|8,3:0|0:0,0:0:0:0:
142,243,42636,2,0,L|324:245,1,161,12|0,3:0|0:0,0:0:0:0:
219,172,43199,6,0,L|40:169,1,161,12|8,3:0|3:0,0:0:0:0:
135,106,43761,1,0,0:0:0:0:
212,104,43949,1,8,0:0:0:0:
489,235,44324,2,0,L|492:54,1,161,8|8,3:0|0:0,0:0:0:0:
219,165,45074,6,0,L|35:161,2,161,8|8|8,3:0|0:0|3:0,0:0:0:0:
296,157,46011,1,0,0:0:0:0:
296,157,46199,1,8,0:0:0:0:
216,161,46386,1,0,0:0:0:0:
57,186,46574,6,0,L|50:83,1,80.5,8|0,3:0|0:0,0:0:0:0:
128,88,46949,1,8,0:0:0:0:
286,211,47136,2,0,L|467:212,1,161
367,139,47699,1,0,0:0:0:0:
67,166,48074,5,4,0:0:0:0:
67,166,48449,1,8,0:0:0:0:
148,169,48636,2,0,L|308:171,1,161
228,243,49199,1,8,0:0:0:0:
228,243,49386,1,0,0:0:0:0:
386,177,49574,5,8,3:0:0:0:
386,177,49949,1,8,0:0:0:0:
301,152,50136,2,0,L|132:152,1,161
221,225,50699,1,8,0:0:0:0:
304,227,50886,1,0,0:0:0:0:
468,251,51074,5,8,3:0:0:0:
468,251,51449,1,8,0:0:0:0:
386,260,51636,2,0,L|380:89,1,161
460,91,52199,1,8,0:0:0:0:
379,95,52386,1,0,0:0:0:0:
217,129,52574,6,0,L|25:128,1,161,8|8,3:0|0:0,0:0:0:0:
137,217,53136,2,0,L|309:222,1,161
212,163,53699,2,0,L|206:64,1,80.5,8|0,0:0|0:0,0:0:0:0:
372,113,54074,5,8,3:0:0:0:
372,113,54261,1,0,0:0:0:0:
295,116,54449,1,8,0:0:0:0:
218,117,54636,1,0,0:0:0:0:
64,192,55011,1,0,0:0:0:0:
64,192,55199,1,8,0:0:0:0:
141,189,55386,6,0,L|315:189,1,161
219,118,55949,1,8,0:0:0:0:
59,213,56136,2,0,L|55:33,1,161
135,47,56699,1,8,0:0:0:0:
55,52,56886,1,0,0:0:0:0:
223,221,57074,6,0,L|388:220,2,161,8|8|8,3:0|0:0|3:0,0:0:0:0:
55,192,58199,2,0,L|46:81,1,80.5,8|0,0:0|0:0,0:0:0:0:
208,130,58574,6,0,L|314:132,1,80.5,8|0,3:0|0:0,0:0:0:0:
135,240,59136,2,0,L|122:46,1,161
201,58,59699,1,8,0:0:0:0:
281,55,59886,1,0,0:0:0:0:
448,159,60074,5,4,0:0:0:0:
448,159,60449,1,8,0:0:0:0:
367,162,60636,2,0,L|207:164,1,161
287,236,61199,1,8,0:0:0:0:
287,236,61386,1,0,0:0:0:0:
129,170,61574,5,8,3:0:0:0:
129,170,61949,1,8,0:0:0:0:
214,145,62136,2,0,L|383:145,1,161
294,218,62699,1,8,0:0:0:0:
211,220,62886,1,0,0:0:0:0:
47,244,63074,5,8,3:0:0:0:
47,244,63449,1,8,0:0:0:0:
129,253,63636,2,0,L|135:82,1,161
55,84,64199,1,8,0:0:0:0:
136,88,64386,1,0,0:0:0:0:
298,122,64574,6,0,L|490:121,1,161,8|8,3:0|0:0,0:0:0:0:
378,210,65136,2,0,L|206:215,1,161
303,156,65699,2,0,L|309:57,1,80.5,8|0,0:0|0:0,0:0:0:0:
143,106,66074,5,8,3:0:0:0:
143,106,66261,1,0,0:0:0:0:
220,109,66449,1,8,0:0:0:0:
297,110,66636,1,0,0:0:0:0:
451,185,67011,1,0,0:0:0:0:
451,185,67199,1,8,0:0:0:0:
374,182,67386,1,0,0:0:0:0:
210,214,67574,6,0,L|206:112,1,80.5,8|0,3:0|0:0,0:0:0:0:
296,111,67949,1,8,0:0:0:0:
456,206,68136,2,0,L|460:26,1,161
380,40,68699,1,8,0:0:0:0:
460,45,68886,1,0,0:0:0:0:
292,214,69074,6,0,L|127:213,2,161,8|8|8,3:0|0:0|3:0,0:0:0:0:
460,185,70199,2,0,L|469:74,1,80.5,8|0,0:0|0:0,0:0:0:0:
307,123,70574,6,0,L|201:125,1,80.5,8|0,3:0|0:0,0:0:0:0:
380,233,71136,1,0,0:0:0:0:
294,202,71324,2,0,L|285:105,1,80.5,8|0,3:0|0:0,0:0:0:0:
369,116,71699,2,0,L|373:17,1,80.5,8|0,0:0|0:0,0:0:0:0:
208,92,72074,6,0,L|15:90,1,161,8|8,3:0|0:0,0:0:0:0:
212,217,72824,2,0,L|394:220,1,161,8|8,3:0|0:0,0:0:0:0:
96,267,73574,6,0,L|86:73,1,161,8|8,3:0|0:0,0:0:0:0:
367,122,74324,2,0,P|415:189|356:207,1,161,8|8,3:0|0:0,0:0:0:0:
285,192,74886,1,0,0:0:0:0:
122,177,75074,6,0,L|123:79,1,80.5,4|0,0:0|0:0,0:0:0:0:
210,92,75449,2,0,L|298:93,1,80.5,8|0,0:0|0:0,0:0:0:0:
210,171,75824,2,0,L|215:83,1,80.5,8|0,3:0|0:0,0:0:0:0:
299,99,76199,2,0,L|385:100,1,80.5,8|0,0:0|0:0,0:0:0:0:
218,246,76574,5,8,3:0:0:0:
141,209,76761,1,0,0:0:0:0:
139,131,76949,1,8,0:0:0:0:
219,96,77136,1,0,0:0:0:0:
383,196,77324,2,0,L|385:109,1,80.5,8|0,3:0|0:0,0:0:0:0:
310,113,77699,2,0,L|203:117,1,80.5,8|0,0:0|0:0,0:0:0:0:
67,166,78074,5,4,0:0:0:0:
67,166,78449,1,8,0:0:0:0:
148,169,78636,2,0,L|308:171,1,161
228,243,79199,1,8,0:0:0:0:
228,243,79386,1,0,0:0:0:0:
386,177,79574,5,8,3:0:0:0:
386,177,79949,1,8,0:0:0:0:
301,152,80136,2,0,L|132:152,1,161
221,225,80699,1,8,0:0:0:0:
304,227,80886,1,0,0:0:0:0:
468,251,81074,5,8,3:0:0:0:
468,251,81449,1,8,0:0:0:0:
386,260,81636,2,0,L|380:89,1,161
460,91,82199,1,8,0:0:0:0:
379,95,82386,1,0,0:0:0:0:
217,129,82574,6,0,L|25:128,1,161,8|8,3:0|0:0,0:0:0:0:
137,217,83136,2,0,L|309:222,1,161
212,163,83699,2,0,L|206:64,1,80.5,8|0,0:0|0:0,0:0:0:0:
372,113,84074,5,8,3:0:0:0:
372,113,84261,1,0,0:0:0:0:
295,116,84449,1,8,0:0:0:0:
218,117,84636,1,0,0:0:0:0:
64,192,85011,1,0,0:0:0:0:
64,192,85199,1,8,0:0:0:0:
141,189,85386,6,0,L|315:189,1,161
219,118,85949,1,8,0:0:0:0:
59,213,86136,2,0,L|55:33,1,161
135,47,86699,1,8,0:0:0:0:
55,52,86886,1,0,0:0:0:0:
223,221,87074,6,0,L|388:220,2,161,8|8|8,3:0|0:0|3:0,0:0:0:0:
55,192,88199,2,0,L|46:81,1,80.5,8|0,0:0|0:0,0:0:0:0:
208,130,88574,6,0,L|314:132,1,80.5,8|0,3:0|0:0,0:0:0:0:
135,240,89136,2,0,L|122:46,1,161
201,58,89699,1,8,0:0:0:0:
281,55,89886,1,0,0:0:0:0:
448,159,90074,5,4,0:0:0:0:
448,159,90449,1,8,0:0:0:0:
367,162,90636,2,0,L|207:164,1,161
287,236,91199,1,8,0:0:0:0:
287,236,91386,1,0,0:0:0:0:
129,170,91574,5,8,3:0:0:0:
129,170,91949,1,8,0:0:0:0:
214,145,92136,2,0,L|383:145,1,161
294,218,92699,1,8,0:0:0:0:
211,220,92886,1,0,0:0:0:0:
47,244,93074,5,8,3:0:0:0:
47,244,93449,1,8,0:0:0:0:
129,253,93636,2,0,L|135:82,1,161
55,84,94199,1,8,0:0:0:0:
136,88,94386,1,0,0:0:0:0:
298,122,94574,6,0,L|490:121,1,161,8|8,3:0|0:0,0:0:0:0:
378,210,95136,2,0,L|206:215,1,161
303,156,95699,2,0,L|309:57,1,80.5,8|0,0:0|0:0,0:0:0:0:
143,106,96074,5,8,3:0:0:0:
143,106,96261,1,0,0:0:0:0:
220,109,96449,1,8,0:0:0:0:
297,110,96636,1,0,0:0:0:0:
451,185,97011,1,0,0:0:0:0:
451,185,97199,1,8,0:0:0:0:
374,182,97386,1,0,0:0:0:0:
210,214,97574,6,0,L|206:112,1,80.5,8|0,3:0|0:0,0:0:0:0:
296,111,97949,1,8,0:0:0:0:
456,206,98136,2,0,L|460:26,1,161
380,40,98699,1,8,0:0:0:0:
460,45,98886,1,0,0:0:0:0:
292,214,99074,6,0,L|127:213,2,161,8|8|8,3:0|0:0|3:0,0:0:0:0:
460,185,100199,2,0,L|469:74,1,80.5,8|0,0:0|0:0,0:0:0:0:
307,123,100574,6,0,L|201:125,1,80.5,8|0,3:0|0:0,0:0:0:0:
380,233,101136,1,0,0:0:0:0:
294,202,101324,2,0,L|285:105,1,80.5,8|0,3:0|0:0,0:0:0:0:
364,45,101699,2,0,L|457:45,1,80.5,8|0,0:0|0:0,0:0:0:0:
293,139,102074,6,0,L|120:139,1,161,8|8,3:0|0:0,0:0:0:0:
293,219,102824,2,0,L|296:128,1,80.5,8|0,3:0|0:0,0:0:0:0:
219,130,103199,1,8,0:0:0:0:
488,253,103574,6,0,L|485:78,1,161,8|8,3:0|0:0,0:0:0:0:
225,165,104324,2,0,L|31:165,1,161,8|8,3:0|0:0,0:0:0:0:
142,239,104886,1,0,0:0:0:0:
306,230,105074,6,0,L|313:121,1,80.5,4|0,0:0|0:0,0:0:0:0:
229,136,105449,2,0,L|139:134,1,80.5,8|0,0:0|0:0,0:0:0:0:
229,136,105824,2,0,L|238:43,1,80.5,8|0,3:0|0:0,0:0:0:0:
153,71,106199,2,0,L|144:-15,1,80.5,8|0,0:0|0:0,0:0:0:0:
305,121,106574,6,0,L|393:120,1,80.5,8|0,3:0|0:0,0:0:0:0:
305,121,106949,2,0,L|200:121,1,80.5,8|0,0:0|0:0,0:0:0:0:
381,229,107324,2,0,L|390:129,1,80.5,8|0,3:0|0:0,0:0:0:0:
310,122,107699,2,0,L|226:122,1,80.5,8|0,0:0|0:0,0:0:0:0:
53,162,108074,5,8,3:0:0:0:
