osu file format v14

[General]
AudioFilename: audio.MP3
AudioLeadIn: 0
PreviewTime: 77949
Countdown: 0
SampleSet: Soft
StackLeniency: 0.5
Mode: 2
LetterboxInBreaks: 0
WidescreenStoryboard: 1

[Editor]
Bookmarks: 6074,12074,36074,45449,48074,49949
DistanceSpacing: 0.2
BeatDivisor: 4
GridSize: 8
TimelineZoom: 1.6

[Metadata]
Title:BRAND NEW WORLD (TV Size)
TitleUnicode:BRAND NEW WORLD (TV Size)
Artist:D-51
ArtistUnicode:D-51
Creator:Secre
Version:Rain
Source:ONE PIECE
Tags:chickenbible ワンピース opening op 6 japanese anime 上里優 uezatoyu yu 吉田安英 yoshida yasuhide yasu
BeatmapID:2771382
BeatmapSetID:1333640

[Difficulty]
HPDrainRate:5
CircleSize:3.9
OverallDifficulty:9
ApproachRate:9
SliderMultiplier:1.78
SliderTickRate:2

[Events]
//Background and Video events
Video,-542,"video.avi"
0,0,"bg.jpg",0,0
//Break Periods
//Storyboard Layer 0 (Background)
//Storyboard Layer 1 (Fail)
//Storyboard Layer 2 (Pass)
//Storyboard Layer 3 (Foreground)
//Storyboard Layer 4 (Overlay)
//Storyboard Sound Samples

[TimingPoints]
74,375,4,2,1,55,1,0
5136,-76.9230769230769,4,2,1,55,0,0
6074,-76.9230769230769,4,2,1,55,0,0
12074,-111.111111111111,4,2,1,55,0,0
34574,-111.111111111111,4,2,1,60,0,0
35136,-100,4,2,1,55,0,0
35886,-83.3333333333333,4,2,1,55,0,0
36074,-100,4,2,17,75,0,0
36261,-100,4,2,1,55,0,0
36917,-76.9230769230769,4,2,1,5,0,0
37011,-76.9230769230769,4,2,1,55,0,0
37105,-76.9230769230769,4,2,1,40,0,0
37199,-76.9230769230769,4,2,1,55,0,0
37386,-76.9230769230769,4,2,1,35,0,0
37574,-105.263157894737,4,2,1,55,0,0
39074,-100,4,2,1,55,0,0
39917,-100,4,2,1,5,0,0
40011,-100,4,2,1,55,0,0
40105,-100,4,2,1,40,0,0
40199,-76.9230769230769,4,2,1,55,0,0
40386,-76.9230769230769,4,2,1,35,0,0
40574,-105.263157894737,4,2,1,55,0,0
42074,-105.263157894737,4,2,1,55,0,0
42636,-100,4,2,1,55,0,0
45824,-83.3333333333333,4,2,1,55,0,0
45870,-83.3333333333333,4,2,1,40,0,0
46011,-83.3333333333333,4,2,1,55,0,0
46058,-83.3333333333333,4,2,1,40,0,0
46574,-100,4,2,1,55,0,0
47136,-71.4285714285714,4,2,1,55,0,0
47324,-100,4,2,1,55,0,0
47511,-71.4285714285714,4,2,17,70,0,0
47558,-71.4285714285714,4,2,1,70,0,0
47699,-71.4285714285714,4,2,1,60,0,0
47980,-71.4285714285714,4,2,1,60,0,0
48074,-90.9090909090909,4,2,17,55,0,1
48261,-90.9090909090909,4,2,1,75,0,1
59886,-100,4,2,1,75,0,0
60074,-90.9090909090909,4,2,1,75,0,1
72074,-111.111111111111,4,2,1,55,0,0
73574,-100,4,2,1,55,0,0
75074,-111.111111111111,4,2,1,65,0,0
76199,-100,4,2,1,65,0,0
78074,-90.9090909090909,4,2,17,55,0,1
78261,-90.9090909090909,4,2,1,75,0,1
89886,-100,4,2,1,75,0,0
90074,-90.9090909090909,4,2,1,75,0,1
102074,-100,4,2,1,60,0,0
106949,-100,4,2,1,60,0,0
108074,-100,4,2,1,60,0,0
108167,-100,4,2,1,5,0,0

[Colours]
Combo1 : 149,236,134
Combo2 : 251,190,108
Combo3 : 242,121,97
Combo4 : 107,173,245

[HitObjects]
374,194,74,6,0,L|277:193,1,89,8|8,0:0|0:0,0:0:0:0:
131,137,449,1,0,0:0:0:0:
294,102,636,2,0,P|350:135|283:186,1,178
129,149,1199,1,0,0:0:0:0:
291,150,1386,1,0,0:0:0:0:
40,201,1574,6,0,L|137:200,1,89,8|8,0:0|0:0,0:0:0:0:
283,144,1949,1,0,0:0:0:0:
120,109,2136,2,0,P|64:142|131:193,1,178
285,156,2699,1,0,0:0:0:0:
123,157,2886,1,0,0:0:0:0:
374,194,3074,6,0,L|277:193,1,89,8|8,0:0|0:0,0:0:0:0:
131,137,3449,1,0,0:0:0:0:
294,102,3636,2,0,P|350:135|283:186,1,178
129,149,4199,1,0,0:0:0:0:
291,150,4386,1,0,0:0:0:0:
39,234,4574,6,0,L|235:233,1,178,8|0,0:0|0:0,0:0:0:0:
480,185,5136,2,0,P|485:240|343:327,1,231.399989407349,8|8,0:0|3:0,0:0:0:0:
187,213,5699,2,0,L|179:138,1,57.8499973518373,8|8,0:0|3:0,0:0:0:0:
279,132,5886,2,0,L|345:133,1,57.8499973518373,8|0,3:0|0:0,0:0:0:0:
151,174,6074,5,4,0:0:0:0:
99,157,6167,1,0,0:0:0:0:
95,102,6261,1,0,0:0:0:0:
144,79,6355,1,0,0:0:0:0:
300,187,6449,2,0,L|430:186,1,115.699994703675,8|0,0:0|0:0,0:0:0:0:
235,237,6824,2,0,L|221:160,1,57.8499973518373,8|0,3:0|0:0,0:0:0:0:
300,163,7011,2,0,L|308:100,1,57.8499973518373
144,79,7199,2,0,L|7:79,1,115.699994703675,8|0,0:0|0:0,0:0:0:0:
319,68,7574,5,8,3:0:0:0:
374,64,7667,1,0,0:0:0:0:
405,110,7761,1,0,0:0:0:0:
383,160,7855,1,0,0:0:0:0:
328,168,7949,1,8,0:0:0:0:
68,228,8136,2,0,L|310:230,1,231.399989407349
121,149,8699,2,0,L|103:19,1,115.699994703675,8|0,0:0|0:0,0:0:0:0:
361,174,9074,5,8,3:0:0:0:
412,157,9167,1,0,0:0:0:0:
416,102,9261,1,0,0:0:0:0:
367,79,9355,1,0,0:0:0:0:
212,187,9449,2,0,L|82:186,1,115.699994703675,8|0,0:0|0:0,0:0:0:0:
277,237,9824,2,0,L|291:160,1,57.8499973518373,8|0,3:0|0:0,0:0:0:0:
212,163,10011,2,0,L|204:100,1,57.8499973518373
367,79,10199,2,0,L|505:79,1,115.699994703675,8|0,0:0|0:0,0:0:0:0:
193,68,10574,5,8,3:0:0:0:
137,64,10667,1,0,0:0:0:0:
137,168,10761,1,0,0:0:0:0:
197,172,10855,1,0,0:0:0:0:
382,199,10949,2,0,L|498:198,1,115.699994703675,8|0,0:0|0:0,0:0:0:0:
313,113,11324,2,0,L|249:112,1,57.8499973518373,8|0,3:0|0:0,0:0:0:0:
313,113,11511,2,0,L|381:113,1,57.8499973518373
182,162,11699,1,8,0:0:0:0:
131,142,11792,1,0,0:0:0:0:
131,88,11886,1,0,0:0:0:0:
182,68,11980,1,0,0:0:0:0:
376,211,12074,6,0,L|382:98,1,80.0999975555421,4|0,0:0|0:0,0:0:0:0:
178,257,12449,2,0,L|289:257,1,80.0999975555421,8|0,0:0|0:0,0:0:0:0:
159,157,12824,2,0,L|51:159,1,80.0999975555421,8|0,3:0|0:0,0:0:0:0:
240,85,13199,2,0,L|338:87,1,80.0999975555421,8|0,0:0|0:0,0:0:0:0:
68,178,13574,5,8,3:0:0:0:
150,183,13761,2,0,L|152:78,1,80.0999975555421,0|8,0:0|0:0,0:0:0:0:
299,87,14136,2,0,L|476:86,1,160.199995111084
326,201,14699,2,0,L|418:202,1,80.0999975555421,8|0,0:0|0:0,0:0:0:0:
123,162,15074,5,8,3:0:0:0:
228,155,15261,2,0,L|336:159,1,80.0999975555421,0|8,0:0|0:0,0:0:0:0:
123,287,15636,2,0,P|73:240|139:180,1,160.199995111084
222,175,16199,2,0,L|112:179,1,80.0999975555421,8|0,0:0|0:0,0:0:0:0:
431,217,16574,6,0,L|511:217,2,80.0999975555421,8|0|8,3:0|0:0|0:0,0:0:0:0:
115,264,17136,2,0,P|69:221|135:157,1,160.199995111084
266,157,17699,2,0,L|365:158,1,80.0999975555421,8|0,0:0|0:0,0:0:0:0:
75,217,18074,6,0,L|66:106,1,80.0999975555421,4|0,0:0|0:0,0:0:0:0:
222,132,18449,2,0,L|32:130,1,160.199995111084,8|8,0:0|3:0,0:0:0:0:
144,217,19011,1,0,0:0:0:0:
311,187,19199,2,0,L|403:186,1,80.0999975555421,8|0,0:0|0:0,0:0:0:0:
141,132,19574,5,8,3:0:0:0:
57,160,19761,2,0,L|42:58,1,80.0999975555421,0|8,0:0|0:0,0:0:0:0:
220,103,20136,2,0,L|414:107,1,160.199995111084
235,203,20699,2,0,L|336:202,1,80.0999975555421,8|0,0:0|0:0,0:0:0:0:
53,139,21074,5,8,3:0:0:0:
153,143,21261,2,0,L|163:44,1,80.0999975555421,0|8,0:0|0:0,0:0:0:0:
312,94,21636,2,0,L|127:96,1,160.199995111084
287,192,22199,2,0,L|185:193,1,80.0999975555421,8|0,0:0|0:0,0:0:0:0:
456,139,22574,6,0,L|473:246,1,80.0999975555421,8|0,3:0|0:0,0:0:0:0:
364,236,22949,1,8,0:0:0:0:
118,199,23136,2,0,P|70:169|140:117,1,160.199995111084,0|8,0:0|3:0,0:0:0:0:
287,121,23699,1,8,0:0:0:0:
124,109,23886,2,0,L|111:41,1,40.049998777771
376,211,24074,6,0,L|382:98,1,80.0999975555421,4|0,0:0|0:0,0:0:0:0:
201,255,24449,2,0,L|312:255,1,80.0999975555421,8|0,0:0|0:0,0:0:0:0:
439,192,24824,2,0,L|331:194,1,80.0999975555421,8|0,3:0|0:0,0:0:0:0:
183,162,25199,2,0,L|175:67,1,80.0999975555421,8|0,0:0|0:0,0:0:0:0:
444,178,25574,5,8,3:0:0:0:
355,182,25761,2,0,L|353:77,1,80.0999975555421,0|8,0:0|0:0,0:0:0:0:
204,87,26136,2,0,L|27:86,1,160.199995111084
181,201,26699,2,0,L|89:202,1,80.0999975555421,8|0,0:0|0:0,0:0:0:0:
389,162,27074,5,8,3:0:0:0:
294,154,27261,2,0,L|186:158,1,80.0999975555421,0|8,0:0|0:0,0:0:0:0:
389,287,27636,2,0,P|439:240|373:180,1,160.199995111084
280,175,28199,2,0,L|390:179,1,80.0999975555421,8|0,0:0|0:0,0:0:0:0:
81,217,28574,6,0,L|1:217,2,80.0999975555421,8|0|8,3:0|0:0|0:0,0:0:0:0:
397,264,29136,2,0,L|402:159,1,80.0999975555421
254,166,29511,1,0,0:0:0:0:
412,154,29699,1,8,0:0:0:0:
113,215,29886,6,0,L|106:120,1,80.0999975555421,0|8,0:0|3:0,0:0:0:0:
267,120,30261,2,0,L|356:121,1,80.0999975555421,0|8,0:0|0:0,0:0:0:0:
179,212,30636,2,0,L|86:218,1,80.0999975555421,0|8,0:0|3:0,0:0:0:0:
275,269,31011,2,0,L|368:268,1,80.0999975555421,0|8,0:0|0:0,0:0:0:0:
102,190,31386,6,0,P|51:161|128:101,1,160.199995111084
266,107,31949,2,0,L|370:107,1,80.0999975555421,8|0,0:0|0:0,0:0:0:0:
92,243,32324,2,0,L|274:248,1,160.199995111084,8|8,3:0|0:0,0:0:0:0:
127,176,32886,1,0,0:0:0:0:
395,110,33074,6,0,P|450:138|396:196,1,160.199995111084,8|8,3:0|0:0,0:0:0:0:
322,197,33636,1,0,0:0:0:0:
175,136,33824,1,8,3:0:0:0:
436,162,34011,2,0,L|441:70,1,80.0999975555421,0|8,0:0|0:0,0:0:0:0:
356,73,34386,1,0,0:0:0:0:
79,201,34574,6,0,L|69:135,1,40.049998777771,8|0,3:0|0:0,0:0:0:0:
261,222,34761,2,0,L|315:221,1,40.049998777771
124,117,34949,2,0,L|12:113,1,80.0999975555421,8|0,0:0|0:0,0:0:0:0:
316,219,35324,2,0,L|330:155,1,44.5,8|0,3:0|0:0,0:0:0:0:
243,154,35511,2,0,L|236:208,1,44.5
413,270,35699,1,8,0:0:0:0:
487,253,35792,1,0,0:0:0:0:
489,168,35886,1,0,0:0:0:0:
415,164,35980,1,0,0:0:0:0:
239,149,36074,6,0,L|56:151,1,178,8|8,3:0|0:0,0:0:0:0:
149,212,36636,1,0,0:0:0:0:
306,231,36824,2,0,L|316:110,1,89,8|0,3:0|0:0,0:0:0:0:
245,120,37105,1,0,0:0:0:0:
46,156,37199,2,0,L|36:26,1,115.699994703675,8|0,0:0|0:0,0:0:0:0:
127,46,37574,5,8,3:0:0:0:
280,180,37761,2,0,L|163:183,2,84.5499977422715,0|8|0,0:0|0:0|0:0,0:0:0:0:
128,238,38324,2,0,L|111:123,1,84.5499977422715,8|0,3:0|0:0,0:0:0:0:
175,117,38605,1,0,0:0:0:0:
349,143,38699,2,0,L|455:142,1,84.5499977422715,8|0,0:0|0:0,0:0:0:0:
181,204,39074,6,0,P|133:174|212:103,1,178,8|8,3:0|0:0,0:0:0:0:
354,138,39636,2,0,L|362:31,1,89,0|8,0:0|3:0,0:0:0:0:
215,86,40011,2,0,L|281:83,1,44.5
461,176,40199,2,0,L|470:58,1,115.699994703675,8|0,0:0|0:0,0:0:0:0:
382,68,40574,5,8,3:0:0:0:
206,150,40761,1,0,0:0:0:0:
372,187,40949,2,0,L|374:67,1,84.5499977422715,8|0,0:0|0:0,0:0:0:0:
206,150,41324,1,8,3:0:0:0:
160,128,41417,1,0,0:0:0:0:
161,87,41511,1,0,0:0:0:0:
209,70,41605,1,0,0:0:0:0:
386,188,41699,2,0,L|486:188,1,84.5499977422715,8|0,0:0|0:0,0:0:0:0:
199,178,42074,6,0,L|78:179,1,84.5499977422715,12|0,3:0|0:0,0:0:0:0:
154,237,42355,1,0,0:0:0:0:
346,234,42449,1,8,0:0:0:0:
445,209,42636,2,0,L|450:92,1,89,12|0,3:0|0:0,0:0:0:0:
343,89,43011,1,0,0:0:0:0:
96,145,43199,2,0,L|87:40,1,89,12|0,3:0|0:0,0:0:0:0:
359,135,43574,5,8,3:0:0:0:
447,169,43761,2,0,L|457:98,1,44.5
233,135,43949,2,0,L|107:140,1,89,8|0,0:0|0:0,0:0:0:0:
402,223,44324,2,0,L|410:105,1,89,8|0,3:0|0:0,0:0:0:0:
344,117,44605,1,0,0:0:0:0:
182,126,44699,2,0,L|73:127,1,89,8|0,0:0|0:0,0:0:0:0:
402,178,45074,6,0,L|408:61,1,89,8|0,3:0|0:0,0:0:0:0:
249,52,45449,2,0,L|138:58,1,89,8|0,0:0|0:0,0:0:0:0:
431,231,45824,2,0,L|435:106,1,106.799996740723,8|0,3:0|0:0,0:0:0:0:
329,118,46199,2,0,L|439:123,1,106.799996740723,8|0,0:0|0:0,0:0:0:0:
183,178,46574,6,0,L|62:171,3,89,8|0|8|0,3:0|0:0|0:0|0:0,0:0:0:0:
151,120,47230,1,0,0:0:0:0:
322,152,47324,2,0,L|384:149,1,44.5,8|0,3:0|0:0,0:0:0:0:
161,226,47511,2,0,P|83:181|179:95,1,249.19999239502
432,232,48074,6,0,L|443:111,1,97.900002987671,4|0,0:0|0:0,0:0:0:0:
357,121,48449,1,8,0:0:0:0:
100,200,48636,2,0,L|310:196,1,195.800005975342
155,130,49199,2,0,L|150:30,1,97.900002987671,8|0,0:0|0:0,0:0:0:0:
424,64,49574,5,8,3:0:0:0:
147,150,49949,1,8,0:0:0:0:
394,241,50136,2,0,P|436:207|366:99,1,195.800005975342
214,120,50699,2,0,L|209:13,1,97.900002987671,8|0,0:0|0:0,0:0:0:0:
467,67,51074,5,8,3:0:0:0:
178,136,51449,1,8,0:0:0:0:
455,212,51636,2,0,L|247:212,1,195.800005975342
411,152,52199,2,0,L|419:34,1,97.900002987671,8|0,0:0|0:0,0:0:0:0:
169,126,52574,6,0,L|168:22,1,97.900002987671,8|0,3:0|0:0,0:0:0:0:
308,40,52949,1,8,0:0:0:0:
60,192,53136,2,0,L|278:194,1,195.800005975342
109,145,53699,2,0,L|98:27,1,97.900002987671,8|0,0:0|0:0,0:0:0:0:
399,113,54074,5,8,3:0:0:0:
260,158,54261,2,0,L|141:157,1,97.900002987671,0|8,0:0|0:0,0:0:0:0:
344,87,54636,2,0,L|354:212,1,97.900002987671
204,241,55011,1,0,0:0:0:0:
363,239,55199,1,8,0:0:0:0:
96,182,55386,6,0,L|83:58,1,97.900002987671,0|8,0:0|3:0,0:0:0:0:
343,81,55761,2,0,L|445:86,1,97.900002987671,0|8,0:0|0:0,0:0:0:0:
115,217,56136,2,0,P|52:172|135:109,1,195.800005975342
208,102,56699,1,8,0:0:0:0:
361,122,56886,1,0,0:0:0:0:
103,192,57074,6,0,L|311:194,2,195.800005975342,8|8|8,3:0|0:0|3:0,0:0:0:0:
386,223,58199,2,0,L|397:111,1,97.900002987671,8|0,0:0|0:0,0:0:0:0:
137,114,58574,5,8,3:0:0:0:
300,132,58761,2,0,L|409:132,1,97.900002987671,0|8,0:0|0:0,0:0:0:0:
148,182,59136,2,0,L|28:185,2,97.900002987671,0|8|0,0:0|3:0|0:0,0:0:0:0:
412,232,59699,2,0,L|422:110,1,97.900002987671,8|0,0:0|0:0,0:0:0:0:
360,121,59980,1,0,0:0:0:0:
80,231,60074,6,0,L|69:110,1,97.900002987671,4|0,0:0|0:0,0:0:0:0:
155,120,60449,1,8,0:0:0:0:
412,199,60636,2,0,L|202:195,1,195.800005975342
357,129,61199,2,0,L|366:11,1,97.900002987671,8|0,0:0|0:0,0:0:0:0:
109,74,61574,5,8,3:0:0:0:
365,149,61949,1,8,0:0:0:0:
118,240,62136,2,0,P|76:206|146:98,1,195.800005975342
298,119,62699,2,0,L|303:9,1,97.900002987671,8|0,0:0|0:0,0:0:0:0:
56,78,63074,5,8,3:0:0:0:
321,137,63449,1,8,0:0:0:0:
57,211,63636,2,0,L|265:211,1,195.800005975342
101,151,64199,2,0,L|93:33,1,97.900002987671,8|0,0:0|0:0,0:0:0:0:
343,125,64574,6,0,L|344:21,1,97.900002987671,8|0,3:0|0:0,0:0:0:0:
205,32,64949,1,8,0:0:0:0:
452,191,65136,2,0,L|234:193,1,195.800005975342
403,144,65699,2,0,L|414:26,1,97.900002987671,8|0,0:0|0:0,0:0:0:0:
95,111,66074,5,8,3:0:0:0:
240,162,66261,2,0,L|359:161,1,97.900002987671,0|8,0:0|0:0,0:0:0:0:
168,85,66636,2,0,L|158:210,1,97.900002987671
314,242,67011,1,0,0:0:0:0:
152,244,67199,1,8,0:0:0:0:
314,242,67386,1,0,0:0:0:0:
59,131,67574,5,8,3:0:0:0:
200,132,67761,2,0,L|84:131,1,97.900002987671,0|8,0:0|0:0,0:0:0:0:
397,216,68136,2,0,P|460:171|377:108,1,195.800005975342
304,101,68699,1,8,0:0:0:0:
151,121,68886,1,0,0:0:0:0:
409,191,69074,6,0,L|201:193,2,195.800005975342,8|8|8,3:0|0:0|3:0,0:0:0:0:
126,222,70199,2,0,L|115:110,1,97.900002987671,8|0,0:0|0:0,0:0:0:0:
375,113,70574,5,8,3:0:0:0:
225,131,70761,2,0,L|116:131,1,97.900002987671,0|8,0:0|0:0,0:0:0:0:
378,181,71136,2,0,L|498:184,2,97.900002987671,0|8|0,0:0|3:0|0:0,0:0:0:0:
100,231,71699,2,0,L|90:109,1,97.900002987671,8|0,0:0|0:0,0:0:0:0:
152,120,71980,1,0,0:0:0:0:
374,201,72074,6,0,L|377:85,1,80.0999975555421,8|0,3:0|0:0,0:0:0:0:
236,83,72449,1,8,0:0:0:0:
374,81,72636,1,0,0:0:0:0:
127,189,72824,2,0,L|115:72,1,80.0999975555421,8|0,3:0|0:0,0:0:0:0:
186,93,73105,1,0,0:0:0:0:
381,173,73199,2,0,L|383:73,1,80.0999975555421,8|0,0:0|0:0,0:0:0:0:
37,177,73574,6,0,L|142:177,1,89,8|0,3:0|0:0,0:0:0:0:
285,150,73949,1,8,0:0:0:0:
126,177,74136,1,0,0:0:0:0:
382,239,74324,2,0,P|435:210|364:140,1,178,8|8,3:0|0:0,0:0:0:0:
192,137,74886,1,0,0:0:0:0:
449,219,75074,6,0,L|454:158,1,40.049998777771,4|0,0:0|0:0,0:0:0:0:
386,139,75261,2,0,L|338:138,1,40.049998777771
139,198,75449,2,0,L|258:198,1,80.0999975555421,8|0,0:0|0:0,0:0:0:0:
76,238,75824,1,8,3:0:0:0:
32,218,75917,1,0,0:0:0:0:
32,178,76011,1,0,0:0:0:0:
72,158,76105,1,0,0:0:0:0:
277,176,76199,2,0,L|387:176,1,89,8|0,0:0|0:0,0:0:0:0:
109,173,76574,6,0,L|100:99,1,44.5,8|0,3:0|0:0,0:0:0:0:
298,127,76761,2,0,L|365:123,1,44.5
174,152,76949,1,8,0:0:0:0:
134,136,77042,1,0,0:0:0:0:
130,93,77136,1,0,0:0:0:0:
164,70,77230,1,0,0:0:0:0:
323,194,77324,6,0,L|382:193,1,44.5,8|0,3:0|0:0,0:0:0:0:
211,113,77511,2,0,L|152:113,1,44.5
399,115,77699,2,0,L|451:117,1,44.5,8|0,0:0|0:0,0:0:0:0:
185,53,77886,2,0,L|120:55,1,44.5
432,232,78074,6,0,L|443:111,1,97.900002987671,4|0,0:0|0:0,0:0:0:0:
357,121,78449,1,8,0:0:0:0:
100,200,78636,2,0,L|310:196,1,195.800005975342
155,130,79199,2,0,L|147:26,1,97.900002987671,8|0,0:0|0:0,0:0:0:0:
399,45,79574,5,8,3:0:0:0:
147,150,79949,1,8,0:0:0:0:
394,241,80136,2,0,P|436:207|366:99,1,195.800005975342
214,120,80699,2,0,L|209:11,1,97.900002987671,8|0,0:0|0:0,0:0:0:0:
460,70,81074,5,8,3:0:0:0:
178,136,81449,1,8,0:0:0:0:
455,212,81636,2,0,L|247:212,1,195.800005975342
411,152,82199,2,0,L|419:34,1,97.900002987671,8|0,0:0|0:0,0:0:0:0:
169,126,82574,6,0,L|168:22,1,97.900002987671,8|0,3:0|0:0,0:0:0:0:
308,40,82949,1,8,0:0:0:0:
60,192,83136,2,0,L|278:194,1,195.800005975342
109,145,83699,2,0,L|98:27,1,97.900002987671,8|0,0:0|0:0,0:0:0:0:
399,113,84074,5,8,3:0:0:0:
260,158,84261,2,0,L|141:157,1,97.900002987671,0|8,0:0|0:0,0:0:0:0:
344,87,84636,2,0,L|354:212,1,97.900002987671
204,241,85011,1,0,0:0:0:0:
363,239,85199,1,8,0:0:0:0:
96,182,85386,6,0,L|83:58,1,97.900002987671,0|8,0:0|3:0,0:0:0:0:
343,81,85761,2,0,L|445:86,1,97.900002987671,0|8,0:0|0:0,0:0:0:0:
115,217,86136,2,0,P|52:172|135:109,1,195.800005975342
208,102,86699,1,8,0:0:0:0:
361,122,86886,1,0,0:0:0:0:
103,192,87074,6,0,L|311:194,2,195.800005975342,8|8|8,3:0|0:0|3:0,0:0:0:0:
386,223,88199,2,0,L|397:111,1,97.900002987671,8|0,0:0|0:0,0:0:0:0:
137,114,88574,5,8,3:0:0:0:
300,132,88761,2,0,L|409:132,1,97.900002987671,0|8,0:0|0:0,0:0:0:0:
148,182,89136,2,0,L|28:185,2,97.900002987671,0|8|0,0:0|3:0|0:0,0:0:0:0:
412,232,89699,2,0,L|422:110,1,97.900002987671,8|0,0:0|0:0,0:0:0:0:
360,121,89980,1,0,0:0:0:0:
80,231,90074,6,0,L|69:110,1,97.900002987671,4|0,0:0|0:0,0:0:0:0:
155,120,90449,1,8,0:0:0:0:
412,199,90636,2,0,L|202:195,1,195.800005975342
357,129,91199,2,0,L|364:3,1,97.900002987671,8|0,0:0|0:0,0:0:0:0:
113,79,91574,5,8,3:0:0:0:
365,149,91949,1,8,0:0:0:0:
118,240,92136,2,0,P|76:206|146:98,1,195.800005975342
298,119,92699,2,0,L|301:7,1,97.900002987671,8|0,0:0|0:0,0:0:0:0:
53,74,93074,5,8,3:0:0:0:
321,137,93449,1,8,0:0:0:0:
57,211,93636,2,0,L|265:211,1,195.800005975342
101,151,94199,2,0,L|93:33,1,97.900002987671,8|0,0:0|0:0,0:0:0:0:
343,125,94574,6,0,L|344:21,1,97.900002987671,8|0,3:0|0:0,0:0:0:0:
205,32,94949,1,8,0:0:0:0:
452,191,95136,2,0,L|234:193,1,195.800005975342
403,144,95699,2,0,L|414:26,1,97.900002987671,8|0,0:0|0:0,0:0:0:0:
95,111,96074,5,8,3:0:0:0:
240,162,96261,2,0,L|359:161,1,97.900002987671,0|8,0:0|0:0,0:0:0:0:
168,85,96636,2,0,L|158:210,1,97.900002987671
314,242,97011,1,0,0:0:0:0:
152,244,97199,1,8,0:0:0:0:
314,242,97386,1,0,0:0:0:0:
59,131,97574,5,8,3:0:0:0:
200,132,97761,2,0,L|84:131,1,97.900002987671,0|8,0:0|0:0,0:0:0:0:
397,216,98136,2,0,P|460:171|377:108,1,195.800005975342
304,101,98699,1,8,0:0:0:0:
151,121,98886,1,0,0:0:0:0:
409,191,99074,6,0,L|201:193,2,195.800005975342,8|8|8,3:0|0:0|3:0,0:0:0:0:
126,222,100199,2,0,L|115:110,1,97.900002987671,8|0,0:0|0:0,0:0:0:0:
375,113,100574,5,8,3:0:0:0:
225,131,100761,2,0,L|116:131,2,97.900002987671,0|8|0,0:0|0:0|0:0,0:0:0:0:
478,217,101324,2,0,L|486:105,1,97.900002987671,8|0,3:0|0:0,0:0:0:0:
189,89,101699,2,0,L|85:91,1,97.900002987671,8|0,0:0|0:0,0:0:0:0:
424,199,102074,6,0,P|481:160|403:93,1,178,8|8,3:0|0:0,0:0:0:0:
335,110,102636,1,0,0:0:0:0:
86,167,102824,2,0,L|76:43,1,89,8|0,3:0|0:0,0:0:0:0:
169,50,103199,2,0,L|62:52,1,89,8|0,0:0|0:0,0:0:0:0:
326,162,103574,6,0,L|503:164,1,178,8|8,3:0|0:0,0:0:0:0:
418,108,104136,1,0,0:0:0:0:
161,205,104324,2,0,L|365:211,1,178,8|8,3:0|0:0,0:0:0:0:
200,135,104886,1,0,0:0:0:0:
452,189,105074,6,0,L|463:105,1,44.5,4|0,0:0|0:0,0:0:0:0:
407,106,105261,2,0,L|327:103,1,44.5
179,98,105449,2,0,L|52:101,1,89,8|0,0:0|0:0,0:0:0:0:
338,212,105824,2,0,L|402:211,1,44.5,8|0,3:0|0:0,0:0:0:0:
226,129,106011,2,0,L|153:127,1,44.5
382,158,106199,2,0,L|498:156,1,89,8|0,0:0|0:0,0:0:0:0:
189,94,106574,6,0,L|131:94,1,44.5,8|0,3:0|0:0,0:0:0:0:
304,91,106761,2,0,L|357:91,1,44.5
145,175,106949,1,8,0:0:0:0:
100,157,107042,1,0,0:0:0:0:
101,114,107136,1,0,0:0:0:0:
144,96,107230,1,0,0:0:0:0:
299,212,107324,6,0,L|343:212,1,44.5,8|0,3:0|0:0,0:0:0:0:
170,133,107511,2,0,L|110:134,1,44.5
351,101,107699,2,0,L|400:103,1,44.5,8|0,0:0|0:0,0:0:0:0:
136,66,107886,2,0,L|72:69,1,44.5
365,180,108074,6,0,L|465:182,1,89,8|0,3:0|0:0,0:0:0:0:
