osu file format v14

[General]
AudioFilename: audio.MP3
AudioLeadIn: 0
PreviewTime: 77949
Countdown: 0
SampleSet: Soft
StackLeniency: 0.5
Mode: 2
LetterboxInBreaks: 0
WidescreenStoryboard: 1

[Editor]
Bookmarks: 6074,12074,36074,45449,48074,49949
DistanceSpacing: 0.2
BeatDivisor: 4
GridSize: 8
TimelineZoom: 1.6

[Metadata]
Title:BRAND NEW WORLD (TV Size)
TitleUnicode:BRAND NEW WORLD (TV Size)
Artist:D-51
ArtistUnicode:D-51
Creator:Secre
Version:Platter
Source:ONE PIECE
Tags:chickenbible ワンピース opening op 6 japanese anime 上里優 uezatoyu yu 吉田安英 yoshida yasuhide yasu
BeatmapID:2807690
BeatmapSetID:1333640

[Difficulty]
HPDrainRate:4
CircleSize:3.5
OverallDifficulty:7.9
ApproachRate:7.9
SliderMultiplier:1.68
SliderTickRate:1

[Events]
//Background and Video events
Video,-542,"video.avi"
0,0,"bg.jpg",0,0
//Break Periods
//Storyboard Layer 0 (Background)
//Storyboard Layer 1 (Fail)
//Storyboard Layer 2 (Pass)
//Storyboard Layer 3 (Foreground)
//Storyboard Layer 4 (Overlay)
//Storyboard Sound Samples

[TimingPoints]
74,375,4,2,1,55,1,0
5136,-100,4,2,1,55,0,0
6074,-100,4,2,1,55,0,0
12074,-100,4,2,1,55,0,0
34574,-100,4,2,1,60,0,0
35136,-100,4,2,1,55,0,0
35886,-100,4,2,1,55,0,0
36074,-100,4,2,17,75,0,0
36261,-100,4,2,1,55,0,0
36917,-100,4,2,1,5,0,0
37011,-100,4,2,1,55,0,0
37105,-100,4,2,1,40,0,0
37199,-100,4,2,1,55,0,0
37386,-100,4,2,1,35,0,0
37574,-100,4,2,1,55,0,0
39074,-100,4,2,1,55,0,0
39917,-100,4,2,1,5,0,0
40011,-100,4,2,1,55,0,0
40105,-100,4,2,1,40,0,0
40199,-100,4,2,1,55,0,0
40386,-100,4,2,1,35,0,0
40574,-100,4,2,1,55,0,0
42074,-100,4,2,1,55,0,0
42636,-100,4,2,1,55,0,0
45824,-100,4,2,1,55,0,0
45870,-100,4,2,1,40,0,0
46011,-100,4,2,1,55,0,0
46058,-100,4,2,1,40,0,0
46574,-100,4,2,1,55,0,0
47136,-100,4,2,1,55,0,0
47324,-100,4,2,1,55,0,0
47511,-100,4,2,17,70,0,0
47558,-100,4,2,1,70,0,0
47699,-100,4,2,1,60,0,0
47980,-100,4,2,1,5,0,0
48074,-100,4,2,17,55,0,1
48261,-100,4,2,1,75,0,1
59886,-100,4,2,1,75,0,0
60074,-100,4,2,1,75,0,1
72074,-100,4,2,1,55,0,0
73574,-100,4,2,1,55,0,0
75074,-100,4,2,1,65,0,0
76199,-100,4,2,1,65,0,0
78074,-100,4,2,17,55,0,1
78261,-100,4,2,1,75,0,1
89886,-100,4,2,1,75,0,0
90074,-100,4,2,1,75,0,1
102074,-100,4,2,1,60,0,0
106949,-100,4,2,1,60,0,0
108074,-100,4,2,1,60,0,0
108167,-100,4,2,1,5,0,0

[Colours]
Combo1 : 149,236,134
Combo2 : 251,190,108
Combo3 : 242,121,97
Combo4 : 107,173,245

[HitObjects]
382,206,74,6,0,L|385:94,1,84,8|8,0:0|0:0,0:0:0:0:
301,100,449,1,0,0:0:0:0:
147,183,636,2,0,P|94:144|167:87,1,168
228,73,1199,1,0,0:0:0:0:
316,73,1386,1,0,0:0:0:0:
151,218,1574,6,0,L|148:106,1,84,8|8,0:0|0:0,0:0:0:0:
232,112,1949,1,0,0:0:0:0:
389,197,2136,2,0,P|442:158|369:101,1,168
305,88,2699,1,0,0:0:0:0:
226,86,2886,1,0,0:0:0:0:
390,206,3074,6,0,L|393:94,1,84,8|8,0:0|0:0,0:0:0:0:
301,100,3449,1,0,0:0:0:0:
139,184,3636,2,0,P|86:145|159:88,1,168
227,74,4199,1,0,0:0:0:0:
311,72,4386,1,0,0:0:0:0:
155,221,4574,6,0,P|91:177|161:132,1,168,8|0,0:0|0:0,0:0:0:0:
403,184,5136,2,0,P|459:234|384:283,1,168,8|8,0:0|3:0,0:0:0:0:
238,246,5699,2,0,L|154:248,1,84,8|8,0:0|3:0,0:0:0:0:
446,111,6074,6,0,L|457:309,1,168,4|8,0:0|0:0,0:0:0:0:
270,264,6824,2,0,L|462:263,1,168,8|8,3:0|0:0,0:0:0:0:
354,194,7386,1,0,0:0:0:0:
188,219,7574,6,0,P|134:186|193:125,1,168,8|8,3:0|0:0,0:0:0:0:
273,126,8136,2,0,L|72:129,1,168
192,204,8699,1,8,0:0:0:0:
489,279,9074,6,0,L|491:78,1,168,8|8,3:0|0:0,0:0:0:0:
322,150,9824,1,8,3:0:0:0:
406,204,10011,1,0,0:0:0:0:
490,208,10199,1,8,0:0:0:0:
406,204,10386,1,0,0:0:0:0:
243,140,10574,6,0,P|192:214|272:219,1,168,8|8,3:0|0:0,0:0:0:0:
324,228,11136,1,0,0:0:0:0:
417,211,11324,2,0,L|423:125,1,84,8|0,3:0|0:0,0:0:0:0:
254,118,11699,2,0,L|147:118,1,84,8|0,0:0|0:0,0:0:0:0:
425,260,12074,5,4,0:0:0:0:
253,228,12449,2,0,L|443:231,1,168,8|8,0:0|3:0,0:0:0:0:
268,198,13199,2,0,L|154:195,1,84,8|0,0:0|0:0,0:0:0:0:
352,136,13574,6,0,L|358:236,1,84,8|0,3:0|0:0,0:0:0:0:
186,246,14136,2,0,L|383:247,1,168
271,193,14699,2,0,L|256:101,1,84,8|0,0:0|0:0,0:0:0:0:
430,94,15074,6,0,L|441:183,1,84,8|0,3:0|0:0,0:0:0:0:
261,248,15636,2,0,L|465:243,1,168
345,178,16199,1,8,0:0:0:0:
256,172,16386,1,0,0:0:0:0:
83,178,16574,6,0,L|77:67,1,84,8|0,3:0|0:0,0:0:0:0:
160,81,16949,1,8,0:0:0:0:
318,121,17136,2,0,L|509:125,1,168
405,200,17699,1,8,0:0:0:0:
318,200,17886,1,0,0:0:0:0:
67,178,18074,5,4,0:0:0:0:
233,216,18449,2,0,L|36:216,1,168,8|8,0:0|3:0,0:0:0:0:
326,206,19199,2,0,L|330:104,1,84,8|0,0:0|0:0,0:0:0:0:
150,139,19574,6,0,L|138:29,1,84,8|0,3:0|0:0,0:0:0:0:
290,85,20136,2,0,L|95:87,1,168
202,192,20699,1,8,0:0:0:0:
289,188,20886,1,0,0:0:0:0:
466,207,21074,6,0,L|471:105,1,84,8|0,3:0|0:0,0:0:0:0:
189,124,21636,2,0,L|363:125,1,168
269,197,22199,1,8,0:0:0:0:
186,199,22386,1,0,0:0:0:0:
360,271,22574,6,0,L|475:269,2,84,8|0|8,3:0|0:0|0:0,0:0:0:0:
188,238,23136,2,0,P|133:208|200:141,1,168,0|8,0:0|3:0,0:0:0:0:
267,154,23699,2,0,L|372:157,1,84,8|0,0:0|0:0,0:0:0:0:
101,194,24074,5,4,0:0:0:0:
269,239,24449,2,0,L|80:238,1,168,8|8,0:0|3:0,0:0:0:0:
266,187,25199,2,0,L|280:82,1,84,8|0,0:0|0:0,0:0:0:0:
100,119,25574,6,0,L|90:16,1,84,8|0,3:0|0:0,0:0:0:0:
266,125,26136,2,0,L|470:131,1,168
351,196,26699,1,8,0:0:0:0:
273,193,26886,1,0,0:0:0:0:
98,186,27074,6,0,L|91:87,1,84,8|0,3:0|0:0,0:0:0:0:
261,115,27636,2,0,L|69:118,1,168
177,193,28199,1,8,0:0:0:0:
255,192,28386,1,0,0:0:0:0:
428,171,28574,6,0,L|439:274,1,84,8|0,3:0|0:0,0:0:0:0:
356,268,28949,1,8,0:0:0:0:
177,193,29136,2,0,L|166:106,1,84,0|8,0:0|3:0,0:0:0:0:
250,98,29511,1,0,0:0:0:0:
327,95,29699,1,8,0:0:0:0:
250,98,29886,1,0,0:0:0:0:
75,218,30074,6,0,L|66:119,1,84,8|0,3:0|0:0,0:0:0:0:
155,106,30449,1,8,0:0:0:0:
334,194,30636,2,0,L|502:194,1,168
416,263,31199,1,8,0:0:0:0:
166,257,31386,6,0,P|110:229|168:157,1,168
243,175,31949,2,0,L|245:73,1,84,8|0,0:0|0:0,0:0:0:0:
155,114,32324,2,0,L|143:14,1,84,8|0,3:0|0:0,0:0:0:0:
324,88,32699,2,0,L|421:89,1,84,8|0,0:0|0:0,0:0:0:0:
139,235,33074,6,0,P|84:212|150:142,1,168,8|8,3:0|0:0,0:0:0:0:
205,136,33636,1,0,0:0:0:0:
371,182,33824,2,0,L|376:77,1,84,8|0,3:0|0:0,0:0:0:0:
283,76,34199,2,0,L|176:78,1,84,8|0,0:0|0:0,0:0:0:0:
457,99,34574,6,0,L|472:197,1,84,8|0,3:0|0:0,0:0:0:0:
382,194,34949,1,8,0:0:0:0:
299,196,35136,1,0,0:0:0:0:
128,180,35324,2,0,L|118:82,1,84,8|0,3:0|0:0,0:0:0:0:
300,102,35699,2,0,L|392:102,1,84,8|0,0:0|0:0,0:0:0:0:
122,235,36074,6,0,P|73:204|139:145,1,168,8|8,3:0|0:0,0:0:0:0:
289,176,36636,2,0,L|481:173,1,168
283,258,37199,6,0,P|230:228|297:159,1,168,8|8,0:0|3:0,0:0:0:0:
360,145,37761,1,0,0:0:0:0:
276,155,37949,1,8,0:0:0:0:
276,155,38136,1,0,0:0:0:0:
446,187,38324,2,0,L|455:88,1,84,8|0,3:0|0:0,0:0:0:0:
283,83,38699,2,0,L|168:81,1,84,8|0,0:0|0:0,0:0:0:0:
451,112,39074,6,0,P|486:152|407:221,1,168,8|8,3:0|0:0,0:0:0:0:
249,210,39636,2,0,L|77:211,1,168
266,287,40199,6,0,P|323:251|249:196,1,168,8|8,0:0|3:0,0:0:0:0:
178,178,40761,1,0,0:0:0:0:
258,168,40949,1,8,0:0:0:0:
258,168,41136,1,0,0:0:0:0:
88,194,41324,2,0,L|76:102,1,84,8|0,3:0|0:0,0:0:0:0:
255,99,41699,2,0,L|343:99,1,84,8|0,0:0|0:0,0:0:0:0:
83,236,42074,6,0,P|18:206|82:153,1,168,12|8,3:0|0:0,0:0:0:0:
248,174,42636,2,0,L|423:178,1,168,12|0,3:0|0:0,0:0:0:0:
165,274,43199,6,0,P|122:247|190:177,1,168,12|8,3:0|3:0,0:0:0:0:
336,182,43761,2,0,L|503:182,1,168
338,220,44324,2,0,L|326:131,1,84,8|0,3:0|0:0,0:0:0:0:
499,148,44699,2,0,L|504:50,1,84,8|0,0:0|0:0,0:0:0:0:
230,92,45074,6,0,L|27:95,1,168,8|8,3:0|0:0,0:0:0:0:
139,179,45636,1,0,0:0:0:0:
314,214,45824,2,0,P|356:183|286:96,1,168,8|8,3:0|0:0,0:0:0:0:
221,104,46386,1,0,0:0:0:0:
53,172,46574,6,0,L|47:68,1,84,8|0,3:0|0:0,0:0:0:0:
128,73,46949,1,8,0:0:0:0:
385,102,47136,2,0,P|435:124|374:199,1,168
222,224,47699,2,0,L|216:120,1,84
467,120,48074,5,4,0:0:0:0:
467,120,48449,1,8,0:0:0:0:
367,159,48636,2,0,L|183:164,1,168
276,227,49199,1,8,0:0:0:0:
188,222,49386,1,0,0:0:0:0:
441,173,49574,5,8,3:0:0:0:
441,173,49949,1,8,0:0:0:0:
340,205,50136,2,0,L|154:207,1,168
258,130,50699,1,8,0:0:0:0:
168,131,50886,1,0,0:0:0:0:
421,177,51074,5,8,3:0:0:0:
421,177,51449,1,8,0:0:0:0:
328,229,51636,2,0,L|150:228,1,168
73,156,52199,1,8,0:0:0:0:
167,148,52386,1,0,0:0:0:0:
354,58,52574,6,0,L|372:257,1,168,8|8,3:0|0:0,0:0:0:0:
105,278,53136,2,0,P|46:230|124:179,1,168
183,155,53699,1,8,0:0:0:0:
85,153,53886,1,0,0:0:0:0:
337,165,54074,5,8,3:0:0:0:
412,165,54261,2,0,L|412:57,1,84,0|8,0:0|0:0,0:0:0:0:
326,80,54636,2,0,L|155:84,1,168
234,170,55199,1,8,0:0:0:0:
158,152,55386,1,0,0:0:0:0:
330,115,55574,5,8,3:0:0:0:
247,131,55761,2,0,L|234:32,1,84,0|8,0:0|0:0,0:0:0:0:
406,41,56136,2,0,P|458:69|389:142,1,168
327,187,56699,2,0,L|425:186,1,84,8|0,0:0|0:0,0:0:0:0:
156,228,57074,6,0,P|106:197|169:133,1,168,8|8,3:0|0:0,0:0:0:0:
401,130,57824,1,8,3:0:0:0:
119,183,58199,2,0,L|103:82,1,84,8|0,0:0|0:0,0:0:0:0:
365,100,58574,5,8,3:0:0:0:
292,124,58761,2,0,L|281:23,1,84,0|8,0:0|0:0,0:0:0:0:
458,43,59136,2,0,P|503:65|458:154,1,168
382,185,59699,2,0,L|298:188,1,84,8|0,0:0|0:0,0:0:0:0:
39,234,60074,5,4,0:0:0:0:
45,120,60449,5,8,0:0:0:0:
145,159,60636,2,0,L|329:164,1,168
236,227,61199,1,8,0:0:0:0:
324,222,61386,1,0,0:0:0:0:
71,173,61574,5,8,3:0:0:0:
71,173,61949,1,8,0:0:0:0:
172,205,62136,2,0,L|358:207,1,168
254,130,62699,1,8,0:0:0:0:
344,131,62886,1,0,0:0:0:0:
91,177,63074,5,8,3:0:0:0:
91,177,63449,1,8,0:0:0:0:
184,229,63636,2,0,L|362:228,1,168
439,156,64199,1,8,0:0:0:0:
345,148,64386,1,0,0:0:0:0:
163,55,64574,6,0,L|145:254,1,168,8|8,3:0|0:0,0:0:0:0:
407,278,65136,2,0,P|466:230|388:179,1,168
329,155,65699,1,8,0:0:0:0:
427,153,65886,1,0,0:0:0:0:
175,165,66074,5,8,3:0:0:0:
100,165,66261,2,0,L|100:57,1,84,0|8,0:0|0:0,0:0:0:0:
186,80,66636,2,0,L|357:84,1,168
278,170,67199,1,8,0:0:0:0:
354,152,67386,1,0,0:0:0:0:
182,115,67574,5,8,3:0:0:0:
265,131,67761,2,0,L|278:32,1,84,0|8,0:0|0:0,0:0:0:0:
106,41,68136,2,0,P|54:69|123:142,1,168
185,187,68699,2,0,L|87:186,1,84,8|0,0:0|0:0,0:0:0:0:
356,228,69074,6,0,P|406:197|343:133,1,168,8|8,3:0|0:0,0:0:0:0:
111,130,69824,1,8,3:0:0:0:
393,183,70199,2,0,L|409:82,1,84,8|0,0:0|0:0,0:0:0:0:
147,100,70574,5,8,3:0:0:0:
220,124,70761,2,0,L|231:23,1,84,0|8,0:0|0:0,0:0:0:0:
147,100,71136,1,0,0:0:0:0:
334,203,71324,2,0,L|338:91,1,84,8|0,3:0|0:0,0:0:0:0:
161,127,71699,2,0,L|152:32,1,84,8|0,0:0|0:0,0:0:0:0:
419,78,72074,6,0,P|472:110|400:182,1,168,8|8,3:0|0:0,0:0:0:0:
264,218,72824,1,8,3:0:0:0:
347,218,73011,1,0,0:0:0:0:
431,219,73199,1,8,0:0:0:0:
347,218,73386,1,0,0:0:0:0:
78,203,73574,6,0,P|17:170|86:116,1,168,8|8,3:0|0:0,0:0:0:0:
151,114,74136,1,0,0:0:0:0:
313,233,74324,2,0,L|123:232,1,168,8|8,3:0|0:0,0:0:0:0:
229,171,74886,1,0,0:0:0:0:
485,130,75074,6,0,L|492:214,1,84,4|0,0:0|0:0,0:0:0:0:
316,144,75449,2,0,L|199:143,1,84,8|0,0:0|0:0,0:0:0:0:
316,144,75824,1,8,3:0:0:0:
388,111,76011,1,0,0:0:0:0:
385,33,76199,1,8,0:0:0:0:
310,6,76386,1,0,0:0:0:0:
60,188,76574,6,0,L|56:79,1,84,8|0,3:0|0:0,0:0:0:0:
232,117,76949,2,0,L|331:118,1,84,8|0,0:0|0:0,0:0:0:0:
56,202,77324,2,0,L|46:81,1,84,8|0,3:0|0:0,0:0:0:0:
227,132,77699,2,0,L|332:135,1,84,8|0,0:0|0:0,0:0:0:0:
45,120,78074,5,4,0:0:0:0:
45,120,78449,5,8,0:0:0:0:
145,159,78636,2,0,L|329:164,1,168
236,227,79199,1,8,0:0:0:0:
324,222,79386,1,0,0:0:0:0:
71,173,79574,5,8,3:0:0:0:
71,173,79949,1,8,0:0:0:0:
172,205,80136,2,0,L|358:207,1,168
254,130,80699,1,8,0:0:0:0:
344,131,80886,1,0,0:0:0:0:
91,177,81074,5,8,3:0:0:0:
91,177,81449,1,8,0:0:0:0:
184,229,81636,2,0,L|362:228,1,168
439,156,82199,1,8,0:0:0:0:
345,148,82386,1,0,0:0:0:0:
160,56,82574,6,0,L|142:255,1,168,8|8,3:0|0:0,0:0:0:0:
407,278,83136,2,0,P|466:230|388:179,1,168
329,155,83699,1,8,0:0:0:0:
427,153,83886,1,0,0:0:0:0:
175,165,84074,5,8,3:0:0:0:
100,165,84261,2,0,L|100:57,1,84,0|8,0:0|0:0,0:0:0:0:
186,80,84636,2,0,L|357:84,1,168
278,170,85199,1,8,0:0:0:0:
354,152,85386,1,0,0:0:0:0:
182,115,85574,5,8,3:0:0:0:
265,131,85761,2,0,L|278:32,1,84,0|8,0:0|0:0,0:0:0:0:
98,41,86136,2,0,P|46:69|115:142,1,168
185,187,86699,2,0,L|87:186,1,84,8|0,0:0|0:0,0:0:0:0:
356,228,87074,6,0,P|406:197|343:133,1,168,8|8,3:0|0:0,0:0:0:0:
111,130,87824,1,8,3:0:0:0:
393,183,88199,2,0,L|409:82,1,84,8|0,0:0|0:0,0:0:0:0:
147,100,88574,5,8,3:0:0:0:
220,124,88761,2,0,L|231:23,1,84,0|8,0:0|0:0,0:0:0:0:
67,41,89136,2,0,P|22:63|67:152,1,168
137,184,89699,2,0,L|221:187,1,84,8|0,0:0|0:0,0:0:0:0:
473,234,90074,5,4,0:0:0:0:
467,120,90449,5,8,0:0:0:0:
367,159,90636,2,0,L|183:164,1,168
276,227,91199,1,8,0:0:0:0:
188,222,91386,1,0,0:0:0:0:
441,173,91574,5,8,3:0:0:0:
441,173,91949,1,8,0:0:0:0:
340,205,92136,2,0,L|154:207,1,168
258,130,92699,1,8,0:0:0:0:
168,131,92886,1,0,0:0:0:0:
421,177,93074,5,8,3:0:0:0:
421,177,93449,1,8,0:0:0:0:
328,229,93636,2,0,L|150:228,1,168
73,156,94199,1,8,0:0:0:0:
167,148,94386,1,0,0:0:0:0:
352,58,94574,6,0,L|370:257,1,168,8|8,3:0|0:0,0:0:0:0:
105,278,95136,2,0,P|46:230|124:179,1,168
183,155,95699,1,8,0:0:0:0:
85,153,95886,1,0,0:0:0:0:
337,165,96074,5,8,3:0:0:0:
412,165,96261,2,0,L|412:57,1,84,0|8,0:0|0:0,0:0:0:0:
326,80,96636,2,0,L|155:84,1,168
234,170,97199,1,8,0:0:0:0:
158,152,97386,1,0,0:0:0:0:
330,115,97574,5,8,3:0:0:0:
247,131,97761,2,0,L|234:32,1,84,0|8,0:0|0:0,0:0:0:0:
414,43,98136,2,0,P|466:71|397:144,1,168
337,187,98699,2,0,L|435:186,1,84,8|0,0:0|0:0,0:0:0:0:
156,228,99074,6,0,P|106:197|169:133,1,168,8|8,3:0|0:0,0:0:0:0:
401,130,99824,1,8,3:0:0:0:
119,183,100199,2,0,L|103:82,1,84,8|0,0:0|0:0,0:0:0:0:
365,100,100574,5,8,3:0:0:0:
292,124,100761,2,0,L|281:23,1,84,0|8,0:0|0:0,0:0:0:0:
365,100,101136,1,0,0:0:0:0:
182,202,101324,2,0,L|178:90,1,84,8|0,3:0|0:0,0:0:0:0:
351,127,101699,2,0,L|360:32,1,84,8|0,0:0|0:0,0:0:0:0:
93,78,102074,6,0,P|40:110|112:182,1,168,8|8,3:0|0:0,0:0:0:0:
248,218,102824,1,8,3:0:0:0:
164,218,103011,1,0,0:0:0:0:
80,219,103199,1,8,0:0:0:0:
164,218,103386,1,0,0:0:0:0:
434,203,103574,6,0,P|495:170|426:116,1,168,8|8,3:0|0:0,0:0:0:0:
361,114,104136,1,0,0:0:0:0:
184,234,104324,2,0,L|374:233,1,168,8|8,3:0|0:0,0:0:0:0:
267,172,104886,1,0,0:0:0:0:
16,130,105074,6,0,L|20:214,1,84,4|0,0:0|0:0,0:0:0:0:
196,144,105449,2,0,L|313:143,1,84,8|0,0:0|0:0,0:0:0:0:
196,144,105824,1,8,3:0:0:0:
123,111,106011,1,0,0:0:0:0:
126,33,106199,1,8,0:0:0:0:
201,6,106386,1,0,0:0:0:0:
452,188,106574,6,0,L|456:79,1,84,8|0,3:0|0:0,0:0:0:0:
286,177,106949,2,0,L|382:174,1,84,8|0,0:0|0:0,0:0:0:0:
111,125,107324,2,0,L|100:31,1,84,8|0,3:0|0:0,0:0:0:0:
280,66,107699,2,0,L|379:70,1,84,8|0,0:0|0:0,0:0:0:0:
100,192,108074,6,0,L|94:102,1,84,8|0,3:0|0:0,0:0:0:0:
