osu file format v14

[General]
AudioFilename: audio.MP3
AudioLeadIn: 0
PreviewTime: 77949
Countdown: 0
SampleSet: Soft
StackLeniency: 0.5
Mode: 2
LetterboxInBreaks: 0
WidescreenStoryboard: 1

[Editor]
Bookmarks: 6074,12074,36074,45449,48074,49949
DistanceSpacing: 0.2
BeatDivisor: 4
GridSize: 8
TimelineZoom: 1.6

[Metadata]
Title:BRAND NEW WORLD (TV Size)
TitleUnicode:BRAND NEW WORLD (TV Size)
Artist:D-51
ArtistUnicode:D-51
Creator:Secre
Version:Cup
Source:ONE PIECE
Tags:chickenbible ワンピース opening op 6 japanese anime 上里優 uezatoyu yu 吉田安英 yoshida yasuhide yasu
BeatmapID:2775178
BeatmapSetID:1333640

[Difficulty]
HPDrainRate:2
CircleSize:2.5
OverallDifficulty:5.9
ApproachRate:5.9
SliderMultiplier:1.51
SliderTickRate:1

[Events]
//Background and Video events
Video,-542,"video.avi"
0,0,"bg.jpg",0,0
//Break Periods
//Storyboard Layer 0 (Background)
//Storyboard Layer 1 (Fail)
//Storyboard Layer 2 (Pass)
//Storyboard Layer 3 (Foreground)
//Storyboard Layer 4 (Overlay)
//Storyboard Sound Samples

[TimingPoints]
74,375,4,2,1,55,1,0
5136,-100,4,2,1,55,0,0
6074,-100,4,2,1,55,0,0
12074,-100,4,2,1,55,0,0
34574,-100,4,2,1,60,0,0
35136,-100,4,2,1,55,0,0
35886,-100,4,2,1,55,0,0
36074,-100,4,2,17,75,0,0
36261,-100,4,2,1,55,0,0
36917,-100,4,2,1,5,0,0
37011,-100,4,2,1,55,0,0
37105,-100,4,2,1,40,0,0
37199,-100,4,2,1,55,0,0
37386,-100,4,2,1,35,0,0
37574,-100,4,2,1,55,0,0
39074,-100,4,2,1,55,0,0
39917,-100,4,2,1,5,0,0
40011,-100,4,2,1,55,0,0
40105,-100,4,2,1,40,0,0
40199,-100,4,2,1,55,0,0
40386,-100,4,2,1,35,0,0
40574,-100,4,2,1,55,0,0
42074,-100,4,2,1,55,0,0
42636,-100,4,2,1,55,0,0
45824,-100,4,2,1,55,0,0
45870,-100,4,2,1,40,0,0
46011,-100,4,2,1,55,0,0
46058,-100,4,2,1,40,0,0
46574,-100,4,2,1,55,0,0
47136,-100,4,2,1,55,0,0
47324,-100,4,2,1,55,0,0
47511,-100,4,2,17,70,0,0
47558,-100,4,2,1,70,0,0
47699,-100,4,2,1,60,0,0
47980,-100,4,2,1,5,0,0
48074,-100,4,2,17,55,0,1
48261,-100,4,2,1,75,0,1
59886,-100,4,2,1,75,0,0
60074,-100,4,2,1,75,0,1
72074,-100,4,2,1,55,0,0
73574,-100,4,2,1,55,0,0
75074,-100,4,2,1,65,0,0
76199,-100,4,2,1,65,0,0
78074,-100,4,2,17,55,0,1
78261,-100,4,2,1,75,0,1
89886,-100,4,2,1,75,0,0
90074,-100,4,2,1,75,0,1
102074,-100,4,2,1,60,0,0
106949,-100,4,2,1,60,0,0
108074,-100,4,2,1,60,0,0
108167,-100,4,2,1,5,0,0

[Colours]
Combo1 : 149,236,134
Combo2 : 251,190,108
Combo3 : 242,121,97
Combo4 : 107,173,245

[HitObjects]
344,163,74,5,8,0:0:0:0:
347,87,261,1,8,0:0:0:0:
168,163,1574,5,8,0:0:0:0:
164,87,1761,1,8,0:0:0:0:
391,182,3074,5,8,0:0:0:0:
394,106,3261,1,8,0:0:0:0:
185,189,4574,6,0,L|349:187,1,151,8|0,0:0|0:0,0:0:0:0:
261,122,5136,1,8,0:0:0:0:
114,146,5511,1,8,3:0:0:0:
190,144,5699,1,8,0:0:0:0:
266,143,5886,1,8,3:0:0:0:
182,143,6074,6,0,L|3:142,1,151,4|8,0:0|0:0,0:0:0:0:
193,247,6824,2,0,L|361:243,1,151,8|8,3:0|0:0,0:0:0:0:
171,207,7574,6,0,P|134:179|187:101,1,151,8|8,3:0|0:0,0:0:0:0:
253,111,8136,2,0,L|427:110,1,151
326,185,8699,1,8,0:0:0:0:
150,207,9074,6,0,L|328:212,1,151,8|8,3:0|0:0,0:0:0:0:
150,121,9824,1,8,3:0:0:0:
150,121,10011,1,0,0:0:0:0:
225,123,10199,1,8,0:0:0:0:
396,181,10574,6,0,L|398:14,1,151,8|8,3:0|0:0,0:0:0:0:
251,104,11324,1,8,3:0:0:0:
181,107,11511,1,0,0:0:0:0:
181,107,11699,1,8,0:0:0:0:
251,104,11886,1,0,0:0:0:0:
336,107,12074,5,4,0:0:0:0:
190,179,12449,2,0,L|13:180,1,151,8|8,0:0|3:0,0:0:0:0:
182,110,13199,1,8,0:0:0:0:
256,109,13386,1,0,0:0:0:0:
182,110,13574,5,8,3:0:0:0:
182,110,13761,1,0,0:0:0:0:
325,205,14136,2,0,L|506:202,1,151
401,135,14699,1,8,0:0:0:0:
327,141,14886,1,0,0:0:0:0:
401,135,15074,5,8,3:0:0:0:
401,135,15261,1,0,0:0:0:0:
253,152,15636,2,0,L|89:153,1,151
178,86,16199,1,8,0:0:0:0:
246,81,16386,1,0,0:0:0:0:
319,83,16574,5,8,3:0:0:0:
319,83,16761,1,0,0:0:0:0:
319,83,16949,1,8,0:0:0:0:
246,81,17136,2,0,L|73:83,1,151
167,163,17699,1,8,0:0:0:0:
337,175,18074,5,4,0:0:0:0:
165,221,18449,2,0,L|347:222,1,151,8|8,0:0|3:0,0:0:0:0:
166,113,19199,1,8,0:0:0:0:
96,112,19386,1,0,0:0:0:0:
166,113,19574,5,8,3:0:0:0:
243,115,19761,1,0,0:0:0:0:
401,201,20136,2,0,L|217:199,1,151
323,139,20699,1,8,0:0:0:0:
397,137,20886,1,0,0:0:0:0:
323,139,21074,5,8,3:0:0:0:
252,142,21261,1,0,0:0:0:0:
86,246,21636,2,0,L|255:245,1,151
160,171,22199,1,8,0:0:0:0:
82,171,22386,1,0,0:0:0:0:
160,171,22574,5,8,3:0:0:0:
233,170,22761,1,0,0:0:0:0:
309,172,22949,1,8,0:0:0:0:
233,170,23136,2,0,L|59:174,1,151,0|8,0:0|3:0,0:0:0:0:
158,239,23699,1,8,0:0:0:0:
327,199,24074,5,4,0:0:0:0:
180,206,24449,2,0,L|165:27,1,151,8|8,0:0|3:0,0:0:0:0:
316,72,25199,1,8,0:0:0:0:
246,79,25386,1,0,0:0:0:0:
316,72,25574,5,8,3:0:0:0:
316,72,25761,1,0,0:0:0:0:
168,185,26136,2,0,L|327:179,1,151
243,108,26699,1,8,0:0:0:0:
168,110,26886,1,0,0:0:0:0:
243,108,27074,5,8,3:0:0:0:
321,106,27261,1,0,0:0:0:0:
176,207,27636,2,0,L|16:208,1,151
99,131,28199,1,8,0:0:0:0:
173,127,28386,1,0,0:0:0:0:
99,131,28574,5,8,3:0:0:0:
24,139,28761,1,0,0:0:0:0:
24,139,28949,1,8,0:0:0:0:
99,131,29136,1,0,0:0:0:0:
242,162,29511,1,0,0:0:0:0:
318,162,29699,1,8,0:0:0:0:
242,162,29886,6,0,L|69:161,1,151
237,268,30636,2,0,L|391:271,1,151
214,232,31386,6,0,L|201:65,1,151
276,69,31949,1,8,0:0:0:0:
427,94,32324,1,8,3:0:0:0:
278,116,32699,1,8,0:0:0:0:
205,119,32886,1,0,0:0:0:0:
278,116,33074,6,0,P|338:144|263:318,1,302,8|8,3:0|3:0,0:0:0:0:
136,167,34199,1,8,0:0:0:0:
301,175,34574,6,0,L|456:180,1,151,8|8,3:0|0:0,0:0:0:0:
281,230,35324,2,0,L|125:235,1,151,8|8,3:0|0:0,0:0:0:0:
304,160,36074,6,0,P|342:123|290:35,1,151,8|8,3:0|0:0,0:0:0:0:
231,63,36636,2,0,L|62:69,1,151
156,142,37199,1,8,0:0:0:0:
305,167,37574,6,0,L|470:167,1,151,8|8,3:0|0:0,0:0:0:0:
300,211,38324,1,8,3:0:0:0:
300,211,38511,1,0,0:0:0:0:
381,182,38699,1,8,0:0:0:0:
381,182,38886,1,0,0:0:0:0:
300,211,39074,6,0,L|118:208,1,151,8|8,3:0|0:0,0:0:0:0:
225,143,39636,2,0,L|376:147,1,151
300,217,40199,1,8,0:0:0:0:
152,214,40574,6,0,L|136:51,1,151,8|8,3:0|0:0,0:0:0:0:
276,94,41324,1,8,3:0:0:0:
276,94,41511,1,0,0:0:0:0:
199,104,41699,1,8,0:0:0:0:
199,104,41886,1,0,0:0:0:0:
287,102,42074,6,0,L|449:101,1,151,12|8,3:0|0:0,0:0:0:0:
348,173,42636,2,0,L|174:173,1,151,12|0,3:0|0:0,0:0:0:0:
280,109,43199,6,0,L|289:287,1,151,12|8,3:0|3:0,0:0:0:0:
208,252,43761,1,0,0:0:0:0:
131,240,43949,1,8,0:0:0:0:
270,175,44324,2,0,L|456:182,1,151,8|8,3:0|0:0,0:0:0:0:
236,106,45074,6,0,L|56:106,1,151,8|8,3:0|0:0,0:0:0:0:
236,195,45824,1,8,3:0:0:0:
236,195,46011,1,0,0:0:0:0:
155,192,46199,1,8,0:0:0:0:
309,152,46574,5,8,3:0:0:0:
384,152,46761,1,0,0:0:0:0:
384,152,46949,1,8,0:0:0:0:
309,152,47136,1,0,0:0:0:0:
232,150,47324,1,8,3:0:0:0:
309,152,47511,2,0,L|465:155,1,151
376,234,48074,5,4,0:0:0:0:
217,172,48449,1,8,0:0:0:0:
289,138,48636,2,0,L|466:137,1,151
366,209,49199,1,8,0:0:0:0:
291,214,49386,1,0,0:0:0:0:
79,154,49949,5,8,0:0:0:0:
156,160,50136,2,0,L|158:-9,1,151
81,31,50699,1,8,0:0:0:0:
8,30,50886,1,0,0:0:0:0:
218,205,51449,5,8,0:0:0:0:
293,214,51636,2,0,L|295:47,1,151
215,57,52199,1,8,0:0:0:0:
288,64,52386,1,0,0:0:0:0:
73,164,52949,5,8,0:0:0:0:
149,158,53136,2,0,L|324:151,1,151
225,87,53699,1,8,0:0:0:0:
149,89,53886,1,0,0:0:0:0:
294,193,54261,5,0,0:0:0:0:
368,193,54449,1,8,0:0:0:0:
442,195,54636,1,0,0:0:0:0:
290,127,55011,1,0,0:0:0:0:
219,128,55199,1,8,0:0:0:0:
290,127,55386,6,0,L|460:124,1,151
264,201,56136,2,0,L|92:200,1,151
191,134,56699,1,8,0:0:0:0:
359,201,57074,6,0,L|361:38,1,151,8|8,3:0|0:0,0:0:0:0:
192,75,57824,1,8,3:0:0:0:
336,91,58199,1,8,0:0:0:0:
336,91,58386,1,0,0:0:0:0:
261,92,58574,5,8,3:0:0:0:
187,94,58761,1,0,0:0:0:0:
330,213,59136,2,0,L|498:211,1,151
389,139,59699,1,8,0:0:0:0:
389,139,59886,1,0,0:0:0:0:
476,99,60074,5,4,0:0:0:0:
301,172,60449,1,8,0:0:0:0:
229,138,60636,2,0,L|52:137,1,151
146,209,61199,1,8,0:0:0:0:
221,214,61386,1,0,0:0:0:0:
433,154,61949,5,8,0:0:0:0:
356,160,62136,2,0,L|354:-9,1,151
431,31,62699,1,8,0:0:0:0:
504,30,62886,1,0,0:0:0:0:
294,205,63449,5,8,0:0:0:0:
219,214,63636,2,0,L|217:47,1,151
297,57,64199,1,8,0:0:0:0:
224,64,64386,1,0,0:0:0:0:
439,164,64949,5,8,0:0:0:0:
363,158,65136,2,0,L|188:151,1,151
287,87,65699,1,8,0:0:0:0:
363,89,65886,1,0,0:0:0:0:
218,193,66261,5,0,0:0:0:0:
144,193,66449,1,8,0:0:0:0:
70,195,66636,1,0,0:0:0:0:
222,127,67011,1,0,0:0:0:0:
293,128,67199,1,8,0:0:0:0:
222,127,67386,1,0,0:0:0:0:
146,125,67573,5,8,3:0:0:0:
71,124,67761,1,0,0:0:0:0:
248,201,68136,2,0,L|420:200,1,151
321,134,68699,1,8,0:0:0:0:
153,201,69074,6,0,L|151:38,1,151,8|8,3:0|0:0,0:0:0:0:
320,75,69824,1,8,3:0:0:0:
176,91,70199,1,8,0:0:0:0:
176,91,70386,1,0,0:0:0:0:
251,92,70574,5,8,3:0:0:0:
325,94,70761,1,0,0:0:0:0:
182,213,71136,1,0,0:0:0:0:
106,212,71323,1,8,3:0:0:0:
31,211,71511,1,0,0:0:0:0:
109,140,71699,1,8,0:0:0:0:
277,132,72074,6,0,L|449:132,1,151,8|8,3:0|0:0,0:0:0:0:
270,212,72824,1,8,3:0:0:0:
270,212,73011,1,0,0:0:0:0:
348,210,73199,1,8,0:0:0:0:
202,132,73574,6,0,L|39:134,1,151,8|8,3:0|0:0,0:0:0:0:
230,187,74324,2,0,L|233:17,1,151,8|8,3:0|0:0,0:0:0:0:
156,40,74886,1,0,0:0:0:0:
80,64,75074,5,4,0:0:0:0:
80,64,75261,1,0,0:0:0:0:
156,40,75449,1,8,0:0:0:0:
313,183,75824,2,0,L|479:176,1,151,8|8,3:0|0:0,0:0:0:0:
285,127,76574,5,8,3:0:0:0:
361,126,76761,1,0,0:0:0:0:
436,125,76949,1,8,0:0:0:0:
436,125,77136,1,0,0:0:0:0:
361,126,77324,2,0,L|183:125,1,151,8|8,3:0|0:0,0:0:0:0:
288,211,77886,1,0,0:0:0:0:
376,234,78074,5,4,0:0:0:0:
217,172,78449,1,8,0:0:0:0:
289,138,78636,2,0,L|466:137,1,151
366,209,79199,1,8,0:0:0:0:
291,214,79386,1,0,0:0:0:0:
79,154,79949,5,8,0:0:0:0:
156,160,80136,2,0,L|158:-9,1,151
81,31,80699,1,8,0:0:0:0:
8,30,80886,1,0,0:0:0:0:
218,205,81449,5,8,0:0:0:0:
293,214,81636,2,0,L|295:47,1,151
215,57,82199,1,8,0:0:0:0:
288,64,82386,1,0,0:0:0:0:
73,164,82949,5,8,0:0:0:0:
149,158,83136,2,0,L|324:151,1,151
225,87,83699,1,8,0:0:0:0:
149,89,83886,1,0,0:0:0:0:
294,193,84261,5,0,0:0:0:0:
368,193,84449,1,8,0:0:0:0:
442,195,84636,1,0,0:0:0:0:
290,127,85011,1,0,0:0:0:0:
219,128,85199,1,8,0:0:0:0:
290,127,85386,6,0,L|460:124,1,151
264,201,86136,2,0,L|92:200,1,151
191,134,86699,1,8,0:0:0:0:
359,201,87074,6,0,L|361:38,1,151,8|8,3:0|0:0,0:0:0:0:
192,75,87824,1,8,3:0:0:0:
336,91,88199,1,8,0:0:0:0:
336,91,88386,1,0,0:0:0:0:
261,92,88574,5,8,3:0:0:0:
187,94,88761,1,0,0:0:0:0:
330,213,89136,2,0,L|498:211,1,151
411,138,89699,1,8,0:0:0:0:
411,138,89886,1,0,0:0:0:0:
493,98,90074,5,4,0:0:0:0:
312,172,90449,1,8,0:0:0:0:
229,137,90636,2,0,L|52:136,1,151
146,209,91199,1,8,0:0:0:0:
221,214,91386,1,0,0:0:0:0:
433,154,91949,5,8,0:0:0:0:
356,160,92136,2,0,L|354:-9,1,151
431,31,92699,1,8,0:0:0:0:
504,30,92886,1,0,0:0:0:0:
294,205,93449,5,8,0:0:0:0:
219,214,93636,2,0,L|217:47,1,151
297,57,94199,1,8,0:0:0:0:
224,64,94386,1,0,0:0:0:0:
439,164,94949,5,8,0:0:0:0:
363,158,95136,2,0,L|188:151,1,151
287,87,95699,1,8,0:0:0:0:
363,89,95886,1,0,0:0:0:0:
218,193,96261,5,0,0:0:0:0:
144,193,96449,1,8,0:0:0:0:
70,195,96636,1,0,0:0:0:0:
222,127,97011,1,0,0:0:0:0:
293,128,97199,1,8,0:0:0:0:
222,127,97386,1,0,0:0:0:0:
146,125,97573,5,8,3:0:0:0:
71,124,97761,1,0,0:0:0:0:
248,201,98136,2,0,L|420:200,1,151
321,134,98699,1,8,0:0:0:0:
153,201,99074,6,0,L|151:38,1,151,8|8,3:0|0:0,0:0:0:0:
320,75,99824,1,8,3:0:0:0:
176,91,100199,1,8,0:0:0:0:
176,91,100386,1,0,0:0:0:0:
251,92,100574,5,8,3:0:0:0:
325,94,100761,1,0,0:0:0:0:
76,256,101324,2,0,L|67:93,1,151,8|8,3:0|0:0,0:0:0:0:
254,118,102074,6,0,L|440:116,1,151,8|8,3:0|0:0,0:0:0:0:
233,185,102824,1,8,3:0:0:0:
233,185,103011,1,0,0:0:0:0:
317,182,103199,1,8,0:0:0:0:
170,124,103574,6,0,L|12:126,1,151,8|8,3:0|0:0,0:0:0:0:
205,203,104324,2,0,L|45:205,1,151,8|8,3:0|0:0,0:0:0:0:
135,139,104886,1,0,0:0:0:0:
228,134,105074,5,4,0:0:0:0:
228,134,105261,1,0,0:0:0:0:
135,139,105449,1,8,0:0:0:0:
287,251,105824,2,0,L|452:245,1,151,8|8,3:0|0:0,0:0:0:0:
267,176,106574,5,8,3:0:0:0:
267,176,106761,1,0,0:0:0:0:
347,174,106949,1,8,0:0:0:0:
347,174,107136,1,0,0:0:0:0:
267,176,107324,2,0,L|114:177,1,151,8|8,3:0|0:0,0:0:0:0:
190,252,107886,1,0,0:0:0:0:
280,256,108074,5,8,3:0:0:0:
