osu file format v14

[General]
AudioFilename: audio.MP3
AudioLeadIn: 0
PreviewTime: 77949
Countdown: 0
SampleSet: Soft
StackLeniency: 0.7
Mode: 0
LetterboxInBreaks: 0
WidescreenStoryboard: 1

[Editor]
Bookmarks: 6074,12074,36074,48074
DistanceSpacing: 0.6
BeatDivisor: 4
GridSize: 8
TimelineZoom: 1.5

[Metadata]
Title:BRAND NEW WORLD (TV Size)
TitleUnicode:BRAND NEW WORLD (TV Size)
Artist:D-51
ArtistUnicode:D-51
Creator:Irohas
Version:Normal
Source:ONE PIECE
Tags:ワンピース mugiwarasekai opening op 6 japanese anime 上里優 uezatoyu yu 吉田安英 yoshida yasuhide yasu
BeatmapID:2363464
BeatmapSetID:1131498

[Difficulty]
HPDrainRate:4
CircleSize:3.5
OverallDifficulty:4
ApproachRate:5
SliderMultiplier:1.15
SliderTickRate:1

[Events]
//Background and Video events
0,0,"bg.jpg",0,0
Video,-542,"video.avi"
//Break Periods
//Storyboard Layer 0 (Background)
//Storyboard Layer 1 (Fail)
//Storyboard Layer 2 (Pass)
//Storyboard Layer 3 (Foreground)
//Storyboard Layer 4 (Overlay)
//Storyboard Sound Samples

[TimingPoints]
74,375,4,2,1,55,1,0
12074,-100,4,2,1,55,0,0
34574,-100,4,2,1,60,0,0
35136,-100,4,2,1,55,0,0
35886,-100,4,2,1,55,0,0
36074,-100,4,2,17,75,0,0
36261,-100,4,2,1,55,0,0
37011,-100,4,2,1,55,0,0
37105,-100,4,2,1,40,0,0
37199,-100,4,2,1,55,0,0
37574,-100,4,2,1,55,0,0
39074,-100,4,2,1,55,0,0
40105,-100,4,2,1,40,0,0
40199,-100,4,2,1,55,0,0
40574,-100,4,2,1,55,0,0
42074,-100,4,2,1,55,0,0
42636,-100,4,2,1,55,0,0
45824,-100,4,2,1,55,0,0
45870,-100,4,2,1,40,0,0
46011,-100,4,2,1,55,0,0
46058,-100,4,2,1,40,0,0
46574,-100,4,2,1,55,0,0
47136,-100,4,2,1,55,0,0
47324,-100,4,2,1,55,0,0
47511,-100,4,2,17,70,0,0
47699,-100,4,2,1,60,0,0
47980,-100,4,2,1,5,0,0
48074,-100,4,2,17,55,0,1
48261,-100,4,2,1,75,0,1
59886,-100,4,2,1,75,0,0
60074,-100,4,2,1,75,0,1
72074,-100,4,2,1,65,0,0
76199,-100,4,2,1,65,0,0
78074,-100,4,2,17,55,0,1
78261,-100,4,2,1,75,0,1
89886,-100,4,2,1,75,0,0
90074,-100,4,2,1,75,0,1
102074,-100,4,2,1,60,0,0
106949,-100,4,2,1,60,0,0
108074,-100,4,2,1,60,0,0
108167,-100,4,2,1,5,0,0

[Colours]
Combo1 : 149,236,134
Combo2 : 251,190,108
Combo3 : 242,121,97
Combo4 : 107,173,245

[HitObjects]
59,238,74,6,8,L|129:225,1,57.5
56,246,1574,2,8,L|126:233,1,57.5
53,255,3074,6,8,L|123:242,1,57.5
305,384,4574,2,0,P|242:331|153:336,2,172.5,8|12|8,0:2|0:3|0:0,0:0:0:0:
394,359,6074,6,0,L|414:228,1,115,4|8,0:1|0:0,0:0:0:0:
388,227,6636,1,2,0:3:0:0:
388,227,6824,2,0,L|321:239,2,57.5,0|8|8,3:0|0:1|0:0,0:0:0:0:
463,176,7574,2,0,P|479:126|451:62,1,115,8|8,0:3|0:0,0:0:0:0:
427,54,8136,2,0,L|298:74,1,115,2|8,0:3|0:1,0:0:0:0:
287,95,8699,1,8,0:0:0:0:
218,155,9074,6,0,P|162:128|102:142,1,115,8|8,0:3|0:0,0:0:0:0:
99,110,9636,1,2,0:3:0:0:
99,110,9824,2,0,L|114:43,2,57.5,0|8|8,3:0|0:1|0:0,0:0:0:0:
21,160,10574,2,0,P|28:203|41:276,1,115,8|8,0:3|0:0,0:0:0:0:
104,339,11324,2,0,L|171:326,1,57.5,8|8,0:3|0:3,0:0:0:0:
183,353,11699,2,0,L|250:340,1,57.5,8|2,0:0|3:0,0:0:0:0:
262,368,12074,6,0,P|313:342|382:354,1,115,6|8,0:1|0:0,0:0:0:0:
449,302,12824,2,0,P|438:247|440:173,1,115,0|8,3:0|0:0,0:0:0:0:
419,166,13386,1,8,0:1:0:0:
419,166,13574,2,0,L|432:105,1,57.5,10|2,0:3|0:1,0:0:0:0:
376,35,14136,2,0,P|315:45|243:58,1,115,8|8,0:1|0:1,0:0:0:0:
240,81,14699,2,0,L|173:71,1,57.5,8|8,0:0|0:1,0:0:0:0:
155,61,15074,1,10,0:3:0:0:
155,61,15261,1,2,0:1:0:0:
110,141,15636,6,0,P|119:197|130:259,1,115,8|8,0:1|0:1,0:0:0:0:
154,278,16199,2,0,L|146:348,1,57.5,8|8,0:0|0:1,0:0:0:0:
172,360,16574,2,0,P|223:329|286:340,1,115,8|8,0:3|0:0,0:0:0:0:
355,288,17324,2,0,L|423:299,1,57.5,8|6,0:3|0:3,0:0:0:0:
437,320,17699,1,8,0:0:0:0:
506,260,18074,6,0,P|521:209|497:143,1,115,6|8,0:1|0:0,0:0:0:0:
421,109,18824,2,0,P|365:122|303:139,1,115,0|8,3:0|0:0,0:0:0:0:
284,160,19386,1,8,0:1:0:0:
284,160,19574,2,0,L|225:153,1,57.5,10|2,0:3|0:1,0:0:0:0:
149,105,20136,2,0,P|86:108|55:147,1,115,8|8,0:1|0:1,0:0:0:0:
32,172,20699,2,0,L|43:234,1,57.5,8|8,0:0|0:1,0:0:0:0:
72,254,21074,1,10,0:3:0:0:
72,254,21261,1,2,0:1:0:0:
121,331,21636,6,0,P|184:338|244:345,1,115,8|8,0:1|0:1,0:0:0:0:
260,320,22199,2,0,L|328:331,1,57.5,8|8,0:0|0:1,0:0:0:0:
342,305,22574,2,0,L|329:237,2,57.5,8|2|8,0:3|0:3|0:0,0:0:0:0:
419,355,23324,2,0,L|479:344,1,57.5,8|4,0:3|0:3,0:0:0:0:
509,350,23699,1,8,0:0:0:0:
485,260,24074,6,0,P|494:210|507:141,1,115,6|8,0:1|0:0,0:0:0:0:
463,65,24824,1,0,3:0:0:0:
382,109,25199,2,0,P|350:100|313:98,1,57.5,8|8,0:0|0:1,0:0:0:0:
301,81,25574,1,10,0:3:0:0:
301,81,25761,2,0,P|251:93|174:111,1,115,2|8,0:1|0:1,0:0:0:0:
110,59,26511,2,0,L|123:-10,2,57.5,8|8|8,0:1|0:0|0:1,0:0:0:0:
84,82,27074,1,10,0:3:0:0:
84,82,27261,1,2,0:1:0:0:
23,151,27636,6,0,P|-4:199|5:263,1,115,8|8,0:1|0:1,0:0:0:0:
27,280,28199,2,8,L|92:268,1,57.5,8|8,0:0|0:1,0:0:0:0:
111,289,28574,2,8,L|176:277,1,57.5,8|2,0:3|0:3,0:0:0:0:
198,293,28949,1,8,0:0:0:0:
263,228,29324,1,8,0:3:0:0:
263,228,29511,2,0,L|276:159,2,57.5,6|8|6,0:3|0:0|0:3,0:0:0:0:
285,261,30074,5,6,0:1:0:0:
285,261,30261,2,0,L|262:388,2,115,10|10|10,0:1|0:1|0:1,0:0:0:0:
376,253,31386,2,0,P|430:280|488:266,1,115,10|10,0:1|0:1,0:0:0:0:
506,245,31949,1,8,0:0:0:0:
444,176,32324,1,0,3:3:0:0:
494,98,32699,2,0,P|500:68|516:29,1,57.5,8|8,0:0|0:1,0:0:0:0:
482,22,33074,6,0,P|434:33|358:51,1,115,8|8,0:3|0:0,0:0:0:0:
311,118,33824,2,0,P|281:111|249:110,1,57.5,8|2,0:3|3:0,0:0:0:0:
223,125,34199,1,8,0:0:0:0:
141,81,34574,2,0,P|148:41|148:10,2,57.5,8|2|10,0:3|1:3|0:0,0:0:0:0:
92,159,35324,2,8,L|99:226,1,57.5,8|8,0:3|3:2,0:0:0:0:
128,233,35699,2,8,L|135:300,1,57.5,8|12,0:0|0:3,0:0:0:0:
119,321,36074,6,0,P|39:322|-1:242,2,172.5,4|10|8,3:0|0:1|0:0,0:0:0:0:
203,357,37574,2,0,P|253:334|318:337,1,115,8|8,0:3|0:0,0:0:0:0:
383,277,38324,2,0,L|452:292,2,57.5,8|10|8,0:3|0:1|0:0,0:0:0:0:
361,257,38886,1,10,0:1:0:0:
361,257,39074,6,0,B|379:185|379:185|377:175|377:175|400:86,2,172.5,8|10|8,0:3|0:1|0:0,0:0:0:0:
276,294,40574,2,0,L|149:273,1,115,8|8,0:3|0:0,0:0:0:0:
79,315,41324,2,0,L|92:380,2,57.5,8|10|8,0:3|0:1|0:0,0:0:0:0:
57,296,41886,1,10,0:1:0:0:
57,296,42074,6,0,P|39:259|114:143,2,172.5,4|4|12,0:1|0:1|0:1,0:0:0:0:
182,353,43761,2,0,B|256:362|262:303|352:322,1,172.5,2|10,0:1|0:3,0:0:0:0:
426,369,44699,1,10,3:2:0:0:
489,300,45074,6,0,P|499:243|465:191,1,115,4|8,0:1|0:0,0:0:0:0:
413,123,45824,2,0,P|353:135|290:148,1,115,8|8,3:0|0:0,0:0:0:0:
279,125,46386,1,10,0:1:0:0:
279,125,46574,2,0,L|292:64,2,57.5,2|2|8,3:0|0:0|0:3,0:0:0:0:
244,125,47136,2,0,L|175:139,1,57.5,8|8,0:3|0:3,0:0:0:0:
158,117,47511,2,0,B|112:126|112:126|106:133|106:133|45:146,1,115,4|8,3:3|3:2,0:0:0:0:
14,151,48074,5,14,3:0:0:0:
64,233,48449,1,8,0:2:0:0:
64,233,48636,2,0,P|57:278|44:361,1,115,2|10,0:3|0:1,0:0:0:0:
65,375,49199,2,0,L|134:363,1,57.5,8|2,0:0|0:3,0:0:0:0:
155,374,49574,1,8,0:3:0:0:
226,314,49949,1,8,0:2:0:0:
226,314,50136,2,0,P|266:291|337:290,1,115,2|10,0:3|0:1,0:0:0:0:
358,265,50699,2,0,L|427:277,1,57.5,8|2,0:0|0:3,0:0:0:0:
445,259,51074,5,8,0:3:0:0:
494,181,51449,1,8,0:2:0:0:
494,181,51636,2,0,P|487:150|479:112,1,57.5,2|0,0:3|3:3,0:0:0:0:
458,99,52011,2,0,L|479:32,2,57.5,10|8|2,0:1|0:0|0:3,0:0:0:0:
425,110,52574,1,8,0:3:0:0:
346,160,52949,1,8,0:2:0:0:
346,160,53136,2,0,P|306:137|236:144,1,115,2|10,0:3|0:1,0:0:0:0:
210,162,53699,2,0,L|199:227,1,57.5,8|2,0:0|0:3,0:0:0:0:
188,251,54074,6,0,P|130:259|62:270,1,115,8|8,0:3|0:2,0:0:0:0:
46,247,54636,1,10,0:1:0:0:
12,161,55011,2,0,P|16:128|28:94,1,57.5,10|8,0:1|0:0,0:0:0:0:
3,76,55386,1,10,0:1:0:0:
91,49,55761,1,10,0:1:0:0:
179,26,56136,1,10,0:1:0:0:
258,71,56511,2,0,P|296:68|318:57,1,57.5,2|8,0:3|0:0,0:0:0:0:
330,31,56886,5,2,0:3:0:0:
330,31,57074,2,0,L|455:52,1,115,4|8,0:1|0:0,0:0:0:0:
508,115,57824,1,0,3:0:0:0:
444,182,58199,1,8,0:0:0:0:
508,255,58574,1,8,0:3:0:0:
508,255,58761,2,0,P|501:286|493:324,1,57.5,10|8,0:1|0:0,0:0:0:0:
510,342,59136,2,0,P|467:371|395:353,1,115,10|4,0:1|3:0,0:0:0:0:
381,338,59699,1,8,0:0:0:0:
302,288,60074,6,0,L|187:310,1,115,4|8,0:1|0:2,0:0:0:0:
162,331,60636,1,2,0:3:0:0:
94,277,61011,1,10,0:1:0:0:
94,277,61199,2,0,P|97:243|109:208,1,57.5,8|2,0:0|0:3,0:0:0:0:
83,192,61574,2,0,P|95:140|111:68,1,115,8|8,0:3|0:2,0:0:0:0:
84,54,62136,1,2,0:3:0:0:
168,14,62511,1,10,0:1:0:0:
168,14,62699,2,0,L|227:27,1,57.5,8|2,0:0|0:3,0:0:0:0:
253,8,63074,5,8,0:3:0:0:
315,82,63449,1,8,0:2:0:0:
315,82,63636,2,0,P|363:105|434:96,1,115,2|10,0:3|0:1,0:0:0:0:
445,127,64199,2,0,P|440:155|434:183,1,57.5,8|2,0:0|0:3,0:0:0:0:
455,210,64574,1,8,0:3:0:0:
392,278,64949,1,8,0:2:0:0:
392,278,65136,2,0,P|355:284|271:299,1,115,2|10,0:3|0:1,0:0:0:0:
250,278,65699,2,0,L|182:291,1,57.5,8|2,0:0|0:3,0:0:0:0:
163,271,66074,6,0,P|144:222|172:154,1,115,8|8,0:3|0:2,0:0:0:0:
193,150,66636,1,10,0:1:0:0:
256,80,67011,2,0,L|242:17,2,57.5,10|8|10,0:1|0:0|0:1,0:0:0:0:
287,104,67574,1,8,0:3:0:0:
287,104,67761,1,10,0:1:0:0:
373,135,68136,1,10,0:1:0:0:
452,181,68511,2,0,L|438:244,1,57.5,2|8,0:3|0:0,0:0:0:0:
453,273,68886,5,2,0:3:0:0:
453,273,69074,2,0,P|399:283|334:296,1,115,4|8,0:1|0:0,0:0:0:0:
259,339,69824,1,0,3:0:0:0:
175,300,70199,1,8,0:0:0:0:
90,336,70574,1,8,0:3:0:0:
90,336,70761,2,0,P|71:288|104:220,1,115,2|10,0:3|0:1,0:0:0:0:
71,202,71324,1,8,0:3:0:0:
140,142,71699,1,8,0:0:0:0:
212,197,72074,6,0,B|275:269|393:291|530:274|590:153|532:30|408:20|363:114,1,575,4|8,1:1|1:2,0:0:0:0:
279,94,74324,2,0,P|205:108|97:129,1,172.5,8|2,0:3|0:1,0:0:0:0:
75,120,75074,5,4,0:1:0:0:
14,189,75449,1,10,0:0:0:0:
88,242,75824,2,0,P|134:234|215:219,1,115,8|8,0:3|0:0,0:0:0:0:
268,159,76574,2,8,L|332:169,1,57.5,8|0,3:2|3:0,0:0:0:0:
350,191,76949,2,0,P|396:163|462:172,1,115,10|8,0:0|0:3,0:0:0:0:
491,168,77511,2,8,L|502:108,2,57.5,14|6|4,1:3|1:3|0:3,0:0:0:0:
512,195,78074,5,14,3:0:0:0:
461,271,78449,1,8,0:2:0:0:
461,271,78636,2,0,P|402:263|333:256,1,115,2|10,0:3|0:1,0:0:0:0:
317,272,79199,2,0,L|331:337,2,57.5,8|2|8,0:0|0:3|0:3,0:0:0:0:
239,231,79949,1,8,0:2:0:0:
239,231,80136,2,0,P|220:183|253:115,1,115,2|10,0:3|0:1,0:0:0:0:
263,99,80699,2,0,L|249:34,2,57.5,8|2|8,0:0|0:3|0:3,0:0:0:0:
344,151,81449,5,8,0:2:0:0:
344,151,81636,2,0,P|403:140|466:129,1,115,2|10,0:3|0:1,0:0:0:0:
489,142,82199,2,0,L|478:202,1,57.5,8|2,0:0|0:3,0:0:0:0:
502,223,82574,1,8,0:3:0:0:
428,277,82949,1,8,0:2:0:0:
428,277,83136,2,0,P|369:266|306:255,1,115,2|10,0:3|0:1,0:0:0:0:
283,268,83699,2,0,L|294:328,1,57.5,8|2,0:0|0:3,0:0:0:0:
269,349,84074,6,0,P|210:338|139:326,1,115,8|8,0:3|0:2,0:0:0:0:
123,341,84636,1,10,0:1:0:0:
80,259,85011,2,0,L|96:192,1,57.5,10|8,0:1|0:0,0:0:0:0:
120,181,85386,1,10,0:1:0:0:
102,90,85761,1,10,0:1:0:0:
85,0,86136,1,10,0:1:0:0:
171,30,86511,2,0,P|205:25|233:18,1,57.5,2|8,0:3|0:0,0:0:0:0:
256,46,86886,5,2,0:3:0:0:
256,46,87074,2,0,P|323:34|385:25,1,115,4|8,0:1|0:0,0:0:0:0:
434,90,87824,2,0,P|423:152|416:209,1,115,0|8,3:0|0:0,0:0:0:0:
427,241,88386,1,10,0:1:0:0:
427,241,88574,2,0,L|493:230,2,57.5,8|10|8,0:3|0:1|0:0,0:0:0:0:
406,269,89136,2,0,P|341:261|292:255,1,115,10|4,0:1|3:0,0:0:0:0:
264,275,89699,1,8,0:0:0:0:
189,222,90074,5,4,0:1:0:0:
108,266,90449,1,8,0:2:0:0:
108,266,90636,2,0,P|89:218|122:150,1,115,2|10,0:3|0:1,0:0:0:0:
132,134,91199,2,0,L|118:69,2,57.5,8|2|8,0:0|0:3|0:3,0:0:0:0:
216,97,91949,1,8,0:2:0:0:
221,100,92136,2,0,P|280:89|343:78,1,115,2|10,0:3|0:1,0:0:0:0:
367,68,92699,2,0,P|372:41|381:5,2,57.5,8|2|8,0:0|0:3|0:3,0:0:0:0:
431,141,93449,5,8,0:2:0:0:
431,141,93636,2,0,P|444:230|450:269,1,115,2|10,0:3|0:1,0:0:0:0:
428,283,94199,2,0,L|368:275,1,57.5,8|2,0:0|0:3,0:0:0:0:
342,256,94574,1,8,0:3:0:0:
269,312,94949,1,8,0:2:0:0:
269,312,95136,2,0,P|221:332|155:312,1,115,2|10,0:3|0:1,0:0:0:0:
128,306,95699,2,0,P|130:273|144:236,1,57.5,8|2,0:0|0:3,0:0:0:0:
161,224,96074,6,0,P|153:168|143:92,1,115,8|8,0:3|0:2,0:0:0:0:
121,85,96636,1,10,0:1:0:0:
208,56,97011,2,0,L|221:-15,2,57.5,10|8|10,0:1|0:0|0:1,0:0:0:0:
228,90,97574,1,8,0:3:0:0:
228,90,97761,1,10,0:1:0:0:
316,114,98136,1,10,0:1:0:0:
402,144,98511,2,0,L|464:134,1,57.5,2|8,0:3|0:0,0:0:0:0:
497,136,98886,5,2,0:3:0:0:
497,136,99074,2,0,L|476:261,1,115,4|8,0:1|0:0,0:0:0:0:
511,335,99824,1,0,3:0:0:0:
429,378,100199,1,8,0:0:0:0:
359,325,100574,1,8,0:3:0:0:
359,325,100761,2,0,P|305:335|240:348,1,115,2|0,0:3|0:0,0:0:0:0:
218,367,101324,2,0,P|152:375|112:344,1,115,8|8,0:3|0:0,0:0:0:0:
25,328,102074,6,0,B|156:350|192:137|192:137|319:294|441:196,1,575,4|8,1:1|1:2,0:0:0:0:
507,137,104324,2,0,P|478:91|360:72,1,172.5,8|2,0:3|0:1,0:0:0:0:
344,93,105074,5,4,0:1:0:0:
258,57,105449,1,10,0:0:0:0:
173,92,105824,2,0,P|112:81|42:70,1,115,8|8,0:3|0:0,0:0:0:0:
6,148,106574,2,0,L|18:215,1,57.5,8|0,3:2|3:0,0:0:0:0:
38,231,106949,2,0,P|83:201|151:216,1,115,10|8,0:0|0:3,0:0:0:0:
164,233,107511,2,2,B|214:223|214:223|222:226|222:226|295:212,1,115,10|6,0:3|1:3,0:0:0:0:
308,229,108074,5,6,0:1:0:0:
