osu file format v14

[General]
AudioFilename: audio.MP3
AudioLeadIn: 0
PreviewTime: 77949
Countdown: 0
SampleSet: Soft
StackLeniency: 0.5
Mode: 0
LetterboxInBreaks: 0
WidescreenStoryboard: 0

[Editor]
Bookmarks: 6074,12074,36074,48074
DistanceSpacing: 0.2
BeatDivisor: 4
GridSize: 8
TimelineZoom: 1.6

[Metadata]
Title:BRAND NEW WORLD (TV Size)
TitleUnicode:BRAND NEW WORLD (TV Size)
Artist:D-51
ArtistUnicode:D-51
Creator:Irohas
Version:Insane
Source:ONE PIECE
Tags:ワンピース mugiwarasekai opening op 6 japanese anime 上里優 uezatoyu yu 吉田安英 yoshida yasuhide yasu
BeatmapID:2363463
BeatmapSetID:1131498

[Difficulty]
HPDrainRate:5.5
CircleSize:4.1
OverallDifficulty:7.5
ApproachRate:8.8
SliderMultiplier:1.6
SliderTickRate:1

[Events]
//Background and Video events
Video,-542,"video.avi"
0,0,"bg.jpg",0,0
//Break Periods
//Storyboard Layer 0 (Background)
//Storyboard Layer 1 (Fail)
//Storyboard Layer 2 (Pass)
//Storyboard Layer 3 (Foreground)
//Storyboard Layer 4 (Overlay)
//Storyboard Sound Samples

[TimingPoints]
74,375,4,2,1,55,1,0
12074,-111.111111111111,4,2,1,55,0,0
34574,-111.111111111111,4,2,1,60,0,0
35136,-100,4,2,1,55,0,0
35886,-83.3333333333333,4,2,1,55,0,0
36074,-100,4,2,17,75,0,0
36261,-100,4,2,1,55,0,0
36917,-100,4,2,1,5,0,0
37011,-76.9230769230769,4,2,1,55,0,0
37105,-76.9230769230769,4,2,1,40,0,0
37199,-76.9230769230769,4,2,1,55,0,0
37386,-76.9230769230769,4,2,1,35,0,0
37574,-105.263157894737,4,2,1,55,0,0
39074,-100,4,2,1,55,0,0
39917,-100,4,2,1,5,0,0
40011,-100,4,2,1,55,0,0
40105,-100,4,2,1,40,0,0
40199,-76.9230769230769,4,2,1,55,0,0
40386,-76.9230769230769,4,2,1,35,0,0
40574,-105.263157894737,4,2,1,55,0,0
42074,-105.263157894737,4,2,1,55,0,0
42636,-100,4,2,1,55,0,0
45824,-83.3333333333333,4,2,1,55,0,0
45870,-83.3333333333333,4,2,1,40,0,0
46011,-83.3333333333333,4,2,1,55,0,0
46058,-83.3333333333333,4,2,1,40,0,0
46574,-100,4,2,1,55,0,0
47136,-71.4285714285714,4,2,1,55,0,0
47324,-100,4,2,1,55,0,0
47511,-71.4285714285714,4,2,17,70,0,0
47558,-71.4285714285714,4,2,1,70,0,0
47699,-71.4285714285714,4,2,1,60,0,0
47980,-71.4285714285714,4,2,1,5,0,0
48074,-90.9090909090909,4,2,17,55,0,1
48261,-90.9090909090909,4,2,1,75,0,1
59886,-100,4,2,1,75,0,0
60074,-90.9090909090909,4,2,1,75,0,1
72074,-111.111111111111,4,2,1,55,0,0
75074,-111.111111111111,4,2,1,65,0,0
76199,-100,4,2,1,65,0,0
78074,-90.9090909090909,4,2,17,55,0,1
78261,-90.9090909090909,4,2,1,75,0,1
89886,-100,4,2,1,75,0,0
90074,-90.9090909090909,4,2,1,75,0,1
102074,-100,4,2,1,60,0,0
106949,-100,4,2,1,60,0,0
108074,-100,4,2,1,60,0,0
108167,-100,4,2,1,5,0,0

[Colours]
Combo1 : 149,236,134
Combo2 : 251,190,108
Combo3 : 242,121,97
Combo4 : 107,173,245

[HitObjects]
19,207,74,5,8,0:0:0:0:
105,184,261,1,8,0:0:0:0:
19,207,1574,5,8,0:0:0:0:
105,184,1761,1,8,0:0:0:0:
19,207,3074,5,8,0:0:0:0:
105,184,3261,1,8,0:0:0:0:
453,322,4574,5,8,0:2:0:0:
453,322,5136,1,12,0:3:0:0:
458,322,5511,5,4,3:3:0:0:
461,314,5605,1,12,0:3:0:0:
466,308,5699,1,8,0:0:0:0:
473,305,5792,1,8,0:3:0:0:
480,301,5886,1,0,3:2:0:0:
487,301,5980,1,8,0:3:0:0:
494,303,6074,6,0,P|442:264|346:277,1,160,4|8,0:1|0:0,0:0:0:0:
164,194,6636,1,2,0:3:0:0:
276,142,6824,2,0,L|260:230,1,80,0|8,3:0|0:1,0:0:0:0:
130,370,7199,2,0,P|119:334|137:282,1,80,8|2,0:0|0:0,0:0:0:0:
261,220,7574,6,0,P|317:230|427:250,1,160,8|8,0:3|0:0,0:0:0:0:
507,189,8136,2,0,P|516:146|503:102,1,80,2|0,0:3|3:0,0:0:0:0:
322,61,8511,1,8,0:1:0:0:
398,179,8699,1,8,0:0:0:0:
453,0,8886,1,2,0:0:0:0:
277,172,9074,6,0,B|234:142|181:148|181:148|157:177|121:169,1,160,8|8,0:3|0:0,0:0:0:0:
29,232,9636,1,2,0:3:0:0:
115,310,9824,2,0,P|167:300|209:293,1,80,0|8,3:0|0:1,0:0:0:0:
360,371,10199,2,0,P|373:332|361:291,1,80,8|2,0:0|0:0,0:0:0:0:
277,172,10574,6,0,P|283:137|291:86,1,80,8|8,0:3|0:1,0:0:0:0:
393,190,10949,1,8,0:0:0:0:
194,242,11136,1,2,0:1:0:0:
190,247,11230,1,0,3:2:0:0:
185,252,11324,5,8,0:3:0:0:
159,247,11417,1,2,0:1:0:0:
132,242,11511,1,8,0:3:0:0:
106,236,11605,1,10,3:1:0:0:
82,195,11699,5,8,0:0:0:0:
41,180,11792,1,2,3:0:0:0:
4,205,11886,1,2,3:0:0:0:
3,249,11980,1,2,3:0:0:0:
35,272,12074,6,0,P|24:208|11:126,1,143.999995605469,6|8,0:1|0:0,0:0:0:0:
187,51,12636,1,8,0:1:0:0:
100,0,12824,2,0,L|86:79,1,71.9999978027344,2|10,3:0|0:1,0:0:0:0:
163,156,13199,2,0,L|239:144,1,71.9999978027344,8|8,0:0|0:1,0:0:0:0:
313,94,13574,5,10,0:3:0:0:
395,219,13761,2,0,P|406:181|396:143,1,71.9999978027344,2|8,0:1|0:0,0:0:0:0:
315,298,14136,2,0,P|415:315|468:324,1,143.999995605469,8|8,0:1|0:1,0:0:0:0:
289,212,14699,2,0,P|247:221|209:229,1,71.9999978027344,8|8,0:0|0:1,0:0:0:0:
38,318,15074,5,10,0:3:0:0:
124,382,15261,2,0,P|133:339|140:303,1,71.9999978027344,2|8,0:1|0:0,0:0:0:0:
14,165,15636,2,0,P|5:208|-2:244,1,71.9999978027344,8|0,0:1|3:0,0:0:0:0:
122,182,16011,1,8,0:1:0:0:
101,97,16199,1,8,0:0:0:0:
78,13,16386,1,8,0:1:0:0:
239,223,16574,5,8,0:3:0:0:
306,148,16761,2,0,P|298:107|290:64,1,71.9999978027344,2|8,0:3|0:0,0:0:0:0:
423,171,17136,1,2,0:3:0:0:
423,171,17230,1,0,3:0:0:0:
423,171,17324,2,0,P|416:206|409:241,1,71.9999978027344,8|6,0:3|0:3,0:0:0:0:
316,379,17699,1,8,0:0:0:0:
507,314,17886,1,6,0:3:0:0:
325,246,18074,6,0,P|282:221|191:233,1,143.999995605469,6|8,0:1|0:0,0:0:0:0:
48,82,18636,1,8,0:1:0:0:
0,176,18824,2,0,P|66:165|147:152,1,143.999995605469,0|8,3:0|0:0,0:0:0:0:
193,235,19386,1,8,0:1:0:0:
45,324,19574,5,10,0:3:0:0:
142,382,19761,2,0,P|151:345|143:309,1,71.9999978027344,2|8,0:1|0:0,0:0:0:0:
280,196,20136,2,0,L|255:37,1,143.999995605469,8|8,0:1|0:1,0:0:0:0:
370,144,20699,1,8,0:0:0:0:
193,235,20886,1,8,0:1:0:0:
382,330,21074,5,10,0:3:0:0:
280,384,21261,2,0,P|287:340|294:298,1,71.9999978027344,2|8,0:1|0:0,0:0:0:0:
477,173,21636,1,8,0:1:0:0:
491,278,21824,2,0,P|456:262|416:260,1,71.9999978027344,0|8,3:0|0:1,0:0:0:0:
288,188,22199,2,0,P|323:187|359:176,1,71.9999978027344,8|8,0:0|0:1,0:0:0:0:
418,98,22574,5,8,0:3:0:0:
492,19,22761,1,2,0:3:0:0:
313,74,22949,1,8,0:0:0:0:
494,164,23136,1,2,0:3:0:0:
362,13,23324,6,0,L|281:29,1,71.9999978027344,8|4,0:3|0:3,0:0:0:0:
179,143,23699,2,0,P|215:148|249:135,1,71.9999978027344,8|14,0:0|0:3,0:0:0:0:
140,46,24074,6,0,P|92:57|-4:80,2,143.999995605469,6|8|0,0:1|0:0|3:0,0:0:0:0:
240,101,25011,1,8,0:1:0:0:
137,216,25199,2,0,P|147:176|154:131,1,71.9999978027344,8|8,0:0|0:1,0:0:0:0:
247,246,25574,5,10,0:3:0:0:
181,319,25761,2,0,P|113:356|39:338,1,143.999995605469,2|8,0:1|0:1,0:0:0:0:
247,246,26324,2,0,L|331:262,1,71.9999978027344,0|8,3:3|0:1,0:0:0:0:
474,213,26699,2,0,P|441:197|398:198,1,71.9999978027344,8|8,0:0|0:1,0:0:0:0:
234,48,27074,5,10,0:3:0:0:
339,0,27261,2,0,L|313:149,1,143.999995605469,2|8,0:1|0:1,0:0:0:0:
205,205,27824,2,0,P|204:166|198:129,1,71.9999978027344,0|8,3:0|0:1,0:0:0:0:
309,226,28199,1,8,0:0:0:0:
145,329,28386,1,8,0:1:0:0:
241,384,28574,5,8,0:3:0:0:
74,192,28761,1,2,0:3:0:0:
239,270,28949,1,8,0:0:0:0:
58,382,29136,2,0,P|49:346|62:304,1,71.9999978027344,2|8,0:3|0:3,0:0:0:0:
142,258,29511,1,6,0:3:0:0:
30,93,29699,1,8,0:0:0:0:
5,201,29886,2,0,P|41:205|77:188,1,71.9999978027344,6|6,0:3|0:1,0:0:0:0:
151,35,30261,6,0,P|143:78|136:119,1,71.9999978027344,10|8,0:1|0:0,0:0:0:0:
259,197,30636,2,0,P|267:154|274:113,1,71.9999978027344,10|0,0:1|3:0,0:0:0:0:
142,226,31011,2,0,P|136:261|130:296,1,71.9999978027344,10|8,0:1|0:0,0:0:0:0:
202,365,31386,2,0,P|234:350|277:350,1,71.9999978027344,2|8,0:1|0:3,0:1:0:0:
438,212,31761,1,2,0:1:0:0:
498,285,31949,6,0,P|415:307|353:263,1,143.999995605469,8|0,0:0|3:0,0:0:0:0:
276,271,32511,1,0,0:0:0:0:
276,271,32699,2,0,L|290:196,1,71.9999978027344,8|8,0:0|0:1,0:0:0:0:
206,147,33074,6,0,P|163:155|120:164,1,71.9999978027344,8|10,0:3|0:1,0:0:0:0:
0,69,33449,2,0,P|43:61|86:52,1,71.9999978027344,8|8,0:0|0:1,0:0:0:0:
39,231,33824,2,0,P|30:182|23:152,1,71.9999978027344,10|0,0:3|3:0,0:0:0:0:
153,0,34199,2,0,P|162:49|169:79,1,71.9999978027344,10|8,0:0|0:1,0:0:0:0:
264,182,34574,5,8,0:3:0:0:
281,194,34667,1,8,0:1:0:0:
300,203,34761,1,2,1:3:0:0:
321,209,34855,1,8,3:1:0:0:
343,210,34949,1,10,0:0:0:0:
364,207,35042,1,8,3:1:0:0:
388,191,35136,2,0,L|397:140,1,40,2|10,3:1|3:1,0:0:0:0:
322,83,35324,5,8,0:3:0:0:
490,185,35511,1,8,3:2:0:0:
298,288,35699,1,8,0:0:0:0:
470,384,35886,6,0,P|474:353|483:328,1,47.9999985351563,12|4,0:3|3:0,0:0:0:0:
397,318,36074,6,0,P|324:332|237:349,1,160,4|8,3:0|0:0,0:0:0:0:
148,313,36636,2,0,P|125:269|155:197,1,120,10|0,0:1|0:0,0:0:0:0:
216,162,37011,5,8,0:1:0:0:
221,158,37105,1,8,3:2:0:0:
227,155,37199,2,0,L|204:35,1,103.999995239258,8|0,0:0|3:0,0:0:0:0:
356,199,37574,5,8,0:3:0:0:
372,208,37761,2,0,L|459:194,1,75.9999979705811,8|8,0:1|0:0,0:0:0:0:
324,341,38136,1,2,3:2:0:0:
413,376,38324,2,0,L|429:292,1,75.9999979705811,8|10,0:3|0:1,0:0:0:0:
356,199,38699,1,8,0:0:0:0:
512,283,38886,1,10,0:1:0:0:
324,341,39074,6,0,B|235:325|235:325|209:362|168:355,1,160,8|8,0:3|0:0,0:0:0:0:
39,291,39636,2,0,P|75:256|150:258,1,120,10|0,0:1|0:0,0:0:0:0:
248,197,40011,5,8,0:1:0:0:
250,203,40105,1,8,3:2:0:0:
252,209,40199,2,0,L|231:320,1,103.999995239258,8|0,0:0|3:0,0:0:0:0:
406,384,40574,5,8,0:3:0:0:
421,373,40761,2,0,P|430:337|423:299,1,75.9999979705811,8|8,0:1|0:0,0:0:0:0:
252,209,41136,1,2,3:2:0:0:
359,175,41324,2,0,L|343:259,1,75.9999979705811,8|10,0:3|0:1,0:0:0:0:
446,219,41699,1,8,0:0:0:0:
281,118,41886,1,10,0:1:0:0:
423,3,42074,6,0,P|472:54|450:136,1,151.999995941162,4|8,0:1|0:0,0:0:0:0:
284,214,42636,2,0,P|201:203|113:192,1,160,4|8,0:1|0:1,0:0:0:0:
0,115,43199,6,0,P|38:96|83:99,1,80,12|2,0:1|0:0,0:0:0:0:
92,281,43574,2,0,P|43:300|8:293,1,80,8|2,0:3|0:1,0:0:0:0:
183,193,43949,2,0,L|275:206,1,80,8|10,0:0|0:1,0:0:0:0:
388,128,44324,5,10,0:3:0:0:
333,287,44511,1,10,0:1:0:0:
245,104,44699,1,10,3:2:0:0:
456,224,44886,1,2,0:1:0:0:
247,335,45074,6,0,B|204:305|151:311|151:311|127:340|91:332,1,160,4|8,0:1|0:0,0:0:0:0:
26,278,45636,1,10,0:1:0:0:
28,275,45730,1,0,0:0:0:0:
30,272,45824,2,0,L|22:231,6,23.9999992675781,8|0|0|0|10|0|0,3:0|3:0|3:0|3:0|3:1|3:0|3:0,0:0:0:0:
117,224,46199,1,8,0:0:0:0:
0,131,46386,1,10,0:1:0:0:
123,55,46574,6,0,P|115:102|110:136,1,80,2|2,3:0|0:0,0:0:0:0:
23,9,46949,1,8,0:3:0:0:
245,117,47136,2,0,P|265:109|244:104,1,55.9999982910157,8|0,0:3|3:0,0:0:0:0:
193,185,47324,6,0,L|203:232,1,40,8|8,0:3|0:3,0:0:0:0:
262,299,47511,6,0,L|258:321,6,13.9999995727539,4|0|0|0|0|0|0,3:3|3:0|3:0|3:0|3:0|3:0|3:0,0:0:0:0:
184,372,47699,6,0,P|173:378|185:365,1,55.9999982910157,8|0,0:3|3:0,0:0:0:0:
260,313,47886,2,0,L|332:326,1,55.9999982910157,8|0,3:0|0:0,0:0:0:0:
412,384,48074,6,0,P|428:343|416:303,1,88.000002685547,14|10,3:0|0:1,0:0:0:0:
383,99,48449,1,8,0:2:0:0:
512,184,48636,2,0,B|423:159|427:233|332:206,1,176.000005371094,2|10,0:3|0:1,0:0:0:0:
187,75,49199,1,8,0:0:0:0:
256,264,49386,1,2,0:3:0:0:
383,99,49574,6,0,P|374:55|373:10,1,88.000002685547,8|10,0:3|0:1,0:0:0:0:
494,76,49949,1,8,0:2:0:0:
341,194,50136,2,0,P|264:152|180:174,1,176.000005371094,2|10,0:3|0:1,0:0:0:0:
48,338,50699,1,8,0:0:0:0:
221,261,50886,1,2,0:3:0:0:
75,127,51074,6,0,L|96:226,1,88.000002685547,8|10,0:3|0:1,0:0:0:0:
227,377,51449,1,8,0:2:0:0:
305,312,51636,2,0,B|346:275|403:281|403:281|431:321|475:312,1,176.000005371094,2|10,0:3|0:1,0:0:0:0:
422,189,52199,1,8,0:0:0:0:
360,384,52386,1,2,0:3:0:0:
224,204,52574,6,0,P|232:165|237:109,1,88.000002685547,8|10,0:3|0:1,0:0:0:0:
328,239,52949,1,8,0:2:0:0:
225,305,53136,2,0,L|133:289,1,88.000002685547,2|0,0:3|3:3,0:0:0:0:
0,149,53511,1,10,0:1:0:0:
176,216,53699,1,8,0:0:0:0:
2,325,53886,1,10,0:1:0:0:
108,116,54074,6,0,P|99:73|89:19,1,88.000002685547,8|10,0:3|0:1,0:0:0:0:
0,149,54449,1,8,0:0:0:0:
176,216,54636,2,0,B|217:179|274:185|274:185|302:225|346:216,1,176.000005371094,10|10,0:1|0:1,0:0:0:0:
484,62,55199,1,8,0:0:0:0:
509,166,55386,2,0,L|412:147,1,88.000002685547,10|8,0:1|0:3,0:0:0:0:
233,47,55761,6,0,P|244:93|248:139,1,88.000002685547,10|8,0:1|0:0,0:0:0:0:
340,70,56136,1,10,0:1:0:0:
132,177,56324,1,8,0:3:0:0:
335,262,56511,1,2,0:3:0:0:
197,370,56699,5,8,0:0:0:0:
243,153,56886,1,2,0:3:0:0:
402,249,57074,6,0,P|472:252|525:159,2,176.000005371094,4|8|0,0:1|0:0|3:0,0:0:0:0:
233,323,58011,1,10,0:1:0:0:
324,384,58199,2,0,P|333:333|341:289,1,88.000002685547,8|10,0:0|0:1,0:0:0:0:
156,190,58574,5,8,0:3:0:0:
56,297,58761,2,0,L|143:284,1,88.000002685547,10|8,0:1|0:0,0:0:0:0:
260,120,59136,1,10,0:1:0:0:
59,208,59324,1,12,0:3:0:0:
234,328,59511,1,4,3:0:0:0:
238,319,59605,1,0,0:0:0:0:
238,308,59699,1,8,0:0:0:0:
137,86,59886,1,6,3:0:0:0:
352,269,60074,6,0,B|451:252|451:252|473:295|527:286,1,176.000005371094,4|8,0:1|0:2,0:0:0:0:
260,120,60636,2,0,P|269:169|279:225,1,88.000002685547,2|0,0:3|3:1,0:0:0:0:
82,321,61011,1,10,0:1:0:0:
180,372,61199,2,0,P|182:329|192:276,1,88.000002685547,8|2,0:0|0:3,0:0:0:0:
89,216,61574,6,0,L|-8:239,1,88.000002685547,8|10,0:3|0:1,0:0:0:0:
21,136,61949,1,8,0:2:0:0:
189,284,62136,2,0,B|234:251|290:255|290:255|315:291|357:284,1,176.000005371094,2|10,0:3|0:1,0:0:0:0:
500,134,62699,1,8,0:0:0:0:
350,186,62886,1,2,0:3:0:0:
493,314,63074,6,0,P|508:273|493:224,1,88.000002685547,8|10,0:3|0:1,0:0:0:0:
279,325,63449,1,8,0:2:0:0:
382,384,63636,2,0,P|388:339|398:298,1,88.000002685547,2|0,0:3|3:3,0:0:0:0:
318,200,64011,1,10,0:1:0:0:
493,314,64199,1,8,0:0:0:0:
279,325,64386,6,0,L|177:307,1,88.000002685547,2|8,0:3|0:3,0:0:0:0:
9,199,64761,1,10,0:1:0:0:
77,384,64949,1,8,0:2:0:0:
213,233,65136,2,0,P|246:179|202:66,1,176.000005371094,2|10,0:3|0:1,0:0:0:0:
139,153,65699,1,8,0:0:0:0:
324,235,65886,1,2,0:3:0:0:
147,307,66074,6,0,P|104:298|57:294,1,88.000002685547,8|10,0:3|0:1,0:0:0:0:
232,384,66449,1,8,0:2:0:0:
316,232,66636,2,0,P|308:175|290:50,1,176.000005371094,10|10,0:1|0:1,0:0:0:0:
406,152,67199,1,8,0:0:0:0:
204,260,67386,1,10,0:1:0:0:
389,368,67574,5,8,0:3:0:0:
297,317,67761,2,0,P|305:273|320:217,1,88.000002685547,10|8,0:1|0:0,0:0:0:0:
94,141,68136,1,10,0:1:0:0:
185,64,68324,2,0,L|200:152,1,88.000002685547,10|0,0:3|0:3,0:0:0:0:
112,266,68699,2,0,P|64:286|20:274,1,88.000002685547,8|2,0:0|0:3,0:0:0:0:
337,155,69074,6,0,P|455:175|524:188,2,176.000005371094,4|8|0,0:1|0:0|3:0,0:0:0:0:
132,66,70011,1,10,0:1:0:0:
238,0,70199,2,0,P|259:42|254:86,1,88.000002685547,8|10,0:0|0:1,0:0:0:0:
121,257,70574,1,8,0:3:0:0:
11,180,70761,2,0,P|59:171|102:163,1,88.000002685547,2|8,0:3|0:0,0:0:0:0:
230,227,71136,1,10,0:1:0:0:
44,350,71324,5,8,0:3:0:0:
408,155,71699,1,8,0:0:0:0:
188,0,72074,6,0,P|198:62|212:147,1,143.999995605469,4|8,1:1|1:2,0:0:0:0:
314,211,72636,1,10,0:1:0:0:
314,211,72824,2,0,P|318:168|328:130,1,71.9999978027344,2|8,1:3|0:1,0:0:0:0:
213,237,73199,2,0,L|226:310,1,71.9999978027344,8|10,1:2|0:1,0:0:0:0:
332,384,73574,6,0,P|342:345|333:314,1,71.9999978027344,8|10,1:3|0:1,0:0:0:0:
225,307,73949,2,0,L|140:324,1,71.9999978027344,8|0,1:2|3:0,0:0:0:0:
310,232,74324,2,0,P|356:240|464:259,1,143.999995605469,8|8,0:3|0:0,0:0:0:0:
451,256,74886,1,2,0:1:0:0:
366,137,75074,5,4,0:1:0:0:
397,59,75261,1,0,3:0:0:0:
310,232,75449,5,10,0:0:0:0:
247,68,75636,1,8,0:0:0:0:
448,167,75824,1,8,3:0:0:0:
210,306,76011,1,2,0:3:0:0:
361,384,76199,2,0,P|375:350|363:301,1,80,8|2,0:0|0:3,0:0:0:0:
178,233,76574,5,8,3:2:0:0:
171,234,76667,1,2,0:0:0:0:
164,235,76761,1,0,3:0:0:0:
156,237,76855,1,8,0:3:0:0:
134,254,76949,5,10,0:0:0:0:
124,249,77042,1,0,3:0:0:0:
119,241,77136,1,0,3:2:0:0:
118,231,77230,1,8,0:0:0:0:
87,214,77324,5,8,0:3:0:0:
79,199,77417,1,2,0:0:0:0:
80,183,77511,1,2,0:3:0:0:
88,169,77605,1,8,3:1:0:0:
111,150,77699,5,14,1:3:0:0:
115,88,77792,1,6,1:3:0:0:
66,51,77886,1,6,1:3:0:0:
11,76,77980,1,6,1:3:0:0:
3,135,78074,6,0,P|51:126|112:116,1,88.000002685547,14|10,3:0|0:1,0:0:0:0:
305,245,78449,1,8,0:2:0:0:
396,185,78636,2,0,P|350:147|237:161,1,176.000005371094,2|10,0:3|0:1,0:0:0:0:
103,243,79199,1,8,0:0:0:0:
159,70,79386,1,2,0:3:0:0:
305,245,79574,6,0,P|320:292|301:348,1,88.000002685547,8|10,0:3|0:1,0:0:0:0:
204,200,79949,1,8,0:2:0:0:
304,145,80136,2,0,P|437:169|494:181,1,176.000005371094,2|10,0:3|0:1,0:0:0:0:
411,67,80699,1,8,0:0:0:0:
363,261,80886,1,2,0:3:0:0:
196,108,81074,6,0,P|199:67|210:17,1,88.000002685547,8|10,0:3|0:1,0:0:0:0:
304,145,81449,1,8,0:2:0:0:
190,216,81636,2,0,B|104:200|110:265|18:251,1,176.000005371094,2|10,0:3|0:1,0:0:0:0:
138,326,82199,1,8,0:0:0:0:
90,131,82386,1,2,0:3:0:0:
270,245,82574,6,0,P|323:237|369:229,1,88.000002685547,8|10,0:3|0:1,0:0:0:0:
512,324,82949,1,8,0:2:0:0:
408,384,83136,2,0,P|417:337|428:284,1,88.000002685547,2|0,0:3|3:3,0:0:0:0:
301,130,83511,1,10,0:1:0:0:
512,228,83699,1,8,0:0:0:0:
299,328,83886,1,2,0:3:0:0:
426,128,84074,6,0,P|417:81|405:21,1,88.000002685547,8|10,0:3|0:1,0:0:0:0:
303,135,84449,1,8,0:2:0:0:
415,232,84636,2,0,P|473:220|517:216,1,88.000002685547,10|0,0:1|3:3,0:0:0:0:
313,313,85011,1,10,0:1:0:0:
461,381,85199,1,8,0:0:0:0:
313,313,85386,6,0,P|273:297|227:302,1,88.000002685547,10|8,0:1|0:3,0:0:0:0:
28,253,85761,2,0,P|73:259|114:237,1,88.000002685547,10|8,0:1|0:0,0:0:0:0:
171,174,86136,2,0,P|161:123|137:-12,1,176.000005371094,10|2,0:1|0:3,0:0:0:0:
254,98,86699,1,8,0:0:0:0:
62,188,86886,1,2,0:3:0:0:
263,306,87074,6,0,B|360:280|360:280|409:295|402:339,2,176.000005371094,4|8|0,0:1|0:0|3:0,0:0:0:0:
131,216,88011,1,10,0:1:0:0:
66,320,88199,2,0,L|157:304,1,88.000002685547,8|10,0:0|0:1,0:0:0:0:
241,179,88574,5,8,0:3:0:0:
162,36,88761,2,0,P|142:80|150:124,1,88.000002685547,10|8,0:1|0:0,0:0:0:0:
268,270,89136,5,10,0:1:0:0:
327,118,89324,1,12,0:3:0:0:
125,236,89511,1,4,3:0:0:0:
115,241,89605,1,0,0:0:0:0:
103,242,89699,1,8,0:0:0:0:
369,358,89886,1,6,3:0:0:0:
255,270,90074,6,0,P|127:293|65:306,1,176.000005371094,4|8,0:1|0:2,0:0:0:0:
369,358,90636,2,0,P|409:292|367:198,1,176.000005371094,2|10,0:3|0:1,0:0:0:0:
215,84,91199,1,8,0:0:0:0:
254,268,91386,1,2,0:3:0:0:
366,106,91574,6,0,P|373:66|359:16,1,88.000002685547,8|10,0:3|0:1,0:0:0:0:
247,182,91949,1,8,0:2:0:0:
151,135,92136,2,0,B|59:117|71:181|-24:165,1,176.000005371094,2|10,0:3|0:1,0:0:0:0:
93,247,92699,1,8,0:0:0:0:
38,42,92886,1,2,0:3:0:0:
235,186,93074,6,0,P|226:236|221:281,1,88.000002685547,8|10,0:3|0:1,0:0:0:0:
354,384,93449,1,8,0:2:0:0:
438,336,93636,2,0,P|467:246|417:175,1,176.000005371094,2|10,0:3|0:1,0:0:0:0:
334,9,94199,1,8,0:0:0:0:
492,69,94386,1,2,0:3:0:0:
329,148,94574,6,0,P|277:138|231:131,1,88.000002685547,8|10,0:3|0:1,0:0:0:0:
59,41,94949,1,8,0:2:0:0:
119,206,95136,2,0,P|127:159|140:104,1,88.000002685547,2|0,0:3|3:3,0:0:0:0:
21,328,95511,1,10,0:1:0:0:
232,233,95699,1,8,0:0:0:0:
27,131,95886,1,2,0:3:0:0:
168,359,96074,6,0,B|193:352|211:330|211:330|278:326|327:372,1,176.000005371094,8|8,0:3|0:2,0:0:0:0:
512,209,96636,2,0,P|433:274|353:250,1,176.000005371094,10|10,0:1|0:1,0:0:0:0:
275,128,97199,2,0,L|292:41,1,88.000002685547,8|10,0:0|0:1,0:0:0:0:
375,154,97574,5,8,0:3:0:0:
256,228,97761,2,0,P|215:218|169:216,1,88.000002685547,10|8,0:1|0:0,0:0:0:0:
0,115,98136,1,10,0:1:0:0:
106,70,98324,2,0,P|96:120|87:171,1,88.000002685547,8|2,0:3|0:3,0:0:0:0:
8,14,98699,1,8,0:0:0:0:
212,121,98886,1,2,0:3:0:0:
0,284,99074,6,0,B|97:261|97:261|124:298|168:292,1,176.000005371094,4|8,0:1|0:0,0:0:0:0:
325,196,99636,1,10,0:1:0:0:
222,120,99824,2,0,L|206:208,1,88.000002685547,2|8,3:0|0:1,0:0:0:0:
331,361,100199,2,0,P|380:377|448:314,1,132.00000402832,8|0,0:0|0:0,0:0:0:0:
455,290,100574,1,8,0:3:0:0:
274,274,100761,6,0,P|150:299|93:311,1,176.000005371094,2|10,0:3|0:1,0:0:0:0:
30,251,101324,1,8,0:3:0:0:
175,116,101511,1,10,3:1:0:0:
55,37,101699,2,0,P|67:87|73:133,1,88.000002685547,8|10,0:0|3:1,0:0:0:0:
274,274,102074,6,4,P|283:234|268:187,1,80,4|10,1:1|0:1,0:0:0:0:
355,137,102449,2,0,P|433:141|485:201,2,160,8|0|8,1:2|1:3|1:2,0:0:0:0:
185,33,103386,1,10,0:1:0:0:
289,0,103574,6,0,P|281:42|273:92,1,80,8|10,1:3|0:1,0:0:0:0:
180,132,103949,1,8,1:2:0:0:
328,227,104136,1,0,3:0:0:0:
183,304,104324,2,0,P|62:285|8:278,1,160,8|8,0:3|0:0,0:0:0:0:
17,285,104886,1,2,0:1:0:0:
180,132,105074,5,4,0:1:0:0:
154,35,105261,1,0,3:0:0:0:
263,216,105449,5,10,0:0:0:0:
289,59,105636,1,8,0:0:0:0:
100,184,105824,1,8,3:0:0:0:
333,285,106011,1,2,0:3:0:0:
173,375,106199,2,0,P|162:337|177:291,1,80,8|2,0:0|0:3,0:0:0:0:
344,199,106574,5,8,3:2:0:0:
351,200,106667,1,2,0:0:0:0:
358,201,106761,1,0,3:0:0:0:
366,203,106855,1,8,0:3:0:0:
388,220,106949,5,10,0:0:0:0:
398,215,107042,1,0,3:0:0:0:
403,207,107136,1,0,3:2:0:0:
404,197,107230,1,8,0:0:0:0:
435,180,107324,5,8,0:3:0:0:
443,165,107417,1,2,0:0:0:0:
442,149,107511,1,2,0:3:0:0:
434,135,107605,1,8,3:1:0:0:
456,109,107699,5,14,1:3:0:0:
432,87,107792,1,6,1:3:0:0:
448,59,107886,1,6,1:3:0:0:
422,39,107980,1,6,1:3:0:0:
436,10,108074,5,6,0:1:0:0:
