osu file format v14

[General]
AudioFilename: MANIERA.mp3
AudioLeadIn: 0
PreviewTime: 17060
Countdown: 0
SampleSet: Normal
StackLeniency: 0.7
Mode: 1
LetterboxInBreaks: 0
WidescreenStoryboard: 0

[Editor]
DistanceSpacing: 1.3
BeatDivisor: 2
GridSize: 32
TimelineZoom: 1.7

[Metadata]
Title:MANIERA
TitleUnicode:MANIERA
Artist:D(ABE3)
ArtistUnicode:D(ABE3)
Creator:_yu68
Version:Vulkin's Kantan
Source:BMS
Tags:abe yuta vulkin mrriichi maziari1105 maziari bof2011 dwmω encore piano
BeatmapID:885298
BeatmapSetID:400761

[Difficulty]
HPDrainRate:7
CircleSize:5
OverallDifficulty:3
ApproachRate:5
SliderMultiplier:1.2
SliderTickRate:1

[Events]
//Background and Video events
0,0,"maniera.jpg",0,0
//Break Periods
//Storyboard Layer 0 (Background)
//Storyboard Layer 1 (Fail)
//Storyboard Layer 2 (Pass)
//Storyboard Layer 3 (Foreground)
//Storyboard Sound Samples

[TimingPoints]
2061,288.461538461538,4,1,0,90,1,0
62060,288.461538461538,3,1,0,90,1,0
67252,288.461538461538,4,1,0,90,1,1
79944,-100,4,1,0,90,0,0
93501,288.461538461538,4,1,0,90,1,0
118885,324.519230784833,4,1,0,90,1,0
118885,-88.8889423076923,4,1,0,90,0,0
119859,360.576923076923,4,1,0,90,1,8
119859,-80,4,1,0,90,0,0
120219,408.653846153846,4,1,0,90,1,0
120219,-70.5865384615385,4,1,0,90,0,0
120831,540.865384615385,4,1,0,90,1,8
120831,-53.3317307692308,4,1,0,90,0,0
121101,288.461538461538,4,1,0,90,1,0

[HitObjects]
256,192,3215,5,12,0:0:0:0:
256,192,4368,1,8,0:0:0:0:
256,192,5523,1,0,0:0:0:0:
256,192,6100,1,0,0:0:0:0:
256,192,6677,1,8,0:0:0:0:
256,192,7254,1,8,0:0:0:0:
256,192,7831,1,4,0:0:0:0:
256,192,8696,1,8,0:0:0:0:
256,192,9273,1,0,0:0:0:0:
256,192,10138,1,0,0:0:0:0:
256,192,11004,1,8,0:0:0:0:
256,192,11581,1,0,0:0:0:0:
256,192,12445,1,0,0:0:0:0:
256,192,13022,1,8,0:0:0:0:
256,192,13599,1,8,0:0:0:0:
256,192,14176,1,0,0:0:0:0:
256,192,14754,1,12,0:0:0:0:
256,192,17061,1,4,0:0:0:0:
256,192,17637,1,8,0:0:0:0:
256,192,18215,1,0,0:0:0:0:
256,192,19369,1,8,0:0:0:0:
256,192,19945,1,0,0:0:0:0:
256,192,20523,1,8,0:0:0:0:
256,192,20810,1,0,0:0:0:0:
256,192,21100,1,12,0:0:0:0:
256,192,21677,1,4,0:0:0:0:
256,192,22253,1,8,0:0:0:0:
256,192,22831,1,0,0:0:0:0:
256,192,23985,1,0,0:0:0:0:
256,192,24561,1,8,0:0:0:0:
256,192,25137,1,0,0:0:0:0:
256,192,25426,1,0,0:0:0:0:
256,192,25715,1,12,0:0:0:0:
256,192,26291,1,0,0:0:0:0:
256,192,26868,1,0,0:0:0:0:
256,192,27445,1,8,0:0:0:0:
256,192,28599,1,8,0:0:0:0:
256,192,29176,1,8,0:0:0:0:
256,192,29753,1,0,0:0:0:0:
256,192,30907,1,0,0:0:0:0:
256,192,31484,1,8,0:0:0:0:
256,192,32060,1,0,0:0:0:0:
256,192,33214,1,8,0:0:0:0:
256,192,33791,1,0,0:0:0:0:
256,192,34368,1,8,0:0:0:0:
256,192,35523,1,8,0:0:0:0:
256,192,36677,1,8,0:0:0:0:
256,192,37254,1,8,0:0:0:0:
256,192,37831,1,8,0:0:0:0:
256,192,38118,1,8,0:0:0:0:
256,192,38408,1,8,0:0:0:0:
256,192,38984,1,8,0:0:0:0:
256,192,39272,1,4,0:0:0:0:
256,192,41292,1,4,0:0:0:0:
256,192,41868,1,0,0:0:0:0:
256,192,42157,1,0,0:0:0:0:
256,192,42446,1,8,0:0:0:0:
256,192,43022,1,8,0:0:0:0:
256,192,43599,1,0,0:0:0:0:
256,192,44177,1,8,0:0:0:0:
256,192,44464,1,0,0:0:0:0:
256,192,44754,1,8,0:0:0:0:
256,192,45331,1,12,0:0:0:0:
256,192,45908,1,4,0:0:0:0:
256,192,46484,1,0,0:0:0:0:
256,192,46772,1,0,0:0:0:0:
256,192,47061,1,8,0:0:0:0:
256,192,47637,1,8,0:0:0:0:
256,192,48214,1,0,0:0:0:0:
256,192,48791,1,8,0:0:0:0:
256,192,49080,1,0,0:0:0:0:
256,192,49368,1,0,0:0:0:0:
256,192,49945,1,12,0:0:0:0:
256,192,50523,1,0,0:0:0:0:
256,192,51677,1,0,0:0:0:0:
256,192,52831,1,8,0:0:0:0:
256,192,53985,1,8,0:0:0:0:
256,192,55138,1,0,0:0:0:0:
256,192,56292,1,8,0:0:0:0:
256,192,57446,1,0,0:0:0:0:
256,192,58022,1,8,0:0:0:0:
256,192,59176,1,8,0:0:0:0:
32,32,59753,2,0,B|480:32|480:32|480:352|480:352|384:352,1,840
256,192,62060,5,12,0:0:0:0:
256,192,62348,12,0,64079,0:0:0:0:
256,192,64367,5,8,0:0:0:0:
256,192,64656,1,0,0:0:0:0:
256,192,65521,1,0,0:0:0:0:
256,192,66098,1,0,0:0:0:0:
256,192,66675,1,8,0:0:0:0:
256,192,67253,1,4,0:0:0:0:
256,192,67829,1,8,0:0:0:0:
256,192,68406,1,0,0:0:0:0:
256,192,69560,1,8,0:0:0:0:
256,192,70137,1,0,0:0:0:0:
256,192,70714,1,8,0:0:0:0:
256,192,71002,1,0,0:0:0:0:
256,192,71291,1,12,0:0:0:0:
256,192,71867,1,4,0:0:0:0:
256,192,72444,1,8,0:0:0:0:
256,192,73022,1,0,0:0:0:0:
256,192,74175,1,8,0:0:0:0:
256,192,74751,1,0,0:0:0:0:
256,192,75039,1,8,0:0:0:0:
256,192,75328,1,0,0:0:0:0:
256,192,75906,1,12,0:0:0:0:
256,192,76483,1,0,0:0:0:0:
256,192,77060,1,12,0:0:0:0:
256,192,77637,1,0,0:0:0:0:
256,192,78213,1,0,0:0:0:0:
256,192,78501,1,0,0:0:0:0:
256,192,78791,1,8,0:0:0:0:
256,192,79367,1,0,0:0:0:0:
256,192,79945,1,12,0:0:0:0:
256,192,81098,1,8,0:0:0:0:
256,192,82252,1,0,0:0:0:0:
256,192,82829,1,8,0:0:0:0:
256,192,83406,1,0,0:0:0:0:
256,192,83694,1,0,0:0:0:0:
256,192,83982,1,0,0:0:0:0:
256,192,84560,1,0,0:0:0:0:
256,192,85137,1,8,0:0:0:0:
256,192,85714,1,0,0:0:0:0:
256,192,86001,1,0,0:0:0:0:
256,192,86290,1,0,0:0:0:0:
256,192,86868,1,0,0:0:0:0:
256,192,88022,1,8,0:0:0:0:
256,192,89176,1,0,0:0:0:0:
256,192,89751,1,8,0:0:0:0:
256,192,90328,1,0,0:0:0:0:
256,192,90905,1,8,0:0:0:0:
480,32,91482,2,4,B|32:32|32:32|32:96,1,480
256,192,93501,1,4,0:0:0:0:
256,192,94366,1,8,0:0:0:0:
256,192,94943,1,0,0:0:0:0:
256,192,95808,1,0,0:0:0:0:
256,192,97251,1,0,0:0:0:0:
256,192,98116,1,8,0:0:0:0:
256,192,98981,1,8,0:0:0:0:
256,192,99558,1,0,0:0:0:0:
256,192,100424,1,8,0:0:0:0:
32,32,101577,2,0,B|448:32|448:32,1,360
256,192,102731,1,4,0:0:0:0:
256,192,103597,1,8,0:0:0:0:
256,192,104174,1,0,0:0:0:0:
256,192,105039,1,0,0:0:0:0:
256,192,105904,1,8,0:0:0:0:
256,192,106481,1,8,0:0:0:0:
256,192,107347,1,0,0:0:0:0:
256,192,107923,1,8,0:0:0:0:
256,192,108500,1,8,0:0:0:0:
256,192,109076,1,0,0:0:0:0:
256,192,109654,1,12,0:0:0:0:
256,192,110808,1,12,0:0:0:0:
256,192,111962,1,12,0:0:0:0:
256,192,113116,1,8,0:0:0:0:
256,192,113404,1,0,0:0:0:0:
256,192,113692,1,0,0:0:0:0:
256,192,114270,1,12,0:0:0:0:
256,192,114847,1,0,0:0:0:0:
256,192,115424,1,12,0:0:0:0:
256,192,116577,1,12,0:0:0:0:
256,192,117154,1,0,0:0:0:0:
256,192,117731,1,12,0:0:0:0:
256,192,118885,1,0,0:0:0:0:
256,192,119534,1,8,0:0:0:0:
256,192,120219,12,0,121101,0:0:0:0:
