osu file format v14

[General]
AudioFilename: MANIERA.mp3
AudioLeadIn: 0
PreviewTime: 17060
Countdown: 0
SampleSet: Normal
StackLeniency: 0.7
Mode: 1
LetterboxInBreaks: 0
WidescreenStoryboard: 0

[Editor]
DistanceSpacing: 1.3
BeatDivisor: 8
GridSize: 32
TimelineZoom: 3

[Metadata]
Title:MANIERA
TitleUnicode:MANIERA
Artist:D(ABE3)
ArtistUnicode:D(ABE3)
Creator:_yu68
Version:Virtuoso
Source:BMS
Tags:abe yuta vulkin mrriichi maziari1105 maziari bof2011 dwmω encore piano
BeatmapID:871924
BeatmapSetID:400761

[Difficulty]
HPDrainRate:6.5
CircleSize:4
OverallDifficulty:7
ApproachRate:5
SliderMultiplier:1.4
SliderTickRate:1

[Events]
//Background and Video events
0,0,"maniera.jpg",0,0
//Break Periods
//Storyboard Layer 0 (Background)
//Storyboard Layer 1 (Fail)
//Storyboard Layer 2 (Pass)
//Storyboard Layer 3 (Foreground)
//Storyboard Sound Samples

[TimingPoints]
2061,288.461538461538,4,1,0,60,1,0
3142,-100,4,1,0,80,0,0
50234,-100,4,1,0,60,0,0
57373,-100,4,1,0,70,0,0
59825,-100,4,1,0,80,0,0
62060,288.461538461538,3,1,0,80,1,0
67180,-100,3,1,0,90,0,0
67252,288.461538461538,4,1,0,90,1,1
79872,-100,4,1,0,80,0,1
79944,-100,4,1,0,80,0,0
93429,-100,3,1,0,90,0,0
93501,288.461538461538,4,1,0,90,1,0
118885,324.519230784833,4,1,0,90,1,0
118885,-88.8889423076923,4,1,0,90,0,0
119859,360.576923076923,4,1,0,90,1,8
119859,-80,4,1,0,90,0,0
120219,408.653846153846,4,1,0,90,1,0
120219,-70.5865384615385,4,1,0,90,0,0
120831,540.865384615385,4,1,0,90,1,8
120831,-53.3317307692308,4,1,0,90,0,0
121101,288.461538461538,4,1,0,90,1,0

[HitObjects]
256,192,2782,5,8,0:0:0:0:
256,192,2854,1,8,0:0:0:0:
256,192,2926,1,8,0:0:0:0:
256,192,3070,1,8,0:0:0:0:
256,192,3214,1,4,0:0:0:0:
256,192,3359,1,8,0:0:0:0:
256,192,3431,1,8,0:0:0:0:
256,192,3503,1,0,0:3:0:0:
256,192,3575,1,8,0:0:0:0:
256,192,3647,1,0,0:0:0:0:
256,192,3719,1,0,0:0:0:0:
256,192,3791,1,8,0:0:0:0:
256,192,3863,1,8,0:0:0:0:
256,192,3935,1,0,0:0:0:0:
256,192,4008,1,0,0:0:0:0:
256,192,4080,1,8,0:0:0:0:
256,192,4152,1,0,0:0:0:0:
256,192,4224,1,8,0:0:0:0:
256,192,4296,1,8,0:0:0:0:
256,192,4368,1,0,0:0:0:0:
256,192,4512,1,0,0:0:0:0:
256,192,4585,1,8,0:0:0:0:
256,192,4657,1,0,0:0:0:0:
256,192,4729,1,0,0:0:0:0:
256,192,4801,1,8,0:0:0:0:
256,192,4873,1,0,0:0:0:0:
256,192,4945,1,0,0:0:0:0:
256,192,5089,1,8,0:0:0:0:
256,192,5161,1,8,0:0:0:0:
256,192,5234,1,8,0:0:0:0:
256,192,5306,1,0,0:0:0:0:
256,192,5378,1,8,0:0:0:0:
256,192,5450,1,0,0:0:0:0:
256,192,5522,1,0,0:0:0:0:
256,192,5666,1,8,0:0:0:0:
256,192,5738,1,8,0:0:0:0:
256,192,5810,1,0,0:0:0:0:
256,192,5883,1,0,0:0:0:0:
256,192,5955,1,8,0:0:0:0:
256,192,6099,1,0,0:0:0:0:
256,192,6243,1,8,0:0:0:0:
256,192,6315,1,8,0:0:0:0:
256,192,6387,1,0,0:0:0:0:
256,192,6460,1,0,0:0:0:0:
256,192,6532,1,8,0:0:0:0:
256,192,6676,1,0,0:0:0:0:
256,192,6820,1,8,0:0:0:0:
256,192,6892,1,8,0:0:0:0:
256,192,6964,1,0,0:0:0:0:
256,192,7109,1,8,0:0:0:0:
256,192,7181,1,8,0:0:0:0:
256,192,7253,1,0,0:0:0:0:
256,192,7325,1,0,0:0:0:0:
256,192,7397,1,8,0:0:0:0:
256,192,7445,1,0,0:0:0:0:
256,192,7493,1,0,0:0:0:0:
256,192,7541,1,8,0:0:0:0:
256,192,7830,1,0,0:0:0:0:
256,192,7926,1,8,0:0:0:0:
256,192,8022,1,8,0:0:0:0:
256,192,8118,1,8,0:0:0:0:
256,192,8214,1,8,0:0:0:0:
256,192,8310,1,8,0:0:0:0:
256,192,8407,1,8,0:0:0:0:
256,192,8503,1,8,0:0:0:0:
256,192,8599,1,8,0:0:0:0:
256,192,8695,1,0,0:0:0:0:
256,192,8791,1,8,0:0:0:0:
256,192,8887,1,8,0:0:0:0:
256,192,8984,1,8,0:0:0:0:
256,192,9080,1,8,0:0:0:0:
256,192,9176,1,8,0:0:0:0:
256,192,9272,1,0,0:0:0:0:
256,192,9368,1,8,0:0:0:0:
256,192,9464,1,8,0:0:0:0:
256,192,9560,1,0,0:0:0:0:
256,192,9657,1,8,0:0:0:0:
256,192,9753,1,8,0:0:0:0:
256,192,9849,1,0,0:0:0:0:
256,192,9945,1,0,0:0:0:0:
256,192,10041,1,8,0:0:0:0:
256,192,10137,1,0,0:0:0:0:
256,192,10234,1,8,0:0:0:0:
256,192,10330,1,8,0:0:0:0:
256,192,10426,1,8,0:0:0:0:
256,192,10522,1,8,0:0:0:0:
256,192,10618,1,8,0:0:0:0:
256,192,10714,1,8,0:0:0:0:
256,192,10810,1,8,0:0:0:0:
256,192,10907,1,8,0:0:0:0:
256,192,11003,1,0,0:0:0:0:
256,192,11099,1,8,0:0:0:0:
256,192,11195,1,8,0:0:0:0:
256,192,11291,1,8,0:0:0:0:
256,192,11387,1,8,0:0:0:0:
256,192,11484,1,8,0:0:0:0:
256,192,11580,1,0,0:0:0:0:
256,192,11676,1,8,0:0:0:0:
256,192,11772,1,0,0:0:0:0:
256,192,11868,1,8,0:0:0:0:
256,192,11964,1,8,0:0:0:0:
256,192,12060,1,0,0:0:0:0:
256,192,12157,1,8,0:0:0:0:
256,192,12253,1,8,0:0:0:0:
256,192,12349,1,8,0:0:0:0:
256,192,12445,1,0,0:0:0:0:
256,192,12541,1,0,0:0:0:0:
256,192,12637,1,0,0:0:0:0:
256,192,12734,1,8,0:0:0:0:
256,192,12926,1,8,0:0:0:0:
256,192,13022,1,0,0:0:0:0:
256,192,13118,1,0,0:0:0:0:
256,192,13214,1,0,0:0:0:0:
256,192,13310,1,8,0:0:0:0:
256,192,13503,1,8,0:0:0:0:
256,192,13599,1,0,0:0:0:0:
256,192,13695,1,0,0:0:0:0:
256,192,13791,1,8,0:0:0:0:
256,192,13887,1,8,0:0:0:0:
256,192,14080,1,8,0:0:0:0:
256,192,14176,1,0,0:0:0:0:
256,192,14272,1,8,0:0:0:0:
256,192,14368,1,8,0:0:0:0:
256,192,14464,1,8,0:0:0:0:
256,192,14753,1,12,0:0:0:0:
256,192,15041,1,4,0:0:0:0:
256,192,15258,1,8,0:0:0:0:
256,192,15330,1,0,0:0:0:0:
256,192,15474,1,0,0:0:0:0:
256,192,15762,1,0,0:0:0:0:
256,192,15907,1,0,0:0:0:0:
256,192,16051,1,0,0:0:0:0:
256,192,16123,1,8,0:0:0:0:
256,192,16195,1,0,0:0:0:0:
256,192,16339,1,0,0:0:0:0:
256,192,16484,1,0,0:0:0:0:
256,192,16628,1,8,0:0:0:0:
256,192,16700,1,8,0:0:0:0:
256,192,16772,1,8,0:0:0:0:
256,192,16916,1,8,0:0:0:0:
256,192,17060,1,0,0:0:0:0:
256,192,17205,1,0,0:0:0:0:
256,192,17349,1,8,0:0:0:0:
256,192,17493,1,0,0:0:0:0:
256,192,17637,1,8,0:0:0:0:
256,192,17782,1,8,0:0:0:0:
256,192,17926,1,0,0:0:0:0:
256,192,18070,1,8,0:0:0:0:
256,192,18214,1,0,0:0:0:0:
256,192,18359,1,8,0:0:0:0:
256,192,18503,1,8,0:0:0:0:
256,192,18647,1,0,0:0:0:0:
256,192,18791,1,8,0:0:0:0:
256,192,18863,1,8,0:0:0:0:
256,192,18935,1,0,0:0:0:0:
256,192,19008,1,0,0:0:0:0:
256,192,19080,1,0,0:0:0:0:
256,192,19224,1,8,0:0:0:0:
256,192,19368,1,0,0:0:0:0:
256,192,19512,1,0,0:0:0:0:
256,192,19657,1,8,0:0:0:0:
256,192,19801,1,8,0:0:0:0:
256,192,19945,1,0,0:0:0:0:
256,192,20089,1,8,0:0:0:0:
256,192,20234,1,0,0:0:0:0:
256,192,20378,1,8,0:0:0:0:
256,192,20450,1,8,0:0:0:0:
256,192,20522,1,0,0:0:0:0:
256,192,20594,1,0,0:0:0:0:
256,192,20666,1,8,0:0:0:0:
256,192,20738,1,8,0:0:0:0:
256,192,20810,1,0,0:0:0:0:
256,192,20883,1,0,0:0:0:0:
256,192,20955,1,8,0:0:0:0:
256,192,21027,1,8,0:0:0:0:
256,192,21099,1,0,0:0:0:0:
256,192,21243,1,0,0:0:0:0:
256,192,21315,1,8,0:0:0:0:
256,192,21387,1,0,0:0:0:0:
256,192,21532,1,0,0:0:0:0:
256,192,21676,1,0,0:0:0:0:
256,192,21820,1,8,0:0:0:0:
256,192,21892,1,0,0:0:0:0:
256,192,21964,1,8,0:0:0:0:
256,192,22036,1,8,0:0:0:0:
256,192,22109,1,0,0:0:0:0:
256,192,22181,1,0,0:0:0:0:
256,192,22253,1,8,0:0:0:0:
256,192,22397,1,0,0:0:0:0:
256,192,22469,1,0,0:0:0:0:
256,192,22541,1,8,0:0:0:0:
256,192,22685,1,0,0:0:0:0:
256,192,22758,1,8,0:0:0:0:
256,192,22830,1,0,0:0:0:0:
256,192,22974,1,8,0:0:0:0:
256,192,23046,1,8,0:0:0:0:
256,192,23118,1,0,0:0:0:0:
256,192,23190,1,0,0:0:0:0:
256,192,23262,1,8,0:0:0:0:
256,192,23335,1,8,0:0:0:0:
256,192,23407,1,8,0:0:0:0:
256,192,23551,1,0,0:0:0:0:
256,192,23623,1,8,0:0:0:0:
256,192,23695,1,0,0:0:0:0:
256,192,23767,1,0,0:0:0:0:
256,192,23839,1,8,0:0:0:0:
256,192,23911,1,8,0:0:0:0:
256,192,23984,1,0,0:0:0:0:
256,192,24128,1,0,0:0:0:0:
256,192,24200,1,0,0:0:0:0:
256,192,24272,1,8,0:0:0:0:
256,192,24416,1,8,0:0:0:0:
256,192,24560,1,0,0:0:0:0:
256,192,24633,1,8,0:0:0:0:
256,192,24705,1,0,0:0:0:0:
256,192,24777,1,0,0:0:0:0:
256,192,24849,1,8,0:0:0:0:
256,192,24993,1,8,0:0:0:0:
256,192,25137,1,0,0:0:0:0:
256,192,25185,1,0,0:0:0:0:
256,192,25234,1,0,0:0:0:0:
256,192,25282,1,8,0:0:0:0:
256,192,25354,1,8,0:0:0:0:
256,192,25426,1,0,0:0:0:0:
256,192,25498,1,8,0:0:0:0:
256,192,25570,1,8,0:0:0:0:
256,192,25642,1,0,0:0:0:0:
256,192,25714,1,8,0:0:0:0:
256,192,25859,1,8,0:0:0:0:
256,192,25931,1,0,0:0:0:0:
256,192,26003,1,8,0:0:0:0:
256,192,26147,1,8,0:0:0:0:
256,192,26291,1,0,0:0:0:0:
256,192,26363,1,0,0:0:0:0:
256,192,26435,1,0,0:0:0:0:
256,192,26508,1,0,0:0:0:0:
256,192,26580,1,8,0:0:0:0:
256,192,26868,1,0,0:0:0:0:
256,192,26940,1,0,0:0:0:0:
256,192,27012,1,8,0:0:0:0:
256,192,27085,1,0,0:0:0:0:
256,192,27157,1,8,0:0:0:0:
256,192,27301,1,8,0:0:0:0:
256,192,27445,1,0,0:0:0:0:
256,192,27589,1,0,0:0:0:0:
256,192,27661,1,8,0:0:0:0:
256,192,27734,1,0,0:0:0:0:
256,192,27806,1,0,0:0:0:0:
256,192,27878,1,8,0:0:0:0:
256,192,28022,1,0,0:0:0:0:
256,192,28094,1,8,0:0:0:0:
256,192,28166,1,0,0:0:0:0:
256,192,28310,1,8,0:0:0:0:
256,192,28455,1,8,0:0:0:0:
256,192,28599,1,0,0:0:0:0:
256,192,28671,1,0,0:0:0:0:
256,192,28743,1,0,0:0:0:0:
256,192,28815,1,0,0:0:0:0:
256,192,28887,1,8,0:0:0:0:
256,192,29176,1,0,0:0:0:0:
256,192,29248,1,0,0:0:0:0:
256,192,29320,1,8,0:0:0:0:
256,192,29392,1,0,0:0:0:0:
256,192,29464,1,8,0:0:0:0:
256,192,29609,1,0,0:0:0:0:
256,192,29753,1,8,0:0:0:0:
256,192,29897,1,8,0:0:0:0:
256,192,29969,1,0,0:0:0:0:
256,192,30041,1,8,0:0:0:0:
256,192,30113,1,8,0:0:0:0:
256,192,30185,1,0,0:0:0:0:
256,192,30330,1,8,0:0:0:0:
256,192,30402,1,0,0:0:0:0:
256,192,30474,1,0,0:0:0:0:
256,192,30618,1,8,0:0:0:0:
256,192,30762,1,8,0:0:0:0:
256,192,30907,1,0,0:0:0:0:
256,192,30979,1,0,0:0:0:0:
256,192,31051,1,8,0:0:0:0:
256,192,31123,1,0,0:0:0:0:
256,192,31195,1,8,0:0:0:0:
256,192,31484,1,0,0:0:0:0:
256,192,31556,1,8,0:0:0:0:
256,192,31628,1,8,0:0:0:0:
256,192,31700,1,0,0:0:0:0:
256,192,31772,1,8,0:0:0:0:
256,192,31916,1,8,0:0:0:0:
256,192,32060,1,0,0:0:0:0:
256,192,32097,1,0,0:0:0:0:
256,192,32205,1,0,0:0:0:0:
256,192,32241,1,0,0:0:0:0:
256,192,32349,1,8,0:0:0:0:
256,192,32385,1,8,0:0:0:0:
256,192,32493,1,8,0:0:0:0:
256,192,32529,1,8,0:0:0:0:
256,192,32637,1,0,0:0:0:0:
256,192,32673,1,0,0:0:0:0:
256,192,32782,1,0,0:0:0:0:
256,192,32818,1,0,0:0:0:0:
256,192,32926,1,8,0:0:0:0:
256,192,32962,1,8,0:0:0:0:
256,192,33070,1,8,0:0:0:0:
256,192,33106,1,8,0:0:0:0:
256,192,33214,1,0,0:0:0:0:
256,192,33286,1,0,0:0:0:0:
256,192,33359,1,8,0:0:0:0:
256,192,33431,1,0,0:0:0:0:
256,192,33503,1,8,0:0:0:0:
256,192,33791,1,0,0:0:0:0:
256,192,33863,1,8,0:0:0:0:
256,192,33935,1,8,0:0:0:0:
256,192,34008,1,0,0:0:0:0:
256,192,34080,1,8,0:0:0:0:
256,192,34224,1,0,0:0:0:0:
256,192,34368,1,8,0:0:0:0:
256,192,34404,1,8,0:0:0:0:
256,192,34512,1,8,0:0:0:0:
256,192,34548,1,8,0:0:0:0:
256,192,34657,1,0,0:0:0:0:
256,192,34693,1,0,0:0:0:0:
256,192,34801,1,0,0:0:0:0:
256,192,34837,1,0,0:0:0:0:
256,192,34945,1,8,0:0:0:0:
256,192,34981,1,8,0:0:0:0:
256,192,35089,1,8,0:0:0:0:
256,192,35125,1,8,0:0:0:0:
256,192,35234,1,0,0:0:0:0:
256,192,35270,1,0,0:0:0:0:
256,192,35378,1,0,0:0:0:0:
256,192,35414,1,0,0:0:0:0:
256,192,35522,1,8,0:0:0:0:
256,192,35558,1,8,0:0:0:0:
256,192,35666,1,0,0:0:0:0:
256,192,35702,1,0,0:0:0:0:
256,192,35810,1,0,0:0:0:0:
256,192,35847,1,0,0:0:0:0:
256,192,35955,1,0,0:0:0:0:
256,192,35991,1,0,0:0:0:0:
256,192,36099,1,8,0:0:0:0:
256,192,36135,1,8,0:0:0:0:
256,192,36243,1,8,0:0:0:0:
256,192,36279,1,8,0:0:0:0:
256,192,36387,1,0,0:0:0:0:
256,192,36423,1,0,0:0:0:0:
256,192,36532,1,0,0:0:0:0:
256,192,36568,1,0,0:0:0:0:
256,192,36676,1,8,0:0:0:0:
256,192,36712,1,8,0:0:0:0:
256,192,36820,1,0,0:0:0:0:
256,192,36856,1,0,0:0:0:0:
256,192,36964,1,8,0:0:0:0:
256,192,37000,1,8,0:0:0:0:
256,192,37109,1,0,0:0:0:0:
256,192,37145,1,0,0:0:0:0:
256,192,37253,1,8,0:0:0:0:
256,192,37289,1,8,0:0:0:0:
256,192,37397,1,0,0:0:0:0:
256,192,37433,1,0,0:0:0:0:
256,192,37541,1,8,0:0:0:0:
256,192,37577,1,8,0:0:0:0:
256,192,37685,1,0,0:0:0:0:
256,192,37722,1,0,0:0:0:0:
256,192,37830,1,12,0:0:0:0:
256,192,37974,1,0,0:0:0:0:
256,192,38118,1,12,0:0:0:0:
256,192,38262,1,0,0:0:0:0:
256,192,38407,1,12,0:0:0:0:
256,192,38551,1,0,0:0:0:0:
256,192,38695,1,12,0:0:0:0:
256,192,38839,1,0,0:0:0:0:
256,192,38984,1,12,0:0:0:0:
256,192,39272,1,4,0:0:0:0:
256,192,39488,1,8,0:0:0:0:
256,192,39560,1,0,0:0:0:0:
256,192,39705,1,0,0:0:0:0:
256,192,39993,1,0,0:0:0:0:
256,192,40137,1,0,0:0:0:0:
256,192,40282,1,0,0:0:0:0:
256,192,40354,1,8,0:0:0:0:
256,192,40426,1,0,0:0:0:0:
256,192,40570,1,0,0:0:0:0:
256,192,40714,1,0,0:0:0:0:
256,192,40859,1,8,0:0:0:0:
256,192,40931,1,8,0:0:0:0:
256,192,41003,1,8,0:0:0:0:
256,192,41147,1,8,0:0:0:0:
256,192,41291,1,0,0:0:0:0:
256,192,41363,1,8,0:0:0:0:
256,192,41508,1,8,0:0:0:0:
256,192,41580,1,0,0:0:0:0:
256,192,41724,1,8,0:0:0:0:
256,192,41796,1,8,0:0:0:0:
256,192,41868,1,0,0:0:0:0:
256,192,41940,1,8,0:0:0:0:
256,192,42085,1,8,0:0:0:0:
256,192,42157,1,0,0:0:0:0:
256,192,42301,1,8,0:0:0:0:
256,192,42373,1,8,0:0:0:0:
256,192,42445,1,0,0:0:0:0:
256,192,42517,1,8,0:0:0:0:
256,192,42589,1,8,0:0:0:0:
256,192,42661,1,8,0:0:0:0:
256,192,42734,1,0,0:0:0:0:
256,192,42878,1,8,0:0:0:0:
256,192,42950,1,8,0:0:0:0:
256,192,43022,1,0,0:0:0:0:
256,192,43094,1,8,0:0:0:0:
256,192,43238,1,8,0:0:0:0:
256,192,43310,1,0,0:0:0:0:
256,192,43455,1,8,0:0:0:0:
256,192,43599,1,0,0:0:0:0:
256,192,43671,1,8,0:0:0:0:
256,192,43815,1,8,0:0:0:0:
256,192,43887,1,0,0:0:0:0:
256,192,44032,1,8,0:0:0:0:
256,192,44104,1,0,0:0:0:0:
256,192,44176,1,0,0:0:0:0:
256,192,44248,1,8,0:0:0:0:
256,192,44392,1,8,0:0:0:0:
256,192,44464,1,0,0:0:0:0:
256,192,44609,1,8,0:0:0:0:
256,192,44681,1,8,0:0:0:0:
256,192,44753,1,0,0:0:0:0:
256,192,44825,1,8,0:0:0:0:
256,192,44897,1,8,0:0:0:0:
256,192,44969,1,0,0:0:0:0:
256,192,45041,1,8,0:0:0:0:
256,192,45113,1,0,0:0:0:0:
256,192,45185,1,0,0:0:0:0:
256,192,45258,1,8,0:0:0:0:
256,192,45330,1,0,0:0:0:0:
256,192,45474,1,8,0:0:0:0:
256,192,45546,1,0,0:0:0:0:
256,192,45618,1,8,0:0:0:0:
256,192,45762,1,8,0:0:0:0:
256,192,45907,1,0,0:0:0:0:
256,192,45979,1,8,0:0:0:0:
256,192,46123,1,8,0:0:0:0:
256,192,46195,1,0,0:0:0:0:
256,192,46339,1,8,0:0:0:0:
256,192,46411,1,8,0:0:0:0:
256,192,46484,1,0,0:0:0:0:
256,192,46556,1,8,0:0:0:0:
256,192,46700,1,8,0:0:0:0:
256,192,46772,1,0,0:0:0:0:
256,192,46916,1,8,0:0:0:0:
256,192,46988,1,8,0:0:0:0:
256,192,47060,1,0,0:0:0:0:
256,192,47133,1,8,0:0:0:0:
256,192,47205,1,8,0:0:0:0:
256,192,47277,1,8,0:0:0:0:
256,192,47349,1,0,0:0:0:0:
256,192,47493,1,8,0:0:0:0:
256,192,47565,1,8,0:0:0:0:
256,192,47637,1,0,0:0:0:0:
256,192,47710,1,8,0:0:0:0:
256,192,47782,1,8,0:0:0:0:
256,192,47854,1,0,0:0:0:0:
256,192,47926,1,0,0:0:0:0:
256,192,48070,1,8,0:0:0:0:
256,192,48142,1,8,0:0:0:0:
256,192,48214,1,0,0:0:0:0:
256,192,48286,1,8,0:0:0:0:
256,192,48431,1,8,0:0:0:0:
256,192,48503,1,0,0:0:0:0:
256,192,48575,1,0,0:0:0:0:
256,192,48647,1,8,0:0:0:0:
256,192,48719,1,0,0:0:0:0:
256,192,48791,1,0,0:0:0:0:
256,192,48935,1,8,0:0:0:0:
256,192,49007,1,0,0:0:0:0:
256,192,49080,1,0,0:0:0:0:
256,192,49152,1,8,0:0:0:0:
256,192,49224,1,0,0:0:0:0:
256,192,49296,1,8,0:0:0:0:
256,192,49368,1,0,0:0:0:0:
256,192,49512,1,8,0:0:0:0:
256,192,49585,1,8,0:0:0:0:
256,192,49657,1,0,0:0:0:0:
256,192,49705,1,8,0:0:0:0:
256,192,49753,1,8,0:0:0:0:
256,192,49801,1,0,0:0:0:0:
256,192,49945,1,8,0:0:0:0:
256,192,50378,1,8,0:0:0:0:
256,192,50522,1,0,0:0:0:0:
256,192,50810,1,8,0:0:0:0:
256,192,50955,1,0,0:0:0:0:
256,192,51099,1,0,0:0:0:0:
256,192,51243,1,8,0:0:0:0:
256,192,51387,1,8,0:0:0:0:
256,192,51532,1,8,0:0:0:0:
256,192,51676,1,0,0:0:0:0:
256,192,51964,1,0,0:0:0:0:
256,192,52109,1,8,0:0:0:0:
256,192,52253,1,0,0:0:0:0:
256,192,52397,1,0,0:0:0:0:
256,192,52541,1,8,0:0:0:0:
256,192,52685,1,8,0:0:0:0:
256,192,52830,1,0,0:0:0:0:
256,192,52974,1,8,0:0:0:0:
256,192,53118,1,8,0:0:0:0:
256,192,53262,1,8,0:0:0:0:
256,192,53407,1,0,0:0:0:0:
256,192,53551,1,0,0:0:0:0:
256,192,53695,1,0,0:0:0:0:
256,192,53839,1,8,0:0:0:0:
256,192,53984,1,0,0:0:0:0:
256,192,54272,1,0,0:0:0:0:
256,192,54416,1,0,0:0:0:0:
256,192,54560,1,0,0:0:0:0:
256,192,54705,1,0,0:0:0:0:
256,192,54849,1,8,0:0:0:0:
256,192,54993,1,8,0:0:0:0:
256,192,55137,1,0,0:0:0:0:
256,192,55426,1,0,0:0:0:0:
256,192,55570,1,8,0:0:0:0:
256,192,55714,1,0,0:0:0:0:
256,192,55859,1,0,0:0:0:0:
256,192,56003,1,8,0:0:0:0:
256,192,56147,1,8,0:0:0:0:
256,192,56291,1,0,0:0:0:0:
256,192,56435,1,0,0:0:0:0:
256,192,56724,1,8,0:0:0:0:
256,192,56868,1,8,0:0:0:0:
256,192,57012,1,0,0:0:0:0:
256,192,57157,1,8,0:0:0:0:
256,192,57301,1,8,0:0:0:0:
256,192,57445,1,0,0:0:0:0:
256,192,57661,1,8,0:0:0:0:
256,192,57734,1,0,0:0:0:0:
256,192,57878,1,0,0:0:0:0:
256,192,58022,1,8,0:0:0:0:
256,192,58166,1,8,0:0:0:0:
256,192,58310,1,0,0:0:0:0:
256,192,58383,1,8,0:0:0:0:
256,192,58527,1,8,0:0:0:0:
256,192,58599,1,0,0:0:0:0:
256,192,58743,1,8,0:0:0:0:
256,192,58887,1,0,0:0:0:0:
256,192,59032,1,8,0:0:0:0:
256,192,59176,1,0,0:0:0:0:
256,192,59248,1,8,0:0:0:0:
256,192,59392,1,8,0:0:0:0:
256,192,59464,1,0,0:0:0:0:
256,192,59609,1,8,0:0:0:0:
256,192,59753,1,8,0:0:0:0:
256,192,59897,1,0,0:0:0:0:
256,192,60089,1,8,0:0:0:0:
256,192,60185,1,0,0:0:0:0:
256,192,60282,1,8,0:0:0:0:
256,192,60378,1,8,0:0:0:0:
256,192,60474,1,0,0:0:0:0:
256,192,60570,1,0,0:0:0:0:
256,192,60666,1,8,0:0:0:0:
256,192,60762,1,0,0:0:0:0:
256,192,60859,1,8,0:0:0:0:
256,192,60955,1,8,0:0:0:0:
256,192,61051,1,0,0:0:0:0:
256,192,61147,1,8,0:0:0:0:
256,192,61243,1,8,0:0:0:0:
256,192,61339,1,0,0:0:0:0:
256,192,61435,1,8,0:0:0:0:
256,192,61532,1,8,0:0:0:0:
256,192,61628,1,0,0:0:0:0:
256,192,61700,1,8,0:0:0:0:
256,192,61772,1,0,0:0:0:0:
256,192,61820,1,8,0:0:0:0:
256,192,61868,1,8,0:0:0:0:
256,192,61916,1,0,0:0:0:0:
256,192,62060,1,12,0:0:0:0:
256,192,62348,1,4,0:0:0:0:
256,192,62636,12,0,64367,0:0:0:0:
256,192,64656,5,4,0:0:0:0:
256,192,64872,1,0,0:0:0:0:
256,192,64944,1,8,0:0:0:0:
256,192,65088,1,0,0:0:0:0:
256,192,65377,1,0,0:0:0:0:
256,192,65521,1,0,0:0:0:0:
256,192,65665,1,8,0:0:0:0:
256,192,65737,1,8,0:0:0:0:
256,192,65810,1,8,0:0:0:0:
256,192,65954,1,8,0:0:0:0:
256,192,66098,1,0,0:0:0:0:
256,192,66242,1,8,0:0:0:0:
256,192,66314,1,8,0:0:0:0:
256,192,66386,1,0,0:0:0:0:
256,192,66531,1,8,0:0:0:0:
256,192,66675,1,0,0:0:0:0:
256,192,66819,1,8,0:0:0:0:
256,192,66891,1,0,0:0:0:0:
256,192,66963,1,8,0:0:0:0:
256,192,67108,1,8,0:0:0:0:
256,192,67252,1,0,0:0:0:0:
256,192,67396,1,0,0:0:0:0:
256,192,67540,1,8,0:0:0:0:
256,192,67684,1,0,0:0:0:0:
256,192,67828,1,8,0:0:0:0:
256,192,67973,1,8,0:0:0:0:
256,192,68117,1,0,0:0:0:0:
256,192,68261,1,8,0:0:0:0:
256,192,68405,1,0,0:0:0:0:
256,192,68550,1,8,0:0:0:0:
256,192,68694,1,8,0:0:0:0:
256,192,68838,1,0,0:0:0:0:
256,192,68910,1,0,0:0:0:0:
256,192,68982,1,8,0:0:0:0:
256,192,69127,1,0,0:0:0:0:
256,192,69271,1,0,0:0:0:0:
256,192,69415,1,8,0:0:0:0:
256,192,69559,1,0,0:0:0:0:
256,192,69703,1,0,0:0:0:0:
256,192,69848,1,8,0:0:0:0:
256,192,69992,1,8,0:0:0:0:
256,192,70064,1,8,0:0:0:0:
256,192,70136,1,0,0:0:0:0:
256,192,70208,1,0,0:0:0:0:
256,192,70280,1,8,0:0:0:0:
256,192,70425,1,0,0:0:0:0:
256,192,70569,1,8,0:0:0:0:
256,192,70641,1,8,0:0:0:0:
256,192,70713,1,0,0:0:0:0:
256,192,70785,1,0,0:0:0:0:
256,192,70857,1,8,0:0:0:0:
256,192,70929,1,8,0:0:0:0:
256,192,71002,1,0,0:0:0:0:
256,192,71074,1,8,0:0:0:0:
256,192,71146,1,8,0:0:0:0:
256,192,71218,1,8,0:0:0:0:
256,192,71290,1,0,0:0:0:0:
256,192,71434,1,0,0:0:0:0:
256,192,71506,1,8,0:0:0:0:
256,192,71578,1,0,0:0:0:0:
256,192,71651,1,8,0:0:0:0:
256,192,71723,1,8,0:0:0:0:
256,192,71867,1,0,0:0:0:0:
256,192,72011,1,0,0:0:0:0:
256,192,72083,1,0,0:0:0:0:
256,192,72155,1,8,0:0:0:0:
256,192,72227,1,8,0:0:0:0:
256,192,72300,1,0,0:0:0:0:
256,192,72372,1,0,0:0:0:0:
256,192,72444,1,0,0:0:0:0:
256,192,72588,1,8,0:0:0:0:
256,192,72660,1,0,0:0:0:0:
256,192,72732,1,8,0:0:0:0:
256,192,72804,1,8,0:0:0:0:
256,192,72876,1,0,0:0:0:0:
256,192,72949,1,0,0:0:0:0:
256,192,73021,1,0,0:0:0:0:
256,192,73165,1,8,0:0:0:0:
256,192,73237,1,0,0:0:0:0:
256,192,73309,1,8,0:0:0:0:
256,192,73381,1,8,0:0:0:0:
256,192,73453,1,0,0:0:0:0:
256,192,73526,1,0,0:0:0:0:
256,192,73598,1,8,0:0:0:0:
256,192,73742,1,0,0:0:0:0:
256,192,73814,1,0,0:0:0:0:
256,192,73886,1,8,0:0:0:0:
256,192,73958,1,0,0:0:0:0:
256,192,74030,1,0,0:0:0:0:
256,192,74102,1,0,0:0:0:0:
256,192,74175,1,8,0:0:0:0:
256,192,74319,1,0,0:0:0:0:
256,192,74391,1,0,0:0:0:0:
256,192,74463,1,8,0:0:0:0:
256,192,74607,1,0,0:0:0:0:
256,192,74751,1,8,0:0:0:0:
256,192,74824,1,0,0:0:0:0:
256,192,74896,1,0,0:0:0:0:
256,192,74968,1,0,0:0:0:0:
256,192,75040,1,8,0:0:0:0:
256,192,75184,1,0,0:0:0:0:
256,192,75328,1,8,0:0:0:0:
256,192,75473,1,0,0:0:0:0:
256,192,75545,1,8,0:0:0:0:
256,192,75617,1,8,0:0:0:0:
256,192,75689,1,0,0:0:0:0:
256,192,75761,1,0,0:0:0:0:
256,192,75833,1,0,0:0:0:0:
256,192,75905,1,8,0:0:0:0:
256,192,76050,1,0,0:0:0:0:
256,192,76338,1,0,0:0:0:0:
256,192,76482,1,8,0:0:0:0:
256,192,76626,1,0,0:0:0:0:
256,192,76699,1,8,0:0:0:0:
256,192,76771,1,8,0:0:0:0:
256,192,76843,1,8,0:0:0:0:
256,192,76915,1,0,0:0:0:0:
256,192,76987,1,0,0:0:0:0:
256,192,77059,1,8,0:0:0:0:
256,192,77203,1,0,0:0:0:0:
256,192,77492,1,0,0:0:0:0:
256,192,77636,1,8,0:0:0:0:
256,192,77780,1,0,0:0:0:0:
256,192,77852,1,8,0:0:0:0:
256,192,77925,1,0,0:0:0:0:
256,192,77997,1,0,0:0:0:0:
256,192,78069,1,8,0:0:0:0:
256,192,78141,1,8,0:0:0:0:
256,192,78213,1,0,0:0:0:0:
256,192,78357,1,8,0:0:0:0:
256,192,78429,1,0,0:0:0:0:
256,192,78501,1,0,0:0:0:0:
256,192,78574,1,8,0:0:0:0:
256,192,78646,1,8,0:0:0:0:
256,192,78718,1,8,0:0:0:0:
256,192,78790,1,0,0:0:0:0:
256,192,78886,1,0,0:0:0:0:
256,192,78982,1,8,0:0:0:0:
256,192,79078,1,0,0:0:0:0:
256,192,79151,1,0,0:0:0:0:
256,192,79223,1,8,0:0:0:0:
256,192,79295,1,8,0:0:0:0:
256,192,79367,1,0,0:0:0:0:
256,192,79463,1,8,0:0:0:0:
256,192,79559,1,8,0:0:0:0:
256,192,79655,1,0,0:0:0:0:
256,192,79944,1,12,0:0:0:0:
256,192,80088,1,8,0:0:0:0:
256,192,80160,1,0,0:0:0:0:
256,192,80232,1,8,0:0:0:0:
256,192,80376,1,8,0:0:0:0:
256,192,80449,1,0,0:0:0:0:
256,192,80521,1,8,0:0:0:0:
256,192,80593,1,8,0:0:0:0:
256,192,80665,1,0,0:0:0:0:
256,192,80737,1,8,0:0:0:0:
256,192,80809,1,8,0:0:0:0:
256,192,80881,1,0,0:0:0:0:
256,192,80953,1,8,0:0:0:0:
256,192,81026,1,8,0:0:0:0:
256,192,81098,1,0,0:0:0:0:
256,192,81242,1,0,0:0:0:0:
256,192,81314,1,8,0:0:0:0:
256,192,81386,1,0,0:0:0:0:
256,192,81530,1,8,0:0:0:0:
256,192,81602,1,8,0:0:0:0:
256,192,81675,1,0,0:0:0:0:
256,192,81747,1,8,0:0:0:0:
256,192,81819,1,0,0:0:0:0:
256,192,81891,1,0,0:0:0:0:
256,192,81963,1,8,0:0:0:0:
256,192,82035,1,0,0:0:0:0:
256,192,82107,1,0,0:0:0:0:
256,192,82179,1,8,0:0:0:0:
256,192,82251,1,0,0:0:0:0:
256,192,82396,1,0,0:0:0:0:
256,192,82468,1,8,0:0:0:0:
256,192,82540,1,0,0:0:0:0:
256,192,82612,1,0,0:0:0:0:
256,192,82684,1,8,0:0:0:0:
256,192,82756,1,8,0:0:0:0:
256,192,82828,1,0,0:0:0:0:
256,192,82973,1,0,0:0:0:0:
256,192,83045,1,8,0:0:0:0:
256,192,83117,1,0,0:0:0:0:
256,192,83189,1,0,0:0:0:0:
256,192,83261,1,8,0:0:0:0:
256,192,83333,1,8,0:0:0:0:
256,192,83405,1,0,0:0:0:0:
256,192,83550,1,0,0:0:0:0:
256,192,83622,1,8,0:0:0:0:
256,192,83694,1,0,0:0:0:0:
256,192,83838,1,0,0:0:0:0:
256,192,83910,1,8,0:0:0:0:
256,192,83982,1,0,0:0:0:0:
256,192,84126,1,0,0:0:0:0:
256,192,84199,1,8,0:0:0:0:
256,192,84271,1,0,0:0:0:0:
256,192,84415,1,8,0:0:0:0:
256,192,84559,1,0,0:0:0:0:
256,192,84703,1,0,0:0:0:0:
256,192,84776,1,8,0:0:0:0:
256,192,84848,1,0,0:0:0:0:
256,192,84920,1,0,0:0:0:0:
256,192,84992,1,8,0:0:0:0:
256,192,85136,1,0,0:0:0:0:
256,192,85280,1,0,0:0:0:0:
256,192,85352,1,8,0:0:0:0:
256,192,85425,1,0,0:0:0:0:
256,192,85497,1,0,0:0:0:0:
256,192,85569,1,8,0:0:0:0:
256,192,85713,1,0,0:0:0:0:
256,192,85857,1,0,0:0:0:0:
256,192,85929,1,8,0:0:0:0:
256,192,86001,1,0,0:0:0:0:
256,192,86074,1,0,0:0:0:0:
256,192,86146,1,8,0:0:0:0:
256,192,86218,1,8,0:0:0:0:
256,192,86290,1,0,0:0:0:0:
256,192,86362,1,0,0:0:0:0:
256,192,86434,1,0,0:0:0:0:
256,192,86506,1,8,0:0:0:0:
256,192,86578,1,0,0:0:0:0:
256,192,86723,1,8,0:0:0:0:
256,192,86867,1,4,0:0:0:0:
256,192,87155,1,8,0:0:0:0:
256,192,87227,1,8,0:0:0:0:
256,192,87300,1,0,0:0:0:0:
256,192,87444,1,4,0:0:0:0:
256,192,87732,1,8,0:0:0:0:
256,192,87804,1,8,0:0:0:0:
256,192,87876,1,8,0:0:0:0:
256,192,88021,1,4,0:0:0:0:
256,192,88309,1,8,0:0:0:0:
256,192,88381,1,0,0:0:0:0:
256,192,88453,1,8,0:0:0:0:
256,192,88598,1,4,0:0:0:0:
256,192,88886,1,8,0:0:0:0:
256,192,88958,1,8,0:0:0:0:
256,192,89030,1,8,0:0:0:0:
256,192,89175,1,0,0:0:0:0:
256,192,89271,1,8,0:0:0:0:
256,192,89367,1,0,0:0:0:0:
256,192,89463,1,0,0:0:0:0:
256,192,89559,1,8,0:0:0:0:
256,192,89655,1,0,0:0:0:0:
256,192,89751,1,8,0:0:0:0:
256,192,89848,1,8,0:0:0:0:
256,192,89944,1,0,0:0:0:0:
256,192,90040,1,8,0:0:0:0:
256,192,90136,1,8,0:0:0:0:
256,192,90232,1,8,0:0:0:0:
256,192,90328,1,0,0:0:0:0:
256,192,90425,1,0,0:0:0:0:
256,192,90521,1,8,0:0:0:0:
256,192,90617,1,8,0:0:0:0:
256,192,90713,1,0,0:0:0:0:
256,192,90809,1,0,0:0:0:0:
256,192,90905,1,8,0:0:0:0:
256,192,91001,1,0,0:0:0:0:
256,192,91098,1,0,0:0:0:0:
256,192,91194,1,0,0:0:0:0:
256,192,91290,1,8,0:0:0:0:
256,192,91386,1,0,0:0:0:0:
256,192,91482,1,8,0:0:0:0:
256,192,91578,1,0,0:0:0:0:
256,192,91675,1,0,0:0:0:0:
256,192,91771,1,8,0:0:0:0:
256,192,91867,1,0,0:0:0:0:
256,192,91963,1,0,0:0:0:0:
256,192,92059,1,8,0:0:0:0:
256,192,92155,1,0,0:0:0:0:
256,192,92251,1,0,0:0:0:0:
256,192,92348,1,8,0:0:0:0:
256,192,92444,1,8,0:0:0:0:
256,192,92540,1,8,0:0:0:0:
256,192,93501,1,0,0:0:0:0:
256,192,93693,1,8,0:0:0:0:
256,192,93789,1,8,0:0:0:0:
256,192,93885,1,8,0:0:0:0:
256,192,93981,1,8,0:0:0:0:
256,192,94077,1,0,0:0:0:0:
256,192,94174,1,0,0:0:0:0:
256,192,94270,1,8,0:0:0:0:
256,192,94366,1,0,0:0:0:0:
256,192,94462,1,8,0:0:0:0:
256,192,94558,1,8,0:0:0:0:
256,192,94654,1,0,0:0:0:0:
256,192,94847,1,8,0:0:0:0:
256,192,94943,1,0,0:0:0:0:
256,192,95039,1,0,0:0:0:0:
256,192,95135,1,0,0:0:0:0:
256,192,95231,1,8,0:0:0:0:
256,192,95424,1,0,0:0:0:0:
256,192,95520,1,8,0:0:0:0:
256,192,95616,1,8,0:0:0:0:
256,192,95712,1,8,0:0:0:0:
256,192,95808,1,0,0:0:0:0:
256,192,96001,1,0,0:0:0:0:
256,192,96097,1,0,0:0:0:0:
256,192,96193,1,0,0:0:0:0:
256,192,96289,1,0,0:0:0:0:
256,192,96385,1,8,0:0:0:0:
256,192,96577,1,0,0:0:0:0:
256,192,96674,1,8,0:0:0:0:
256,192,96770,1,8,0:0:0:0:
256,192,96866,1,8,0:0:0:0:
256,192,96962,1,0,0:0:0:0:
256,192,97058,1,0,0:0:0:0:
256,192,97154,1,0,0:0:0:0:
256,192,97251,1,8,0:0:0:0:
256,192,97347,1,0,0:0:0:0:
256,192,97443,1,0,0:0:0:0:
256,192,97539,1,8,0:0:0:0:
256,192,97731,1,0,0:0:0:0:
256,192,97827,1,8,0:0:0:0:
256,192,97924,1,8,0:0:0:0:
256,192,98020,1,8,0:0:0:0:
256,192,98116,1,0,0:0:0:0:
256,192,98308,1,8,0:0:0:0:
256,192,98404,1,8,0:0:0:0:
256,192,98500,1,8,0:0:0:0:
256,192,98597,1,8,0:0:0:0:
256,192,98693,1,0,0:0:0:0:
256,192,98789,1,8,0:0:0:0:
256,192,98885,1,8,0:0:0:0:
256,192,98981,1,0,0:0:0:0:
256,192,99077,1,0,0:0:0:0:
256,192,99174,1,8,0:0:0:0:
256,192,99270,1,0,0:0:0:0:
256,192,99462,1,8,0:0:0:0:
256,192,99558,1,0,0:0:0:0:
256,192,99654,1,0,0:0:0:0:
256,192,99750,1,0,0:0:0:0:
256,192,99847,1,8,0:0:0:0:
256,192,100039,1,0,0:0:0:0:
256,192,100135,1,8,0:0:0:0:
256,192,100231,1,8,0:0:0:0:
256,192,100327,1,8,0:0:0:0:
256,192,100424,1,0,0:0:0:0:
256,192,100616,1,0,0:0:0:0:
256,192,100712,1,0,0:0:0:0:
256,192,100808,1,0,0:0:0:0:
256,192,100904,1,0,0:0:0:0:
256,192,101000,1,8,0:0:0:0:
256,192,101193,1,0,0:0:0:0:
256,192,101289,1,8,0:0:0:0:
256,192,101385,1,0,0:0:0:0:
256,192,101481,1,0,0:0:0:0:
256,192,101577,1,8,0:0:0:0:
256,192,101650,1,0,0:0:0:0:
256,192,101722,1,8,0:0:0:0:
256,192,101794,1,8,0:0:0:0:
256,192,101866,1,0,0:0:0:0:
256,192,101962,1,8,0:0:0:0:
256,192,102058,1,8,0:0:0:0:
256,192,102154,1,0,0:0:0:0:
256,192,102226,1,8,0:0:0:0:
256,192,102299,1,0,0:0:0:0:
256,192,102371,1,8,0:0:0:0:
256,192,102443,1,0,0:0:0:0:
256,192,102731,1,0,0:0:0:0:
256,192,102827,1,8,0:0:0:0:
256,192,102924,1,8,0:0:0:0:
256,192,103020,1,0,0:0:0:0:
256,192,103116,1,8,0:0:0:0:
256,192,103212,1,8,0:0:0:0:
256,192,103308,1,8,0:0:0:0:
256,192,103404,1,8,0:0:0:0:
256,192,103500,1,8,0:0:0:0:
256,192,103597,1,0,0:0:0:0:
256,192,103693,1,8,0:0:0:0:
256,192,103789,1,8,0:0:0:0:
256,192,103885,1,8,0:0:0:0:
256,192,103981,1,8,0:0:0:0:
256,192,104077,1,8,0:0:0:0:
256,192,104174,1,0,0:0:0:0:
256,192,104270,1,8,0:0:0:0:
256,192,104366,1,8,0:0:0:0:
256,192,104462,1,0,0:0:0:0:
256,192,104558,1,8,0:0:0:0:
256,192,104654,1,8,0:0:0:0:
256,192,104750,1,0,0:0:0:0:
256,192,104847,1,0,0:0:0:0:
256,192,104943,1,8,0:0:0:0:
256,192,105039,1,0,0:0:0:0:
256,192,105135,1,0,0:0:0:0:
256,192,105231,1,8,0:0:0:0:
256,192,105327,1,0,0:0:0:0:
256,192,105424,1,8,0:0:0:0:
256,192,105520,1,8,0:0:0:0:
256,192,105616,1,0,0:0:0:0:
256,192,105712,1,8,0:0:0:0:
256,192,105808,1,8,0:0:0:0:
256,192,105904,1,0,0:0:0:0:
256,192,106001,1,0,0:0:0:0:
256,192,106097,1,0,0:0:0:0:
256,192,106193,1,8,0:0:0:0:
256,192,106289,1,8,0:0:0:0:
256,192,106385,1,8,0:0:0:0:
256,192,106481,1,0,0:0:0:0:
256,192,106577,1,8,0:0:0:0:
256,192,106674,1,8,0:0:0:0:
256,192,106770,1,0,0:0:0:0:
256,192,106866,1,0,0:0:0:0:
256,192,106962,1,0,0:0:0:0:
256,192,107058,1,8,0:0:0:0:
256,192,107154,1,0,0:0:0:0:
256,192,107250,1,8,0:0:0:0:
256,192,107347,1,0,0:0:0:0:
256,192,107443,1,0,0:0:0:0:
256,192,107539,1,0,0:0:0:0:
256,192,107635,1,8,0:0:0:0:
256,192,107827,1,8,0:0:0:0:
256,192,107924,1,0,0:0:0:0:
256,192,108020,1,0,0:0:0:0:
256,192,108116,1,0,0:0:0:0:
256,192,108212,1,8,0:0:0:0:
256,192,108404,1,8,0:0:0:0:
256,192,108500,1,0,0:0:0:0:
256,192,108597,1,0,0:0:0:0:
256,192,108693,1,8,0:0:0:0:
256,192,108789,1,8,0:0:0:0:
256,192,108981,1,8,0:0:0:0:
256,192,109077,1,0,0:0:0:0:
256,192,109174,1,8,0:0:0:0:
256,192,109270,1,8,0:0:0:0:
256,192,109366,1,8,0:0:0:0:
256,192,109462,1,0,0:0:0:0:
256,192,109558,1,0,0:0:0:0:
256,192,109654,1,12,0:0:0:0:
256,192,109799,1,0,0:0:0:0:
256,192,109871,1,8,0:0:0:0:
256,192,109943,1,0,0:0:0:0:
256,192,110015,1,0,0:0:0:0:
256,192,110087,1,8,0:0:0:0:
256,192,110159,1,0,0:0:0:0:
256,192,110231,1,0,0:0:0:0:
256,192,110303,1,8,0:0:0:0:
256,192,110375,1,0,0:0:0:0:
256,192,110448,1,0,0:0:0:0:
256,192,110520,1,8,0:0:0:0:
256,192,110592,1,8,0:0:0:0:
256,192,110664,1,0,0:0:0:0:
256,192,110808,1,12,0:0:0:0:
256,192,110952,1,8,0:0:0:0:
256,192,111025,1,0,0:0:0:0:
256,192,111097,1,8,0:0:0:0:
256,192,111169,1,8,0:0:0:0:
256,192,111241,1,0,0:0:0:0:
256,192,111313,1,8,0:0:0:0:
256,192,111385,1,8,0:0:0:0:
256,192,111457,1,0,0:0:0:0:
256,192,111529,1,8,0:0:0:0:
256,192,111601,1,8,0:0:0:0:
256,192,111674,1,0,0:0:0:0:
256,192,111746,1,8,0:0:0:0:
256,192,111818,1,0,0:0:0:0:
256,192,111962,1,12,0:0:0:0:
256,192,112106,1,0,0:0:0:0:
256,192,112178,1,8,0:0:0:0:
256,192,112250,1,8,0:0:0:0:
256,192,112323,1,0,0:0:0:0:
256,192,112395,1,8,0:0:0:0:
256,192,112467,1,8,0:0:0:0:
256,192,112539,1,0,0:0:0:0:
256,192,112611,1,8,0:0:0:0:
256,192,112683,1,0,0:0:0:0:
256,192,112755,1,0,0:0:0:0:
256,192,112827,1,8,0:0:0:0:
256,192,112900,1,8,0:0:0:0:
256,192,112972,1,0,0:0:0:0:
256,192,113116,1,12,0:0:0:0:
256,192,113260,1,8,0:0:0:0:
256,192,113332,1,0,0:0:0:0:
256,192,113404,1,8,0:0:0:0:
256,192,113476,1,8,0:0:0:0:
256,192,113549,1,0,0:0:0:0:
256,192,113621,1,0,0:0:0:0:
256,192,113693,1,8,0:0:0:0:
256,192,113789,1,0,0:0:0:0:
256,192,113885,1,0,0:0:0:0:
256,192,113981,1,8,0:0:0:0:
256,192,114125,1,0,0:0:0:0:
256,192,114270,1,12,0:0:0:0:
256,192,114414,1,8,0:0:0:0:
256,192,114486,1,8,0:0:0:0:
256,192,114558,1,0,0:0:0:0:
256,192,114702,1,0,0:0:0:0:
256,192,114847,1,8,0:0:0:0:
256,192,114991,1,0,0:0:0:0:
256,192,115135,1,0,0:0:0:0:
256,192,115279,1,0,0:0:0:0:
256,192,115424,1,12,0:0:0:0:
256,192,115568,1,8,0:0:0:0:
256,192,115640,1,0,0:0:0:0:
256,192,115712,1,0,0:0:0:0:
256,192,115856,1,0,0:0:0:0:
256,192,116000,1,8,0:0:0:0:
256,192,116145,1,0,0:0:0:0:
256,192,116289,1,0,0:0:0:0:
256,192,116433,1,0,0:0:0:0:
256,192,116577,1,12,0:0:0:0:
256,192,116722,1,8,0:0:0:0:
256,192,116866,1,0,0:0:0:0:
256,192,117010,1,0,0:0:0:0:
256,192,117154,1,0,0:0:0:0:
256,192,117299,1,0,0:0:0:0:
256,192,117443,1,0,0:0:0:0:
256,192,117587,1,0,0:0:0:0:
256,192,117731,1,12,0:0:0:0:
256,192,117875,1,0,0:0:0:0:
256,192,117948,1,0,0:0:0:0:
256,192,118020,1,0,0:0:0:0:
256,192,118164,1,0,0:0:0:0:
256,192,118308,1,0,0:0:0:0:
256,192,118452,1,0,0:0:0:0:
256,192,118597,1,0,0:0:0:0:
256,192,118741,1,0,0:0:0:0:
256,192,118885,1,0,0:0:0:0:
256,192,118966,1,0,0:0:0:0:
256,192,119047,1,0,0:0:0:0:
256,192,119128,1,0,0:0:0:0:
256,192,119209,1,8,0:0:0:0:
256,192,119534,1,0,0:0:0:0:
256,192,119615,1,8,0:0:0:0:
256,192,119696,1,0,0:0:0:0:
256,192,119777,1,0,0:0:0:0:
256,192,119858,1,8,0:0:0:0:
256,192,120219,1,12,0:0:0:0:
256,192,120423,1,0,0:0:0:0:
256,192,120525,1,0,0:0:0:0:
256,192,120627,1,0,0:0:0:0:
256,192,120831,1,0,0:0:0:0:
256,192,121101,1,4,0:0:0:0:
