osu file format v14

[General]
AudioFilename: MANIERA.mp3
AudioLeadIn: 0
PreviewTime: 17060
Countdown: 0
SampleSet: Normal
StackLeniency: 0.7
Mode: 1
LetterboxInBreaks: 0
WidescreenStoryboard: 0

[Editor]
DistanceSpacing: 1.3
BeatDivisor: 4
GridSize: 32
TimelineZoom: 1.699999

[Metadata]
Title:MANIERA
TitleUnicode:MANIERA
Artist:D(ABE3)
ArtistUnicode:D(ABE3)
Creator:_yu68
Version:Futsuu
Source:BMS
Tags:abe yuta vulkin mrriichi maziari1105 maziari bof2011 dwmω encore piano
BeatmapID:933118
BeatmapSetID:400761

[Difficulty]
HPDrainRate:6
CircleSize:5
OverallDifficulty:4
ApproachRate:5
SliderMultiplier:1.4
SliderTickRate:1

[Events]
//Background and Video events
0,0,"maniera.jpg",0,0
//Break Periods
//Storyboard Layer 0 (Background)
//Storyboard Layer 1 (Fail)
//Storyboard Layer 2 (Pass)
//Storyboard Layer 3 (Foreground)
//Storyboard Sound Samples

[TimingPoints]
2061,288.461538461538,4,1,0,60,1,0
3142,-100,4,1,0,80,0,0
50234,-100,4,1,0,60,0,0
57373,-100,4,1,0,70,0,0
59825,-100,4,1,0,80,0,0
62060,288.461538461538,3,1,0,80,1,0
67180,-100,3,1,0,90,0,0
67252,288.461538461538,4,1,0,90,1,1
79872,-100,4,1,0,80,0,1
79944,-100,4,1,0,80,0,0
93429,-100,3,1,0,90,0,0
93501,288.461538461538,4,1,0,90,1,0
118885,324.519230784833,4,1,0,90,1,0
118885,-88.8889423076923,4,1,0,90,0,0
119859,360.576923076923,4,1,0,90,1,8
119859,-80,4,1,0,90,0,0
120219,408.653846153846,4,1,0,90,1,0
120219,-70.5865384615385,4,1,0,90,0,0
120831,540.865384615385,4,1,0,90,1,8
120831,-53.3317307692308,4,1,0,90,0,0
121101,288.461538461538,4,1,0,90,1,0

[HitObjects]
256,192,3215,5,4,0:0:0:0:
256,192,4369,5,4,0:0:0:0:
256,192,4946,5,0,0:0:0:0:
256,192,5235,5,8,0:0:0:0:
256,192,5523,5,0,0:0:0:0:
256,192,6100,5,0,0:0:0:0:
256,192,6677,5,0,0:0:0:0:
256,192,6965,5,0,0:0:0:0:
256,192,7254,5,8,0:0:0:0:
256,192,7397,1,8,0:0:0:0:
256,192,7541,1,8,0:0:0:0:
256,192,7831,5,0,0:0:0:0:
256,192,8408,5,0,0:0:0:0:
256,192,8696,5,8,0:0:0:0:
256,192,9273,5,8,0:0:0:0:
256,192,9849,5,0,0:0:0:0:
256,192,10138,5,8,0:0:0:0:
256,192,10715,5,8,0:0:0:0:
256,192,11004,5,0,0:0:0:0:
256,192,11581,5,0,0:0:0:0:
256,192,12157,5,8,0:0:0:0:
256,192,12446,5,0,0:0:0:0:
256,192,12734,5,8,0:0:0:0:
256,192,13023,5,0,0:0:0:0:
256,192,13600,5,8,0:0:0:0:
256,192,13888,5,0,0:0:0:0:
256,192,14177,5,8,0:0:0:0:
256,192,14754,5,12,0:0:0:0:
256,192,15908,5,0,0:0:0:0:
256,192,16196,5,0,0:0:0:0:
256,192,16485,5,8,0:0:0:0:
256,192,17061,5,0,0:0:0:0:
256,192,17349,5,0,0:0:0:0:
256,192,17638,5,8,0:0:0:0:
256,192,18215,5,0,0:0:0:0:
256,192,18503,5,0,0:0:0:0:
256,192,18792,5,8,0:0:0:0:
256,192,18935,1,8,0:0:0:0:
256,192,19080,1,8,0:0:0:0:
256,192,19369,5,0,0:0:0:0:
256,192,19946,5,8,0:0:0:0:
256,192,20234,5,0,0:0:0:0:
256,192,20523,5,0,0:0:0:0:
256,192,20667,5,0,0:0:0:0:
256,192,20810,5,0,0:0:0:0:
256,192,21100,5,8,0:0:0:0:
256,192,21677,5,0,0:0:0:0:
256,192,21964,5,8,0:0:0:0:
256,192,22254,5,8,0:0:0:0:
256,192,22830,5,0,0:0:0:0:
256,192,23119,5,8,0:0:0:0:
256,192,23407,5,0,0:0:0:0:
256,192,23551,1,0,0:0:0:0:
256,192,23695,1,8,0:0:0:0:
256,192,23985,5,0,0:0:0:0:
256,192,24561,5,8,0:0:0:0:
256,192,24849,5,0,0:0:0:0:
256,192,25138,5,0,0:0:0:0:
256,192,25283,5,0,0:0:0:0:
256,192,25427,5,0,0:0:0:0:
256,192,25715,5,8,0:0:0:0:
256,192,26292,5,0,0:0:0:0:
256,192,26580,5,12,0:0:0:0:
256,192,26869,5,0,0:0:0:0:
256,192,27157,5,12,0:0:0:0:
256,192,27446,5,8,0:0:0:0:
256,192,28023,5,0,0:0:0:0:
256,192,28600,5,0,0:0:0:0:
256,192,28887,5,12,0:0:0:0:
256,192,29177,5,0,0:0:0:0:
256,192,29464,5,12,0:0:0:0:
256,192,29754,5,8,0:0:0:0:
256,192,30331,5,0,0:0:0:0:
256,192,30908,5,8,0:0:0:0:
256,192,31195,5,12,0:0:0:0:
256,192,31485,5,8,0:0:0:0:
256,192,31772,5,12,0:0:0:0:
256,192,32061,5,0,0:0:0:0:
256,192,32637,5,8,0:0:0:0:
256,192,33215,5,8,0:0:0:0:
256,192,33503,5,12,0:0:0:0:
256,192,33792,5,8,0:0:0:0:
256,192,34080,5,12,0:0:0:0:
256,192,34369,5,12,0:0:0:0:
256,192,34945,5,0,0:0:0:0:
256,192,35234,1,0,0:0:0:0:
256,192,35523,5,12,0:0:0:0:
256,192,36099,5,0,0:0:0:0:
256,192,36387,1,0,0:0:0:0:
256,192,36676,5,12,0:0:0:0:
256,192,37254,5,12,0:0:0:0:
256,192,37831,5,12,0:0:0:0:
256,192,38119,5,12,0:0:0:0:
256,192,38408,5,12,0:0:0:0:
256,192,38696,5,12,0:0:0:0:
256,192,38985,5,12,0:0:0:0:
256,192,41292,5,0,0:0:0:0:
256,192,41435,5,8,0:0:0:0:
256,192,41868,5,8,0:0:0:0:
256,192,42156,5,8,0:0:0:0:
256,192,42445,5,8,0:0:0:0:
256,192,42733,5,8,0:0:0:0:
256,192,43022,5,8,0:0:0:0:
256,192,43310,5,8,0:0:0:0:
256,192,43455,5,8,0:0:0:0:
256,192,43600,5,0,0:0:0:0:
256,192,43887,1,0,0:0:0:0:
256,192,44177,5,8,0:0:0:0:
256,192,44754,5,0,0:0:0:0:
256,192,44898,5,0,0:0:0:0:
256,192,45042,5,0,0:0:0:0:
256,192,45331,5,8,0:0:0:0:
256,192,45908,5,0,0:0:0:0:
256,192,46051,5,8,0:0:0:0:
256,192,46483,5,8,0:0:0:0:
256,192,46772,5,8,0:0:0:0:
256,192,47060,5,8,0:0:0:0:
256,192,47349,5,8,0:0:0:0:
256,192,47637,5,8,0:0:0:0:
256,192,47926,5,8,0:0:0:0:
256,192,48070,5,8,0:0:0:0:
256,192,48215,5,0,0:0:0:0:
256,192,48792,5,0,0:0:0:0:
256,192,49080,1,8,0:0:0:0:
256,192,49369,5,0,0:0:0:0:
256,192,49657,5,0,0:0:0:0:
256,192,49801,1,0,0:0:0:0:
256,192,49945,5,8,0:0:0:0:
256,192,50523,5,0,0:0:0:0:
256,192,51387,1,8,0:0:0:0:
256,192,51677,5,0,0:0:0:0:
256,192,52253,5,0,0:0:0:0:
256,192,52831,5,8,0:0:0:0:
256,192,53695,1,0,0:0:0:0:
256,192,53985,5,8,0:0:0:0:
256,192,54560,5,8,0:0:0:0:
256,192,55138,5,0,0:0:0:0:
256,192,56003,1,8,0:0:0:0:
256,192,56292,5,0,0:0:0:0:
256,192,56868,5,8,0:0:0:0:
256,192,57446,5,0,0:0:0:0:
256,192,58311,5,0,0:0:0:0:
256,192,59177,5,0,0:0:0:0:
256,192,59897,5,4,0:0:0:0:
256,192,60330,5,4,0:0:0:0:
256,192,60762,5,4,0:0:0:0:
256,192,61051,5,4,0:0:0:0:
256,192,61339,5,4,0:0:0:0:
256,192,61628,5,4,0:0:0:0:
256,192,62060,5,12,0:0:0:0:
256,192,62348,12,0,64367,0:0:0:0:
256,192,64656,5,4,0:0:0:0:
256,192,65521,5,0,0:0:0:0:
256,192,65810,5,8,0:0:0:0:
256,192,66098,5,0,0:0:0:0:
256,192,66386,5,8,0:0:0:0:
256,192,66675,5,8,0:0:0:0:
256,192,67253,5,0,0:0:0:0:
256,192,67540,5,0,0:0:0:0:
256,192,67829,5,8,0:0:0:0:
256,192,68406,5,0,0:0:0:0:
256,192,68695,5,0,0:0:0:0:
256,192,68983,5,8,0:0:0:0:
256,192,69127,1,8,0:0:0:0:
256,192,69271,5,8,0:0:0:0:
256,192,69560,5,0,0:0:0:0:
256,192,70137,5,8,0:0:0:0:
256,192,70425,5,0,0:0:0:0:
256,192,70714,5,0,0:0:0:0:
256,192,70858,5,0,0:0:0:0:
256,192,71003,5,0,0:0:0:0:
256,192,71291,5,12,0:0:0:0:
256,192,71868,5,0,0:0:0:0:
256,192,72156,5,8,0:0:0:0:
256,192,72300,1,8,0:0:0:0:
256,192,72444,1,0,0:0:0:0:
256,192,72732,5,8,0:0:0:0:
256,192,73021,5,0,0:0:0:0:
256,192,73309,5,8,0:0:0:0:
256,192,73598,5,0,0:0:0:0:
256,192,73742,1,0,0:0:0:0:
256,192,73886,5,8,0:0:0:0:
256,192,74175,5,12,0:0:0:0:
256,192,74752,5,0,0:0:0:0:
256,192,75040,5,8,0:0:0:0:
256,192,75329,5,0,0:0:0:0:
256,192,75474,5,0,0:0:0:0:
256,192,75618,5,0,0:0:0:0:
256,192,75906,5,12,0:0:0:0:
256,192,76483,5,0,0:0:0:0:
256,192,76627,5,0,0:0:0:0:
256,192,76772,5,0,0:0:0:0:
256,192,77060,5,12,0:0:0:0:
256,192,77637,5,0,0:0:0:0:
256,192,77926,5,0,0:0:0:0:
256,192,78214,5,8,0:0:0:0:
256,192,78357,5,8,0:0:0:0:
256,192,78501,5,8,0:0:0:0:
256,192,78791,5,0,0:0:0:0:
256,192,79078,1,0,0:0:0:0:
256,192,79368,5,8,0:0:0:0:
256,192,79945,5,4,0:0:0:0:
256,192,80810,5,8,0:0:0:0:
256,192,81099,5,4,0:0:0:0:
256,192,81964,5,8,0:0:0:0:
256,192,82252,5,0,0:0:0:0:
256,192,82829,5,0,0:0:0:0:
256,192,83406,5,8,0:0:0:0:
256,192,83694,5,8,0:0:0:0:
256,192,83983,5,8,0:0:0:0:
256,192,84560,5,0,0:0:0:0:
256,192,84848,5,0,0:0:0:0:
256,192,85137,5,0,0:0:0:0:
256,192,85714,5,8,0:0:0:0:
256,192,86001,5,8,0:0:0:0:
256,192,86291,5,8,0:0:0:0:
256,192,86434,1,8,0:0:0:0:
256,192,86578,1,8,0:0:0:0:
256,192,86868,5,4,0:0:0:0:
256,192,87445,5,4,0:0:0:0:
256,192,88022,5,4,0:0:0:0:
256,192,88599,5,4,0:0:0:0:
256,192,89176,5,0,0:0:0:0:
256,192,89463,5,0,0:0:0:0:
256,192,89752,5,8,0:0:0:0:
256,192,90329,5,0,0:0:0:0:
256,192,90618,5,0,0:0:0:0:
256,192,90905,5,8,0:0:0:0:
256,192,91195,5,0,0:0:0:0:
256,192,91483,5,8,0:0:0:0:
256,192,91772,5,8,0:0:0:0:
256,192,92060,5,8,0:0:0:0:
256,192,92349,5,8,0:0:0:0:
256,192,93501,5,4,0:0:0:0:
256,192,94366,1,8,0:0:0:0:
256,192,94653,5,0,0:0:0:0:
256,192,95230,5,8,0:0:0:0:
256,192,95807,5,0,0:0:0:0:
256,192,96384,1,8,0:0:0:0:
256,192,96674,1,0,0:0:0:0:
256,192,96961,5,8,0:0:0:0:
256,192,97538,5,8,0:0:0:0:
256,192,97827,1,8,0:0:0:0:
256,192,98115,5,4,0:0:0:0:
256,192,98981,1,0,0:0:0:0:
256,192,99269,5,8,0:0:0:0:
256,192,99846,5,8,0:0:0:0:
256,192,100423,5,0,0:0:0:0:
256,192,100999,5,8,0:0:0:0:
256,192,101288,1,0,0:0:0:0:
256,192,101576,5,0,0:0:0:0:
256,192,102153,1,8,0:0:0:0:
256,192,102731,5,0,0:0:0:0:
256,192,103307,5,0,0:0:0:0:
256,192,103597,5,8,0:0:0:0:
256,192,104174,5,8,0:0:0:0:
256,192,104749,5,0,0:0:0:0:
256,192,105039,5,8,0:0:0:0:
256,192,105616,5,8,0:0:0:0:
256,192,105904,5,0,0:0:0:0:
256,192,106481,5,0,0:0:0:0:
256,192,107057,5,8,0:0:0:0:
256,192,107347,5,0,0:0:0:0:
256,192,107635,5,8,0:0:0:0:
256,192,107924,5,0,0:0:0:0:
256,192,108500,5,8,0:0:0:0:
256,192,108789,5,0,0:0:0:0:
256,192,109077,5,8,0:0:0:0:
256,192,109654,5,12,0:0:0:0:
256,192,109942,5,0,0:0:0:0:
256,192,110231,5,0,0:0:0:0:
256,192,110808,5,12,0:0:0:0:
256,192,111096,5,0,0:0:0:0:
256,192,111385,5,0,0:0:0:0:
256,192,111962,5,12,0:0:0:0:
256,192,112249,5,0,0:0:0:0:
256,192,112539,5,0,0:0:0:0:
256,192,113116,5,0,0:0:0:0:
256,192,113260,5,0,0:0:0:0:
256,192,113404,5,0,0:0:0:0:
256,192,113693,5,8,0:0:0:0:
256,192,114270,5,12,0:0:0:0:
256,192,114557,5,8,0:0:0:0:
256,192,114847,5,0,0:0:0:0:
256,192,115135,5,0,0:0:0:0:
256,192,115424,5,12,0:0:0:0:
256,192,115711,5,0,0:0:0:0:
256,192,116000,5,0,0:0:0:0:
256,192,116577,5,12,0:0:0:0:
256,192,116866,5,8,0:0:0:0:
256,192,117154,5,0,0:0:0:0:
256,192,117731,5,12,0:0:0:0:
256,192,118019,5,0,0:0:0:0:
256,192,118308,5,0,0:0:0:0:
256,192,118885,5,0,0:0:0:0:
256,192,119209,1,8,0:0:0:0:
256,192,119534,5,0,0:0:0:0:
256,192,119858,1,8,0:0:0:0:
256,192,120219,5,12,0:0:0:0:
256,192,121101,5,4,0:0:0:0:
