osu file format v14

[General]
AudioFilename: MANIERA.mp3
AudioLeadIn: 0
PreviewTime: 17060
Countdown: 0
SampleSet: Normal
StackLeniency: 0.7
Mode: 1
LetterboxInBreaks: 0
WidescreenStoryboard: 0

[Editor]
DistanceSpacing: 1.3
BeatDivisor: 4
GridSize: 32
TimelineZoom: 3.299998

[Metadata]
Title:MANIERA
TitleUnicode:MANIERA
Artist:D(ABE3)
ArtistUnicode:D(ABE3)
Creator:_yu68
Version:Oni
Source:BMS
Tags:abe yuta vulkin mrriichi maziari1105 maziari bof2011 dwmω encore piano
BeatmapID:933191
BeatmapSetID:400761

[Difficulty]
HPDrainRate:5.5
CircleSize:5
OverallDifficulty:5.5
ApproachRate:5
SliderMultiplier:1.4
SliderTickRate:1

[Events]
//Background and Video events
0,0,"maniera.jpg",0,0
//Break Periods
//Storyboard Layer 0 (Background)
//Storyboard Layer 1 (Fail)
//Storyboard Layer 2 (Pass)
//Storyboard Layer 3 (Foreground)
//Storyboard Sound Samples

[TimingPoints]
2061,288.461538461538,4,1,0,60,1,0
3142,-100,4,1,0,80,0,0
50234,-100,4,1,0,60,0,0
57373,-100,4,1,0,70,0,0
59825,-100,4,1,0,80,0,0
62060,288.461538461538,3,1,0,80,1,0
67180,-100,3,1,0,90,0,0
67252,288.461538461538,4,1,0,90,1,1
79872,-100,4,1,0,80,0,1
79944,-100,4,1,0,80,0,0
93429,-100,3,1,0,90,0,0
93501,288.461538461538,4,1,0,90,1,0
118885,324.519230784833,4,1,0,90,1,0
118885,-88.8889423076923,4,1,0,90,0,0
119859,360.576923076923,4,1,0,90,1,8
119859,-80,4,1,0,90,0,0
120219,408.653846153846,4,1,0,90,1,0
120219,-70.5865384615385,4,1,0,90,0,0
120831,540.865384615385,4,1,0,90,1,8
120831,-53.3317307692308,4,1,0,90,0,0
121101,288.461538461538,4,1,0,90,1,0

[HitObjects]
256,192,2782,5,8,0:0:0:0:
256,192,2854,5,8,0:0:0:0:
256,192,2926,5,8,0:0:0:0:
256,192,3070,5,8,0:0:0:0:
256,192,3214,5,4,0:0:0:0:
256,192,3935,5,8,0:0:0:0:
256,192,4008,5,8,0:0:0:0:
256,192,4080,5,8,0:0:0:0:
256,192,4224,5,8,0:0:0:0:
256,192,4368,5,4,0:0:0:0:
256,192,5089,5,0,0:0:0:0:
256,192,5161,5,0,0:0:0:0:
256,192,5234,5,0,0:0:0:0:
256,192,5378,5,8,0:0:0:0:
256,192,5522,5,0,0:0:0:0:
256,192,5810,5,8,0:0:0:0:
256,192,5883,5,8,0:0:0:0:
256,192,5955,5,8,0:0:0:0:
256,192,6099,5,0,0:0:0:0:
256,192,6387,5,8,0:0:0:0:
256,192,6460,5,8,0:0:0:0:
256,192,6532,5,8,0:0:0:0:
256,192,6676,5,0,0:0:0:0:
256,192,6820,5,8,0:0:0:0:
256,192,6964,5,0,0:0:0:0:
256,192,7109,5,8,0:0:0:0:
256,192,7253,5,0,0:0:0:0:
256,192,7397,5,8,0:0:0:0:
256,192,7469,5,8,0:0:0:0:
256,192,7541,5,8,0:0:0:0:
256,192,7830,5,0,0:0:0:0:
256,192,8118,5,0,0:0:0:0:
256,192,8407,1,0,0:0:0:0:
256,192,8695,5,8,0:0:0:0:
256,192,8791,5,8,0:0:0:0:
256,192,8887,5,8,0:0:0:0:
256,192,8984,5,0,0:0:0:0:
256,192,9272,5,8,0:0:0:0:
256,192,9560,5,0,0:0:0:0:
256,192,9849,5,8,0:0:0:0:
256,192,9945,5,8,0:0:0:0:
256,192,10041,5,8,0:0:0:0:
256,192,10137,5,0,0:0:0:0:
256,192,10426,5,0,0:0:0:0:
256,192,10714,5,0,0:0:0:0:
256,192,11003,5,8,0:0:0:0:
256,192,11099,5,8,0:0:0:0:
256,192,11195,5,8,0:0:0:0:
256,192,11291,5,0,0:0:0:0:
256,192,11580,5,8,0:0:0:0:
256,192,11868,5,8,0:0:0:0:
256,192,12157,5,0,0:0:0:0:
256,192,12445,5,0,0:0:0:0:
256,192,12637,5,0,0:0:0:0:
256,192,12734,5,8,0:0:0:0:
256,192,13022,5,0,0:0:0:0:
256,192,13214,5,0,0:0:0:0:
256,192,13310,5,8,0:0:0:0:
256,192,13599,5,0,0:0:0:0:
256,192,13791,5,8,0:0:0:0:
256,192,13887,5,8,0:0:0:0:
256,192,14176,5,8,0:0:0:0:
256,192,14368,5,8,0:0:0:0:
256,192,14464,5,8,0:0:0:0:
256,192,14753,5,12,0:0:0:0:
256,192,15041,5,4,0:0:0:0:
256,192,15330,5,0,0:0:0:0:
256,192,15474,5,0,0:0:0:0:
256,192,15762,5,0,0:0:0:0:
256,192,15907,5,0,0:0:0:0:
256,192,16051,5,8,0:0:0:0:
256,192,16123,5,8,0:0:0:0:
256,192,16195,5,8,0:0:0:0:
256,192,16339,5,8,0:0:0:0:
256,192,16484,5,0,0:0:0:0:
256,192,16628,5,8,0:0:0:0:
256,192,16700,5,8,0:0:0:0:
256,192,16772,5,8,0:0:0:0:
256,192,16916,1,8,0:0:0:0:
256,192,17060,5,0,0:0:0:0:
256,192,17349,5,8,0:0:0:0:
256,192,17637,5,0,0:0:0:0:
256,192,17782,5,0,0:0:0:0:
256,192,17926,5,8,0:0:0:0:
256,192,18070,5,0,0:0:0:0:
256,192,18214,5,0,0:0:0:0:
256,192,18503,5,8,0:0:0:0:
256,192,18647,1,8,0:0:0:0:
256,192,18791,5,0,0:0:0:0:
256,192,18935,5,0,0:0:0:0:
256,192,19008,5,0,0:0:0:0:
256,192,19080,5,8,0:0:0:0:
256,192,19224,5,8,0:0:0:0:
256,192,19368,5,0,0:0:0:0:
256,192,19657,5,8,0:0:0:0:
256,192,19801,5,0,0:0:0:0:
256,192,19873,5,0,0:0:0:0:
256,192,19945,5,0,0:0:0:0:
256,192,20089,5,8,0:0:0:0:
256,192,20234,5,0,0:0:0:0:
256,192,20522,5,8,0:0:0:0:
256,192,20666,5,0,0:0:0:0:
256,192,20738,5,0,0:0:0:0:
256,192,20810,5,8,0:0:0:0:
256,192,20955,5,0,0:0:0:0:
256,192,21027,5,0,0:0:0:0:
256,192,21099,5,8,0:0:0:0:
256,192,21387,5,0,0:0:0:0:
256,192,21532,5,8,0:0:0:0:
256,192,21676,5,0,0:0:0:0:
256,192,21964,5,8,0:0:0:0:
256,192,22109,5,0,0:0:0:0:
256,192,22253,5,0,0:0:0:0:
256,192,22397,5,0,0:0:0:0:
256,192,22541,5,8,0:0:0:0:
256,192,22613,5,8,0:0:0:0:
256,192,22685,5,8,0:0:0:0:
256,192,22830,5,0,0:0:0:0:
256,192,23118,5,8,0:0:0:0:
256,192,23262,5,8,0:0:0:0:
256,192,23407,5,0,0:0:0:0:
256,192,23551,5,0,0:0:0:0:
256,192,23695,5,8,0:0:0:0:
256,192,23767,5,8,0:0:0:0:
256,192,23839,5,8,0:0:0:0:
256,192,23984,5,0,0:0:0:0:
256,192,24272,5,8,0:0:0:0:
256,192,24416,5,8,0:0:0:0:
256,192,24560,5,0,0:0:0:0:
256,192,24705,5,8,0:0:0:0:
256,192,24849,5,8,0:0:0:0:
256,192,24993,5,8,0:0:0:0:
256,192,25137,5,0,0:0:0:0:
256,192,25282,5,0,0:0:0:0:
256,192,25354,5,0,0:0:0:0:
256,192,25426,5,8,0:0:0:0:
256,192,25570,5,8,0:0:0:0:
256,192,25714,5,12,0:0:0:0:
256,192,26291,5,0,0:0:0:0:
256,192,26363,5,0,0:0:0:0:
256,192,26435,5,0,0:0:0:0:
256,192,26580,5,12,0:0:0:0:
256,192,26868,5,0,0:0:0:0:
256,192,26940,5,0,0:0:0:0:
256,192,27012,5,0,0:0:0:0:
256,192,27157,5,12,0:0:0:0:
256,192,27445,5,0,0:0:0:0:
256,192,27661,5,0,0:0:0:0:
256,192,27734,5,8,0:0:0:0:
256,192,27878,5,8,0:0:0:0:
256,192,28022,5,0,0:0:0:0:
256,192,28166,5,0,0:0:0:0:
256,192,28310,5,8,0:0:0:0:
256,192,28599,5,0,0:0:0:0:
256,192,28671,5,0,0:0:0:0:
256,192,28743,5,0,0:0:0:0:
256,192,28887,5,12,0:0:0:0:
256,192,29176,5,0,0:0:0:0:
256,192,29248,5,0,0:0:0:0:
256,192,29320,5,0,0:0:0:0:
256,192,29464,5,12,0:0:0:0:
256,192,29753,5,8,0:0:0:0:
256,192,29969,5,8,0:0:0:0:
256,192,30041,5,0,0:0:0:0:
256,192,30185,5,0,0:0:0:0:
256,192,30330,5,8,0:0:0:0:
256,192,30474,5,8,0:0:0:0:
256,192,30618,5,0,0:0:0:0:
256,192,30907,5,0,0:0:0:0:
256,192,30979,5,0,0:0:0:0:
256,192,31051,5,8,0:0:0:0:
256,192,31195,5,12,0:0:0:0:
256,192,31484,5,0,0:0:0:0:
256,192,31556,5,0,0:0:0:0:
256,192,31628,5,8,0:0:0:0:
256,192,31772,5,12,0:0:0:0:
256,192,32060,5,0,0:0:0:0:
256,192,32205,5,0,0:0:0:0:
256,192,32349,5,8,0:0:0:0:
256,192,32493,5,8,0:0:0:0:
256,192,32637,5,0,0:0:0:0:
256,192,32782,5,0,0:0:0:0:
256,192,32926,5,8,0:0:0:0:
256,192,33070,5,8,0:0:0:0:
256,192,33214,5,0,0:0:0:0:
256,192,33286,5,0,0:0:0:0:
256,192,33359,5,8,0:0:0:0:
256,192,33503,5,12,0:0:0:0:
256,192,33791,5,0,0:0:0:0:
256,192,33863,5,0,0:0:0:0:
256,192,33935,5,8,0:0:0:0:
256,192,34080,5,12,0:0:0:0:
256,192,34368,5,12,0:0:0:0:
256,192,34512,5,8,0:0:0:0:
256,192,34657,5,0,0:0:0:0:
256,192,34801,5,0,0:0:0:0:
256,192,34945,5,8,0:0:0:0:
256,192,35089,5,0,0:0:0:0:
256,192,35234,5,0,0:0:0:0:
256,192,35378,5,0,0:0:0:0:
256,192,35522,5,12,0:0:0:0:
256,192,35666,5,8,0:0:0:0:
256,192,35810,5,0,0:0:0:0:
256,192,35955,5,0,0:0:0:0:
256,192,36099,5,8,0:0:0:0:
256,192,36243,5,0,0:0:0:0:
256,192,36387,5,0,0:0:0:0:
256,192,36532,5,0,0:0:0:0:
256,192,36676,5,12,0:0:0:0:
256,192,36820,5,0,0:0:0:0:
256,192,36964,5,8,0:0:0:0:
256,192,37109,5,0,0:0:0:0:
256,192,37253,5,12,0:0:0:0:
256,192,37397,5,0,0:0:0:0:
256,192,37541,5,8,0:0:0:0:
256,192,37685,5,0,0:0:0:0:
256,192,37830,5,12,0:0:0:0:
256,192,37974,5,0,0:0:0:0:
256,192,38118,5,12,0:0:0:0:
256,192,38262,5,0,0:0:0:0:
256,192,38407,5,12,0:0:0:0:
256,192,38551,5,0,0:0:0:0:
256,192,38695,5,12,0:0:0:0:
256,192,38839,5,0,0:0:0:0:
256,192,38984,5,12,0:0:0:0:
256,192,39272,5,4,0:0:0:0:
256,192,39560,5,0,0:0:0:0:
256,192,39705,5,0,0:0:0:0:
256,192,39993,5,0,0:0:0:0:
256,192,40137,5,0,0:0:0:0:
256,192,40282,5,8,0:0:0:0:
256,192,40354,5,8,0:0:0:0:
256,192,40426,5,8,0:0:0:0:
256,192,40570,5,8,0:0:0:0:
256,192,40714,5,0,0:0:0:0:
256,192,40859,5,8,0:0:0:0:
256,192,40931,5,8,0:0:0:0:
256,192,41003,5,8,0:0:0:0:
256,192,41147,5,8,0:0:0:0:
256,192,41291,5,0,0:0:0:0:
256,192,41435,5,8,0:0:0:0:
256,192,41724,1,8,0:0:0:0:
256,192,41868,1,0,0:0:0:0:
256,192,41940,1,0,0:0:0:0:
256,192,42012,5,8,0:0:0:0:
256,192,42157,1,0,0:0:0:0:
256,192,42301,5,8,0:0:0:0:
256,192,42445,5,0,0:0:0:0:
256,192,42589,5,8,0:0:0:0:
256,192,42878,5,8,0:0:0:0:
256,192,43022,5,0,0:0:0:0:
256,192,43094,1,8,0:0:0:0:
256,192,43166,5,8,0:0:0:0:
256,192,43310,1,0,0:0:0:0:
256,192,43455,5,8,0:0:0:0:
256,192,43599,5,0,0:0:0:0:
256,192,43743,5,8,0:0:0:0:
256,192,44032,5,8,0:0:0:0:
256,192,44176,5,0,0:0:0:0:
256,192,44320,5,8,0:0:0:0:
256,192,44609,5,8,0:0:0:0:
256,192,44753,5,0,0:0:0:0:
256,192,44897,5,8,0:0:0:0:
256,192,44969,5,8,0:0:0:0:
256,192,45041,5,0,0:0:0:0:
256,192,45185,5,8,0:0:0:0:
256,192,45258,5,8,0:0:0:0:
256,192,45330,5,0,0:0:0:0:
256,192,45474,5,8,0:0:0:0:
256,192,45618,5,8,0:0:0:0:
256,192,45907,5,0,0:0:0:0:
256,192,46051,5,8,0:0:0:0:
256,192,46339,5,8,0:0:0:0:
256,192,46484,5,0,0:0:0:0:
256,192,46556,1,0,0:0:0:0:
256,192,46628,5,8,0:0:0:0:
256,192,46772,5,0,0:0:0:0:
256,192,46916,5,8,0:0:0:0:
256,192,47060,5,0,0:0:0:0:
256,192,47205,5,8,0:0:0:0:
256,192,47493,5,8,0:0:0:0:
256,192,47637,5,0,0:0:0:0:
256,192,47710,1,8,0:0:0:0:
256,192,47782,5,8,0:0:0:0:
256,192,47926,1,0,0:0:0:0:
256,192,48070,5,8,0:0:0:0:
256,192,48214,5,0,0:0:0:0:
256,192,48286,5,8,0:0:0:0:
256,192,48359,5,8,0:0:0:0:
256,192,48647,5,8,0:0:0:0:
256,192,48791,5,0,0:0:0:0:
256,192,48863,5,8,0:0:0:0:
256,192,48935,5,8,0:0:0:0:
256,192,49080,1,0,0:0:0:0:
256,192,49224,5,8,0:0:0:0:
256,192,49368,5,0,0:0:0:0:
256,192,49657,5,8,0:0:0:0:
256,192,49729,5,8,0:0:0:0:
256,192,49801,5,8,0:0:0:0:
256,192,49873,5,8,0:0:0:0:
256,192,49945,5,8,0:0:0:0:
256,192,50378,5,8,0:0:0:0:
256,192,50522,5,0,0:0:0:0:
256,192,50810,5,8,0:0:0:0:
256,192,50955,5,0,0:0:0:0:
256,192,51099,5,0,0:0:0:0:
256,192,51387,5,8,0:0:0:0:
256,192,51676,5,0,0:0:0:0:
256,192,51820,5,0,0:0:0:0:
256,192,51964,5,0,0:0:0:0:
256,192,52109,5,8,0:0:0:0:
256,192,52253,5,0,0:0:0:0:
256,192,52541,5,8,0:0:0:0:
256,192,52685,5,8,0:0:0:0:
256,192,52830,5,0,0:0:0:0:
256,192,53118,5,8,0:0:0:0:
256,192,53407,5,0,0:0:0:0:
256,192,53551,5,0,0:0:0:0:
256,192,53695,5,8,0:0:0:0:
256,192,53839,5,8,0:0:0:0:
256,192,53984,5,0,0:0:0:0:
256,192,54272,5,8,0:0:0:0:
256,192,54416,5,0,0:0:0:0:
256,192,54560,5,0,0:0:0:0:
256,192,54849,5,8,0:0:0:0:
256,192,55137,5,0,0:0:0:0:
256,192,55282,5,0,0:0:0:0:
256,192,55426,5,0,0:0:0:0:
256,192,55570,5,8,0:0:0:0:
256,192,55714,5,0,0:0:0:0:
256,192,56003,5,8,0:0:0:0:
256,192,56147,5,8,0:0:0:0:
256,192,56291,5,0,0:0:0:0:
256,192,56435,5,0,0:0:0:0:
256,192,56724,5,8,0:0:0:0:
256,192,56868,5,0,0:0:0:0:
256,192,57012,5,0,0:0:0:0:
256,192,57157,5,8,0:0:0:0:
256,192,57445,5,0,0:0:0:0:
256,192,57734,5,0,0:0:0:0:
256,192,57878,5,8,0:0:0:0:
256,192,58166,5,8,0:0:0:0:
256,192,58310,5,0,0:0:0:0:
256,192,58599,5,0,0:0:0:0:
256,192,58743,5,8,0:0:0:0:
256,192,59032,5,8,0:0:0:0:
256,192,59176,5,0,0:0:0:0:
256,192,59464,5,8,0:0:0:0:
256,192,59609,5,0,0:0:0:0:
256,192,59753,5,8,0:0:0:0:
256,192,59897,5,4,0:0:0:0:
256,192,60185,1,8,0:0:0:0:
256,192,60330,5,4,0:0:0:0:
256,192,60618,1,8,0:0:0:0:
256,192,60762,5,4,0:0:0:0:
256,192,61051,5,4,0:0:0:0:
256,192,61339,5,4,0:0:0:0:
256,192,61628,5,0,0:0:0:0:
256,192,61700,5,8,0:0:0:0:
256,192,61772,5,0,0:0:0:0:
256,192,61844,1,8,0:0:0:0:
256,192,61916,5,0,0:0:0:0:
256,192,62060,5,12,0:0:0:0:
256,192,62348,5,4,0:0:0:0:
256,192,62636,12,0,64367,0:0:0:0:
256,192,64656,5,4,0:0:0:0:
256,192,64944,5,0,0:0:0:0:
256,192,65088,5,0,0:0:0:0:
256,192,65377,5,0,0:0:0:0:
256,192,65521,5,0,0:0:0:0:
256,192,65665,5,8,0:0:0:0:
256,192,65737,5,8,0:0:0:0:
256,192,65810,5,8,0:0:0:0:
256,192,65954,5,8,0:0:0:0:
256,192,66098,5,0,0:0:0:0:
256,192,66242,5,8,0:0:0:0:
256,192,66314,5,8,0:0:0:0:
256,192,66386,5,8,0:0:0:0:
256,192,66531,1,8,0:0:0:0:
256,192,66675,5,0,0:0:0:0:
256,192,66819,5,8,0:0:0:0:
256,192,66963,5,8,0:0:0:0:
256,192,67252,5,0,0:0:0:0:
256,192,67540,5,8,0:0:0:0:
256,192,67684,5,8,0:0:0:0:
256,192,67828,5,0,0:0:0:0:
256,192,67973,5,0,0:0:0:0:
256,192,68117,5,8,0:0:0:0:
256,192,68261,5,0,0:0:0:0:
256,192,68405,5,0,0:0:0:0:
256,192,68694,5,8,0:0:0:0:
256,192,68838,5,8,0:0:0:0:
256,192,68910,1,8,0:0:0:0:
256,192,68982,5,0,0:0:0:0:
256,192,69127,5,0,0:0:0:0:
256,192,69271,5,8,0:0:0:0:
256,192,69415,5,8,0:0:0:0:
256,192,69559,5,0,0:0:0:0:
256,192,69848,5,8,0:0:0:0:
256,192,69992,1,0,0:0:0:0:
256,192,70064,1,0,0:0:0:0:
256,192,70136,5,0,0:0:0:0:
256,192,70280,5,8,0:0:0:0:
256,192,70425,5,0,0:0:0:0:
256,192,70713,5,8,0:0:0:0:
256,192,70857,5,0,0:0:0:0:
256,192,70929,5,0,0:0:0:0:
256,192,71002,5,8,0:0:0:0:
256,192,71146,5,0,0:0:0:0:
256,192,71218,5,0,0:0:0:0:
256,192,71290,5,8,0:0:0:0:
256,192,71578,5,8,0:0:0:0:
256,192,71723,5,8,0:0:0:0:
256,192,71867,5,0,0:0:0:0:
256,192,71939,5,0,0:0:0:0:
256,192,72011,5,0,0:0:0:0:
256,192,72155,5,8,0:0:0:0:
256,192,72444,5,8,0:0:0:0:
256,192,72516,5,8,0:0:0:0:
256,192,72588,5,0,0:0:0:0:
256,192,72732,5,8,0:0:0:0:
256,192,73021,5,0,0:0:0:0:
256,192,73093,5,0,0:0:0:0:
256,192,73165,5,0,0:0:0:0:
256,192,73309,5,8,0:0:0:0:
256,192,73598,5,8,0:0:0:0:
256,192,73670,5,0,0:0:0:0:
256,192,73742,5,0,0:0:0:0:
256,192,73886,5,8,0:0:0:0:
256,192,74175,1,8,0:0:0:0:
256,192,74319,1,0,0:0:0:0:
256,192,74463,1,8,0:0:0:0:
256,192,74607,1,8,0:0:0:0:
256,192,74751,5,0,0:0:0:0:
256,192,74896,5,0,0:0:0:0:
256,192,75040,1,8,0:0:0:0:
256,192,75184,1,8,0:0:0:0:
256,192,75328,5,0,0:0:0:0:
256,192,75473,5,0,0:0:0:0:
256,192,75545,5,0,0:0:0:0:
256,192,75617,5,8,0:0:0:0:
256,192,75761,5,8,0:0:0:0:
256,192,75905,5,12,0:0:0:0:
256,192,76482,5,0,0:0:0:0:
256,192,76626,5,0,0:0:0:0:
256,192,76699,5,0,0:0:0:0:
256,192,76771,5,8,0:0:0:0:
256,192,76915,5,8,0:0:0:0:
256,192,77059,5,12,0:0:0:0:
256,192,77636,5,0,0:0:0:0:
256,192,77780,5,0,0:0:0:0:
256,192,77852,5,0,0:0:0:0:
256,192,77925,5,8,0:0:0:0:
256,192,78069,5,8,0:0:0:0:
256,192,78213,5,0,0:0:0:0:
256,192,78357,5,0,0:0:0:0:
256,192,78429,5,0,0:0:0:0:
256,192,78501,5,8,0:0:0:0:
256,192,78574,5,8,0:0:0:0:
256,192,78646,5,8,0:0:0:0:
256,192,78790,5,0,0:0:0:0:
256,192,79078,5,8,0:0:0:0:
256,192,79223,1,8,0:0:0:0:
256,192,79367,5,8,0:0:0:0:
256,192,79463,1,8,0:0:0:0:
256,192,79559,1,8,0:0:0:0:
256,192,79655,1,8,0:0:0:0:
256,192,79944,5,4,0:0:0:0:
256,192,80665,5,0,0:0:0:0:
256,192,80737,5,0,0:0:0:0:
256,192,80809,5,0,0:0:0:0:
256,192,80953,5,0,0:0:0:0:
256,192,81098,5,4,0:0:0:0:
256,192,81747,5,8,0:0:0:0:
256,192,81819,5,0,0:0:0:0:
256,192,81963,5,0,0:0:0:0:
256,192,82251,5,0,0:0:0:0:
256,192,82396,1,0,0:0:0:0:
256,192,82540,5,8,0:0:0:0:
256,192,82684,5,8,0:0:0:0:
256,192,82828,5,0,0:0:0:0:
256,192,82973,5,0,0:0:0:0:
256,192,83117,5,8,0:0:0:0:
256,192,83405,5,0,0:0:0:0:
256,192,83550,5,0,0:0:0:0:
256,192,83622,5,0,0:0:0:0:
256,192,83694,5,8,0:0:0:0:
256,192,83838,5,8,0:0:0:0:
256,192,83982,5,0,0:0:0:0:
256,192,84126,5,0,0:0:0:0:
256,192,84199,5,0,0:0:0:0:
256,192,84271,5,8,0:0:0:0:
256,192,84559,5,0,0:0:0:0:
256,192,84703,5,0,0:0:0:0:
256,192,84776,5,8,0:0:0:0:
256,192,84848,5,0,0:0:0:0:
256,192,85136,5,0,0:0:0:0:
256,192,85280,5,0,0:0:0:0:
256,192,85352,5,8,0:0:0:0:
256,192,85425,5,0,0:0:0:0:
256,192,85713,5,0,0:0:0:0:
256,192,85857,5,0,0:0:0:0:
256,192,85929,5,8,0:0:0:0:
256,192,86001,5,0,0:0:0:0:
256,192,86146,5,8,0:0:0:0:
256,192,86290,5,0,0:0:0:0:
256,192,86434,5,8,0:0:0:0:
256,192,86578,5,0,0:0:0:0:
256,192,86723,5,8,0:0:0:0:
256,192,86867,5,4,0:0:0:0:
256,192,87444,5,4,0:0:0:0:
256,192,88021,5,4,0:0:0:0:
256,192,88598,5,4,0:0:0:0:
256,192,88886,1,8,0:0:0:0:
256,192,89175,5,0,0:0:0:0:
256,192,89463,5,0,0:0:0:0:
256,192,89751,5,8,0:0:0:0:
256,192,90040,5,0,0:0:0:0:
256,192,90328,5,0,0:0:0:0:
256,192,90521,5,8,0:0:0:0:
256,192,90617,5,0,0:0:0:0:
256,192,90905,5,8,0:0:0:0:
256,192,91098,5,0,0:0:0:0:
256,192,91290,5,8,0:0:0:0:
256,192,91482,5,8,0:0:0:0:
256,192,91675,5,0,0:0:0:0:
256,192,91771,5,8,0:0:0:0:
256,192,91963,5,0,0:0:0:0:
256,192,92059,5,8,0:0:0:0:
256,192,92251,5,0,0:0:0:0:
256,192,92348,5,8,0:0:0:0:
256,192,92444,5,8,0:0:0:0:
256,192,92540,5,8,0:0:0:0:
256,192,93501,5,4,0:0:0:0:
256,192,93789,5,0,0:0:0:0:
256,192,94077,5,12,0:0:0:0:
256,192,94366,5,8,0:0:0:0:
256,192,94462,1,8,0:0:0:0:
256,192,94558,1,8,0:0:0:0:
256,192,94654,5,0,0:0:0:0:
256,192,94943,5,0,0:0:0:0:
256,192,95231,5,12,0:0:0:0:
256,192,95520,5,8,0:0:0:0:
256,192,95616,1,0,0:0:0:0:
256,192,95712,1,0,0:0:0:0:
256,192,95808,5,0,0:0:0:0:
256,192,96097,5,0,0:0:0:0:
256,192,96385,5,12,0:0:0:0:
256,192,96674,5,8,0:0:0:0:
256,192,96770,1,8,0:0:0:0:
256,192,96866,1,0,0:0:0:0:
256,192,96962,5,0,0:0:0:0:
256,192,97251,5,0,0:0:0:0:
256,192,97539,5,12,0:0:0:0:
256,192,97827,5,8,0:0:0:0:
256,192,98116,5,4,0:0:0:0:
256,192,98404,5,0,0:0:0:0:
256,192,98693,5,12,0:0:0:0:
256,192,98981,5,8,0:0:0:0:
256,192,99077,1,8,0:0:0:0:
256,192,99174,1,8,0:0:0:0:
256,192,99270,5,0,0:0:0:0:
256,192,99558,5,8,0:0:0:0:
256,192,99847,5,12,0:0:0:0:
256,192,100135,1,8,0:0:0:0:
256,192,100231,1,0,0:0:0:0:
256,192,100327,1,0,0:0:0:0:
256,192,100424,5,0,0:0:0:0:
256,192,100712,5,0,0:0:0:0:
256,192,101000,5,12,0:0:0:0:
256,192,101289,5,8,0:0:0:0:
256,192,101385,1,8,0:0:0:0:
256,192,101481,1,0,0:0:0:0:
256,192,101577,5,0,0:0:0:0:
256,192,101866,5,0,0:0:0:0:
256,192,102058,5,0,0:0:0:0:
256,192,102154,5,8,0:0:0:0:
256,192,102250,5,0,0:0:0:0:
256,192,102347,5,0,0:0:0:0:
256,192,102443,5,0,0:0:0:0:
256,192,102731,5,0,0:0:0:0:
256,192,103020,5,0,0:0:0:0:
256,192,103308,5,0,0:0:0:0:
256,192,103597,5,8,0:0:0:0:
256,192,103693,5,8,0:0:0:0:
256,192,103789,5,8,0:0:0:0:
256,192,103885,5,0,0:0:0:0:
256,192,104174,5,8,0:0:0:0:
256,192,104462,5,0,0:0:0:0:
256,192,104750,5,8,0:0:0:0:
256,192,104847,5,8,0:0:0:0:
256,192,104943,5,8,0:0:0:0:
256,192,105039,5,0,0:0:0:0:
256,192,105327,5,0,0:0:0:0:
256,192,105616,5,0,0:0:0:0:
256,192,105904,5,8,0:0:0:0:
256,192,106000,5,8,0:0:0:0:
256,192,106097,5,8,0:0:0:0:
256,192,106193,5,0,0:0:0:0:
256,192,106481,5,8,0:0:0:0:
256,192,106770,5,0,0:0:0:0:
256,192,107058,5,8,0:0:0:0:
256,192,107347,5,0,0:0:0:0:
256,192,107539,5,0,0:0:0:0:
256,192,107635,5,8,0:0:0:0:
256,192,107924,5,0,0:0:0:0:
256,192,108116,5,0,0:0:0:0:
256,192,108212,5,8,0:0:0:0:
256,192,108500,5,0,0:0:0:0:
256,192,108693,5,8,0:0:0:0:
256,192,108789,5,8,0:0:0:0:
256,192,109077,5,8,0:0:0:0:
256,192,109270,5,8,0:0:0:0:
256,192,109366,5,8,0:0:0:0:
256,192,109654,5,12,0:0:0:0:
256,192,109799,5,0,0:0:0:0:
256,192,109871,5,0,0:0:0:0:
256,192,109943,5,0,0:0:0:0:
256,192,110087,5,0,0:0:0:0:
256,192,110231,5,8,0:0:0:0:
256,192,110375,5,8,0:0:0:0:
256,192,110520,5,0,0:0:0:0:
256,192,110808,5,12,0:0:0:0:
256,192,110952,5,8,0:0:0:0:
256,192,111025,5,8,0:0:0:0:
256,192,111097,5,8,0:0:0:0:
256,192,111241,5,8,0:0:0:0:
256,192,111385,5,0,0:0:0:0:
256,192,111529,5,0,0:0:0:0:
256,192,111674,5,8,0:0:0:0:
256,192,111962,5,12,0:0:0:0:
256,192,112106,5,0,0:0:0:0:
256,192,112178,5,0,0:0:0:0:
256,192,112250,5,8,0:0:0:0:
256,192,112323,5,8,0:0:0:0:
256,192,112395,5,8,0:0:0:0:
256,192,112539,5,0,0:0:0:0:
256,192,112683,5,0,0:0:0:0:
256,192,112827,5,8,0:0:0:0:
256,192,113116,5,4,0:0:0:0:
256,192,113404,5,8,0:0:0:0:
256,192,113500,5,8,0:0:0:0:
256,192,113597,5,8,0:0:0:0:
256,192,113693,5,0,0:0:0:0:
256,192,113789,5,0,0:0:0:0:
256,192,113885,5,0,0:0:0:0:
256,192,113981,5,8,0:0:0:0:
256,192,114270,5,12,0:0:0:0:
256,192,114414,5,8,0:0:0:0:
256,192,114558,5,0,0:0:0:0:
256,192,114702,5,0,0:0:0:0:
256,192,114847,5,8,0:0:0:0:
256,192,114991,5,0,0:0:0:0:
256,192,115135,5,0,0:0:0:0:
256,192,115279,5,0,0:0:0:0:
256,192,115424,5,12,0:0:0:0:
256,192,115568,5,8,0:0:0:0:
256,192,115712,5,0,0:0:0:0:
256,192,115856,5,0,0:0:0:0:
256,192,116000,5,8,0:0:0:0:
256,192,116145,5,0,0:0:0:0:
256,192,116289,5,0,0:0:0:0:
256,192,116577,5,12,0:0:0:0:
256,192,116722,5,8,0:0:0:0:
256,192,116866,5,0,0:0:0:0:
256,192,117010,5,0,0:0:0:0:
256,192,117154,5,0,0:0:0:0:
256,192,117299,5,0,0:0:0:0:
256,192,117443,5,0,0:0:0:0:
256,192,117587,5,0,0:0:0:0:
256,192,117731,5,12,0:0:0:0:
256,192,117875,5,0,0:0:0:0:
256,192,118020,5,0,0:0:0:0:
256,192,118164,5,0,0:0:0:0:
256,192,118308,5,0,0:0:0:0:
256,192,118452,5,0,0:0:0:0:
256,192,118597,5,0,0:0:0:0:
256,192,118741,5,0,0:0:0:0:
256,192,118885,5,0,0:0:0:0:
256,192,118966,5,0,0:0:0:0:
256,192,119047,5,0,0:0:0:0:
256,192,119209,5,8,0:0:0:0:
256,192,119534,5,0,0:0:0:0:
256,192,119615,5,8,0:0:0:0:
256,192,119696,5,0,0:0:0:0:
256,192,119858,5,8,0:0:0:0:
256,192,120219,5,12,0:0:0:0:
256,192,120423,5,0,0:0:0:0:
256,192,120525,5,0,0:0:0:0:
256,192,120627,5,0,0:0:0:0:
256,192,120831,1,0,0:0:0:0:
256,192,121101,5,4,0:0:0:0:
