osu file format v14

[General]
AudioFilename: ManieraZ.mp3
AudioLeadIn: 0
PreviewTime: 15951
Countdown: 0
SampleSet: Soft
StackLeniency: 0.3
Mode: 0
LetterboxInBreaks: 0
WidescreenStoryboard: 1

[Editor]
DistanceSpacing: 1.3
BeatDivisor: 3
GridSize: 4
TimelineZoom: 8

[Metadata]
Title:MANIERA
TitleUnicode:MANIERA
Artist:D(ABE3)
ArtistUnicode:D(ABE3)
Creator:SakiZ
Version:SkyDevil's Hard
Source:BMS
Tags:piano abe yuta dwmω atheon mark101 hikan hokichi skydevil refaller
BeatmapID:1212632
BeatmapSetID:336828

[Difficulty]
HPDrainRate:4
CircleSize:3.5
OverallDifficulty:5
ApproachRate:8
SliderMultiplier:1.5
SliderTickRate:2

[Events]
//Background and Video events
0,0,"maniera bg resolution fixedZ.jpg",0,0
//Break Periods
//Storyboard Layer 0 (Background)
//Storyboard Layer 1 (Fail)
//Storyboard Layer 2 (Pass)
//Storyboard Layer 3 (Foreground)
//Storyboard Sound Samples

[TimingPoints]
951,288.461538461538,4,2,0,50,1,0
7008,-100,4,2,0,30,0,0
11335,-100,4,2,0,50,0,0
11912,-95.2380952380952,4,2,0,50,0,0
12489,-90.9090909090909,4,2,0,50,0,0
13066,-86.9565217391304,4,2,0,30,0,0
13138,-86.9565217391304,4,2,0,50,0,0
13643,-83.3333333333333,4,2,0,50,0,0
13931,-100,4,2,0,50,0,0
15950,-100,4,2,0,50,0,1
24749,-100,4,2,0,50,0,0
40181,-100,4,2,0,50,0,1
48835,-100,4,2,0,50,0,0
57489,-100,4,2,0,40,0,0
58066,-100,4,2,0,30,0,0
66143,288.461538461538,4,2,0,50,1,1
66143,-100,4,2,0,50,0,1
74219,-100,4,2,0,50,0,0
75374,-66.6666666666667,4,2,0,50,0,0
76527,-100,4,2,0,50,0,0
78835,-100,4,2,0,50,0,0
92392,288.461538461538,4,2,0,50,1,0
106239,-100,4,2,0,50,0,0
106816,-95.2380952380952,4,2,0,50,0,0
107392,-90.9090909090909,4,2,0,50,0,0
107969,-86.9565217391304,4,2,0,50,0,0
108545,-100,4,2,0,50,0,1
117776,-100,4,2,0,50,0,0

[Colours]
Combo1 : 0,200,255
Combo2 : 255,150,0
Combo3 : 80,200,0
Combo4 : 255,50,255

[HitObjects]
108,196,2104,6,0,L|92:284,1,75,4|0,0:0|0:0,0:0:0:0:
180,88,3114,5,0,0:0:0:0:
200,168,3258,2,0,L|184:256,1,75,4|0,0:0|0:0,0:0:0:0:
324,228,4268,5,0,0:0:0:0:
304,148,4412,2,0,L|320:60,1,75,4|0,0:0|0:0,0:0:0:0:
396,96,4701,2,0,P|408:140|408:180,1,75,8|0,0:3|0:0,0:0:0:0:
400,252,4989,2,0,P|388:296|364:328,1,75,4|0,0:0|0:0,0:0:0:0:
288,316,5278,2,0,L|204:308,1,75,8|0,0:3|0:0,0:0:0:0:
132,296,5566,6,0,L|68:288,2,37.5,4|0|0,0:0|0:0|0:0,0:0:0:0:
112,216,5854,2,0,L|56:208,2,37.5,8|0|0,0:3|0:0|0:0,0:0:0:0:
100,132,6143,2,0,L|52:124,2,37.5,4|0|0,0:0|0:0|0:0,0:0:0:0:
144,60,6431,2,0,L|96:52,2,37.5,2|0|0,0:0|0:0|0:0,0:0:0:0:
224,88,6720,6,0,L|192:248,1,150,4|0,0:0|0:0,0:0:0:0:
88,340,7297,1,0,0:0:0:0:
240,352,7585,1,4,0:0:0:0:
348,248,7874,6,0,P|388:180|364:92,1,150,4|0,0:0|0:0,0:0:0:0:
228,92,8451,1,4,0:0:0:0:
168,224,8739,1,4,0:0:0:0:
28,268,9028,6,0,P|28:308|120:352,1,150,4|0,0:0|0:0,0:0:0:0:
240,272,9604,1,0,0:0:0:0:
360,360,9893,1,4,0:0:0:0:
396,216,10181,6,0,P|376:164|420:76,1,150,4|4,0:0|0:0,0:0:0:0:
264,28,10758,2,0,L|224:180,1,150,6|4,0:3|0:0,0:0:0:0:
256,316,11335,6,0,L|236:384,3,50,4|0|0|8,0:0|0:0|0:0|0:3,0:0:0:0:
96,264,11912,6,0,L|60:324,3,52.4999983978272,0|0|0|8,0:0|0:0|0:0|0:3,0:0:0:0:
96,120,12489,6,0,L|52:52,3,55.0000016784668,0|0|0|8,0:0|0:0|0:0|0:3,0:0:0:0:
256,72,13066,6,0,L|232:-4,3,57.5000010967255,4|0|0|8,0:0|0:0|0:0|0:3,0:0:0:0:
108,192,13643,6,0,L|312:192,1,179.999994506836,4|0,0:0|0:0,0:0:0:0:
368,164,14076,1,0,0:0:0:0:
380,244,14220,1,0,0:0:0:0:
312,292,14364,2,0,B|280:320|240:296|240:296|208:276|172:304,1,150
96,336,14797,5,0,0:0:0:0:
56,264,14941,2,0,L|12:264,2,37.5
132,232,15229,1,0,0:0:0:0:
72,176,15374,1,0,0:0:0:0:
108,100,15518,2,0,L|68:76,2,37.5
192,92,15806,1,0,0:0:0:0:
256,148,15951,6,0,L|276:248,1,75,4|0,0:0|0:0,0:0:0:0:
332,288,16239,2,0,P|364:252|364:204,1,75,2|0,0:3|0:0,0:0:0:0:
352,136,16528,2,0,P|340:100|356:60,1,75
436,100,16816,1,2,0:3:0:0:
472,180,16960,1,0,0:0:0:0:
444,264,17104,6,0,L|416:352,1,75
332,348,17393,2,0,P|291:353|240:348,1,75,2|0,0:3|0:0,0:0:0:0:
168,332,17681,2,0,P|144:304|144:263,1,75
136,176,17970,1,2,0:3:0:0:
216,136,18114,1,0,0:0:0:0:
236,224,18258,6,0,L|328:240,1,75
352,316,18547,2,0,L|444:332,1,75,2|0,0:3|0:0,0:0:0:0:
476,252,18835,2,0,L|384:236,1,75,0|0,0:3|0:0,0:0:0:0:
332,180,19124,1,2,0:3:0:0:
244,160,19268,1,0,0:0:0:0:
160,192,19412,6,0,B|124:180|124:180|88:196|88:196|56:180|56:180|20:192,2,150,0|8|4,0:0|0:3|0:0,0:0:0:0:
368,192,20566,6,0,L|424:192,2,37.5,4|0|0,0:0|0:0|0:0,0:0:0:0:
320,268,20854,2,0,P|284:228|284:184,1,75,2|0,0:3|0:0,0:0:0:0:
296,120,21143,2,0,L|336:120,2,37.5
236,52,21431,1,2,0:3:0:0:
164,104,21576,1,0,0:0:0:0:
176,192,21720,6,0,L|160:288,1,75
84,224,22008,2,0,L|92:176,2,37.5,2|0|0,0:3|0:0|0:0,0:0:0:0:
56,312,22297,1,0,0:0:0:0:
132,360,22441,1,0,0:0:0:0:
224,352,22585,2,0,L|276:352,2,37.5,2|0|0,0:3|0:0|0:0,0:0:0:0:
248,264,22874,6,0,L|256:216,2,37.5
328,308,23162,2,0,P|365:318|408:312,1,75,2|0,0:3|0:0,0:0:0:0:
460,248,23451,2,0,L|508:244,2,37.5
372,232,23739,1,2,0:3:0:0:
344,144,23883,1,0,0:0:0:0:
436,128,24028,6,0,L|436:180,2,37.5
500,64,24316,2,0,B|440:32|440:32|360:60,1,150,0|4,0:0|0:0,0:0:0:0:
300,96,24749,1,0,0:0:0:0:
232,128,24893,1,0,0:0:0:0:
164,164,25037,1,0,0:0:0:0:
96,200,25181,6,0,L|52:200,4,37.5,0|0|0|0|4,0:0|0:0|0:0|0:0|0:0,0:0:0:0:
268,256,25758,6,0,L|324:256,4,37.5,0|0|0|0|4,0:0|0:0|0:0|0:0|0:0,0:0:0:0:
96,312,26335,5,2,0:3:0:0:
68,228,26479,1,0,0:0:0:0:
152,252,26624,1,0,0:0:0:0:
144,164,26768,1,0,0:0:0:0:
92,92,26912,2,0,P|126:78|180:84,1,75,8|8,0:3|0:3,0:0:0:0:
240,128,27201,2,0,L|336:120,1,75,8|0,0:3|0:0,0:0:0:0:
400,92,27489,6,0,L|440:88,4,37.5,0|0|0|0|4,0:0|0:0|0:0|0:0|0:0,0:0:0:0:
320,256,28066,6,0,L|268:264,4,37.5,0|0|0|0|4,0:0|0:0|0:0|0:0|0:0,0:0:0:0:
256,192,28499,12,4,29508,0:0:0:0:
136,192,29797,6,0,L|72:192,4,37.5,0|0|0|0|4,0:0|0:0|0:0|0:0|0:0,0:0:0:0:
296,272,30374,6,0,L|352:272,4,37.5,0|0|0|0|4,0:0|0:0|0:0|0:0|0:0,0:0:0:0:
232,336,30806,1,0,0:0:0:0:
148,304,30951,2,0,P|112:272|96:232,1,75,6|8,0:3|0:3,0:0:0:0:
188,224,31239,2,0,L|268:212,1,75,8|8,0:3|0:3,0:0:0:0:
348,184,31528,1,8,0:3:0:0:
388,104,31672,1,8,0:3:0:0:
300,104,31816,1,4,0:0:0:0:
220,60,31960,1,0,0:0:0:0:
184,144,32104,6,0,L|136:148,4,37.5,0|0|0|0|4,0:0|0:0|0:0|0:0|0:0,0:0:0:0:
24,216,32681,6,0,L|36:268,4,37.5,0|0|0|0|4,0:0|0:0|0:0|0:0|0:0,0:0:0:0:
8,128,33114,1,0,0:0:0:0:
32,40,33258,6,0,L|116:44,1,75,4|0,0:0|0:3,0:0:0:0:
192,48,33547,2,0,L|276:52,1,75,0|0,0:0|0:3,0:0:0:0:
352,60,33835,2,0,L|436:64,1,75,0|0,0:0|0:3,0:0:0:0:
476,131,34124,6,0,L|392:135,1,75,0|0,0:0|0:3,0:0:0:0:
316,139,34413,2,0,L|232:143,1,75,4|0,0:0|0:3,0:0:0:0:
156,147,34701,2,0,L|72:151,1,75
36,220,34989,6,0,L|120:224,1,75
196,228,35278,2,0,L|280:232,1,75
356,236,35566,2,0,L|440:240,1,75,4|0,0:0|0:0,0:0:0:0:
480,308,35854,6,0,L|396:312,1,75
320,316,36143,2,0,L|236:320,1,75,4|0,0:0|0:0,0:0:0:0:
160,324,36431,2,0,L|76:328,1,75
0,332,36720,5,4,0:0:0:0:
140,216,37008,1,4,0:0:0:0:
136,32,37297,1,4,0:0:0:0:
0,152,37585,1,4,0:0:0:0:
0,332,37874,2,0,L|0:248,2,75,4|0|4,0:0|0:0|0:0,0:0:0:0:
88,152,38451,6,0,L|88:252,1,75
224,88,38883,2,0,L|224:188,1,75
292,208,39172,2,0,L|292:264,2,37.5
312,128,39460,1,0,0:0:0:0:
372,184,39604,1,0,0:0:0:0:
440,128,39749,2,0,L|456:92,2,37.5
456,208,40037,1,0,0:0:0:0:
444,288,40181,6,0,L|448:332,2,37.5,4|0|2,0:0|0:0|0:3,0:0:0:0:
332,316,40470,2,0,L|308:356,2,37.5,0|0|2,0:0|0:0|0:3,0:0:0:0:
260,228,40758,2,0,L|208:236,2,37.5,0|0|2,0:0|0:0|0:3,0:0:0:0:
284,120,41047,2,0,L|232:84,2,37.5,0|0|2,0:0|0:0|0:3,0:0:0:0:
384,168,41335,6,0,L|422:186,2,37.5,0|0|2,0:0|0:0|0:3,0:0:0:0:
332,264,41624,2,0,L|352:328,2,37.5,0|0|2,0:0|0:0|0:3,0:0:0:0:
224,296,41912,2,0,L|212:352,2,37.5,0|0|2,0:0|0:0|0:3,0:0:0:0:
128,240,42201,2,0,L|88:268,2,37.5,0|0|2,0:0|0:0|0:3,0:0:0:0:
96,136,42489,6,0,L|48:132,2,37.5,0|0|2,0:0|0:0|0:3,0:0:0:0:
196,80,42778,2,0,P|212:116|200:176,1,75,0|2,0:0|0:3,0:0:0:0:
248,256,43066,6,0,L|272:228,2,37.5,0|0|2,0:0|0:0|0:3,0:0:0:0:
304,120,43354,2,0,P|316:80|356:36,1,75,0|2,0:3|0:3,0:0:0:0:
428,120,43643,6,0,B|436:160|436:160|424:196|424:196|436:232|436:232|428:268,2,150,4|4|4,0:0|0:3|0:0,0:0:0:0:
380,32,44364,1,0,0:0:0:0:
284,52,44508,2,0,B|248:64|248:64|212:52,1,75
120,88,44797,6,0,L|92:192,1,75,4|2,0:0|0:3,0:0:0:0:
192,212,45085,2,0,L|204:296,1,75,0|2,0:0|0:3,0:0:0:0:
309,286,45374,2,0,L|320:212,1,75,0|2,0:0|0:3,0:0:0:0:
411,160,45662,2,0,L|392:88,1,75,0|2,0:0|0:3,0:0:0:0:
332,44,45951,5,0,0:0:0:0:
256,32,46095,1,2,0:3:0:0:
180,44,46239,1,0,0:0:0:0:
116,84,46383,1,2,0:3:0:0:
72,148,46528,2,0,L|56:252,1,75,0|2,0:0|0:3,0:0:0:0:
128,272,46816,2,2,L|144:168,1,75,0|2,0:0|0:3,0:0:0:0:
224,148,47104,6,2,L|208:252,1,75,4|2,0:0|0:3,0:0:0:0:
276,308,47393,2,2,L|292:204,1,75,0|2,0:0|0:3,0:0:0:0:
372,148,47681,2,2,L|356:252,1,75,4|2,0:0|0:3,0:0:0:0:
416,348,47970,2,2,L|432:244,1,75,4|2,0:0|0:3,0:0:0:0:
448,128,48258,6,0,P|420:84|376:72,1,75,4|0,0:0|0:0,0:0:0:0:
304,72,48547,2,0,L|240:80,4,37.5,0|0|0|0|4,0:0|0:0|0:0|0:0|0:0,0:0:0:0:
40,64,49412,6,0,L|24:152,1,75,0|2,0:0|0:0,0:0:0:0:
72,208,49701,2,0,L|56:284,1,75,0|2,0:0|0:0,0:0:0:0:
120,336,49989,1,0,0:0:0:0:
188,288,50133,1,2,0:0:0:0:
176,204,50278,2,0,P|168:164|176:124,1,75,0|2,0:0|0:0,0:0:0:0:
248,164,50566,6,0,L|332:160,1,75,0|2,0:0|0:0,0:0:0:0:
396,124,50854,2,0,P|404:164|392:200,1,75,0|2,0:0|0:0,0:0:0:0:
328,244,51143,1,0,0:0:0:0:
268,304,51287,1,2,0:0:0:0:
184,308,51431,2,0,P|136:300|92:304,1,75,0|2,0:0|0:0,0:0:0:0:
28,316,51720,6,0,L|12:224,1,75,0|2,0:0|0:0,0:0:0:0:
76,184,52008,2,0,L|96:104,1,75,0|2,0:0|0:0,0:0:0:0:
176,96,52297,1,0,0:0:0:0:
168,180,52441,1,2,0:0:0:0:
220,244,52585,2,0,P|256:256|292:244,1,75,0|2,0:0|0:0,0:0:0:0:
348,184,52874,6,0,P|385:187|417:205,1,75,0|2,0:0|0:0,0:0:0:0:
364,268,53162,2,0,L|432:304,1,75,0|2,0:0|0:0,0:0:0:0:
496,252,53451,1,0,0:0:0:0:
488,168,53595,1,2,0:0:0:0:
440,100,53739,2,0,L|356:80,1,75,0|2,0:0|0:0,0:0:0:0:
284,80,54028,6,0,P|240:84|188:104,1,75,0|2,0:0|0:0,0:0:0:0:
152,148,54316,2,0,L|140:236,1,75,0|2,0:0|0:0,0:0:0:0:
224,244,54604,1,0,0:0:0:0:
240,328,54749,1,2,0:0:0:0:
164,360,54893,1,0,0:0:0:0:
104,304,55037,1,2,0:0:0:0:
28,336,55181,6,0,L|24:260,1,75,0|2,0:0|0:0,0:0:0:0:
28,176,55470,2,0,P|32:148|68:96,1,75,0|2,0:0|0:0,0:0:0:0:
140,100,55758,1,0,0:0:0:0:
220,100,55903,1,2,0:0:0:0:
248,176,56047,1,0,0:0:0:0:
180,224,56191,1,2,0:0:0:0:
112,176,56335,6,0,P|104:264|224:296,1,225,4|2,0:0|0:0,0:0:0:0:
304,252,56912,6,0,B|364:232|396:196|396:196|368:144|300:128,1,225,0|2,0:0|0:0,0:0:0:0:
216,83,57489,6,0,P|114:103|112:208,1,225,0|2,0:0|0:0,0:0:0:0:
204,168,58066,6,0,P|257:247|164:272,1,225,0|2,0:0|0:0,0:0:0:0:
104,328,58643,6,0,P|120:344|184:360,1,75,0|4,0:0|0:0,0:0:0:0:
252,356,58931,2,0,P|288:336|320:300,1,75
340,232,59220,2,0,P|332:180|308:140,1,75,4|0,0:0|0:0,0:0:0:0:
244,132,59508,2,0,L|160:128,1,75,0|4,0:0|0:0,0:0:0:0:
96,168,59797,6,0,L|76:248,1,75,0|4,0:0|0:0,0:0:0:0:
104,320,60085,2,0,L|192:332,1,75,0|4,0:0|0:0,0:0:0:0:
212,252,60374,2,0,L|288:236,1,75,0|4,0:0|0:0,0:0:0:0:
356,280,60662,2,0,L|396:284,2,37.5
292,336,60951,1,4,0:0:0:0:
256,192,61239,12,2,63258,0:0:0:0:
256,72,63547,6,0,L|256:228,1,150,4|0,0:0|0:0,0:0:0:0:
176,260,63979,2,0,B|152:220|168:192|168:192|184:152|152:116,1,150
64,196,64412,1,0,0:0:0:0:
104,300,64556,6,0,P|152:336|244:308,1,150
312,256,64989,2,0,B|356:224|388:224|388:224|448:268,1,150
256,132,65566,2,0,B|212:164|180:164|180:164|126:124,1,150,4|0,0:0|0:0,0:0:0:0:
340,88,66143,6,0,P|352:124|344:172,1,75,4|0,0:0|0:0,0:0:0:0:
316,252,66431,2,0,L|304:332,1,75,2|0,0:3|0:0,0:0:0:0:
207,326,66719,2,0,L|196:252,1,75
163,160,67008,2,0,P|160:123|172:88,1,75,2|0,0:3|0:0,0:0:0:0:
256,136,67296,6,0,L|256:220,1,75
336,272,67585,1,2,0:3:0:0:
428,232,67729,1,0,0:0:0:0:
432,136,67873,2,0,P|408:96|352:88,1,75
272,64,68162,2,0,P|232:64|192:96,1,75,2|0,0:3|0:0,0:0:0:0:
132,180,68450,6,0,L|120:272,2,75,0|0|2,0:0|0:0|0:3,0:0:0:0:
12,164,68883,1,0,0:0:0:0:
40,256,69027,2,0,P|52:296|88:320,2,75,0|0|2,0:0|0:0|0:3,0:0:0:0:
76,132,69460,1,0,0:0:0:0:
196,84,69604,6,0,B|224:64|224:64|256:88|256:88|288:64|288:64|316:88,2,150,0|8|4,0:0|0:3|0:0,0:0:0:0:
152,148,70325,1,0,0:0:0:0:
192,212,70469,1,0,0:0:0:0:
152,276,70614,1,0,0:0:0:0:
192,340,70758,6,0,L|240:348,2,37.5,4|0|0,0:0|0:0|0:0,0:0:0:0:
112,340,71046,2,0,P|80:308|72:264,1,75,6|0,0:3|0:0,0:0:0:0:
52,184,71335,2,0,L|24:152,2,37.5
124,120,71623,2,0,L|216:108,1,75,6|0,0:3|0:0,0:0:0:0:
296,112,71912,6,0,L|370:121,1,75
416,208,72200,2,0,L|464:212,2,37.5,6|0|0,0:3|0:0|0:0,0:0:0:0:
352,280,72489,1,0,0:0:0:0:
260,312,72633,1,0,0:0:0:0:
184,248,72777,2,0,L|120:260,2,37.5,6|0|0,0:3|0:0|0:0,0:0:0:0:
212,152,73066,6,0,L|256:144,2,37.5,4|0|0,0:3|0:0|0:0,0:0:0:0:
120,96,73354,2,0,P|76:120|56:152,1,75,6|0,0:3|0:0,0:0:0:0:
56,236,73642,2,0,L|16:248,2,37.5,4|0|0,0:3|0:0|0:0,0:0:0:0:
88,328,73931,2,0,P|120:352|156:356,1,75,6|0,0:3|0:0,0:0:0:0:
272,348,74219,6,0,L|368:320,1,75,12|0,0:3|0:0,0:0:0:0:
448,224,74508,2,0,L|456:180,4,37.5,0|0|0|0|4,0:0|0:0|0:0|0:0|0:0,0:0:0:0:
272,296,75374,6,0,L|388:264,1,112.500004291535,12|0,0:3|0:0,0:0:0:0:
448,172,75662,2,0,L|460:116,4,56.2500021457673,0|0|0|0|4,0:0|0:0|0:0|0:0|0:0,0:0:0:0:
256,192,76527,6,0,L|164:196,1,75,12|0,0:3|0:0,0:0:0:0:
84,260,76816,2,0,L|36:276,2,37.5
180,316,77104,2,0,L|152:368,2,37.5
288,292,77392,2,0,L|308:332,2,37.5
368,196,77681,6,0,L|408:200,2,37.5
332,96,77969,2,0,L|380:60,2,37.5
216,96,78258,2,0,P|116:184|216:268,1,300,12|4,0:3|0:0,0:0:0:0:
420,184,79989,5,4,0:0:0:0:
84,192,81142,6,0,P|40:256|80:304,1,150,4|2,0:0|0:3,0:0:0:0:
264,248,81719,2,0,P|308:184|268:136,1,150,0|2,0:0|0:3,0:0:0:0:
84,192,82296,6,0,P|44:228|40:264,1,75
152,240,82585,2,0,P|176:200|156:164,1,75,2|0,0:3|0:0,0:0:0:0:
76,112,82873,2,0,P|100:80|156:64,1,75,8|0,0:3|0:0,0:0:0:0:
232,120,83162,2,0,P|269:118|300:99,1,75,2|4,0:3|0:0,0:0:0:0:
392,36,83450,6,0,L|400:196,1,150,4|2,0:3|0:3,0:0:0:0:
276,336,84027,2,0,L|268:176,1,150,0|2,0:0|0:3,0:0:0:0:
392,36,84604,6,0,L|396:140,1,75
340,208,84892,2,0,L|342:282,1,75,2|0,0:3|0:0,0:0:0:0:
236,324,85181,2,0,L|233:249,1,75
132,200,85469,2,0,L|134:274,1,75,2|4,0:3|0:0,0:0:0:0:
44,208,85758,6,0,B|44:160|76:120|124:116|124:116|180:40,1,225,4|0,0:0|0:0,0:0:0:0:
256,104,86335,6,0,P|296:136|404:32,1,225,4|0,0:0|0:0,0:0:0:0:
484,108,86912,6,0,B|472:176|472:176|440:196|436:220|456:244|456:244|444:324,1,225,4|0,0:0|0:0,0:0:0:0:
348,304,87489,6,0,L|356:264,2,37.5,4|0|0,0:0|0:0|0:0,0:0:0:0:
256,344,87777,1,2,0:3:0:0:
172,292,87921,1,0,0:0:0:0:
84,336,88066,6,0,B|48:292|56:200|56:200|124:140,1,225,4|0,0:0|0:0,0:0:0:0:
200,88,88643,6,0,B|256:60|304:88|304:88|360:120|432:88,1,225,4|0,0:0|0:0,0:0:0:0:
468,180,89220,6,0,L|488:224,2,37.5,4|0|0,0:0|0:0|0:0,0:0:0:0:
376,220,89509,2,0,L|396:264,2,37.5
284,256,89797,2,0,L|304:300,2,37.5,4|0|0,0:3|0:0|0:0,0:0:0:0:
192,292,90086,2,0,L|212:336,2,37.5,0|4|0,0:0|0:3|0:0,0:0:0:0:
256,192,90374,12,4,91456,0:0:0:0:
60,192,92393,6,0,L|236:192,1,150,4|0,0:0|0:0,0:0:0:0:
400,240,92969,1,2,0:3:0:0:
228,328,93258,2,0,P|156:360|84:320,1,150,0|4,0:0|0:0,0:0:0:0:
288,280,93835,2,0,B|336:280|360:312|360:312|448:344,1,150,0|2,0:0|0:3,0:0:0:0:
304,188,94412,1,0,0:0:0:0:
423,48,94700,6,0,B|360:72|360:72|336:104|288:104,1,150,4|0,0:0|0:0,0:0:0:0:
96,64,95277,1,2,0:3:0:0:
32,252,95566,2,0,B|64:280|108:264|108:264|148:252|188:276,1,150,0|4,0:0|0:0,0:0:0:0:
364,240,96143,2,0,P|300:264|236:216,1,150,0|2,0:0|0:3,0:0:0:0:
328,48,96719,1,0,0:0:0:0:
452,200,97008,6,0,P|464:260|384:324,1,150,4|0,0:0|0:0,0:0:0:0:
256,196,97585,1,2,0:3:0:0:
104,320,97873,2,0,P|51:271|60:200,1,150,0|4,0:0|0:0,0:0:0:0:
224,100,98450,2,0,L|148:240,1,150,0|2,0:0|0:3,0:0:0:0:
320,340,99027,1,0,0:0:0:0:
296,144,99316,6,0,P|304:76|236:20,1,150,4|0,0:0|0:0,0:0:0:0:
72,104,99892,1,2,0:3:0:0:
36,296,100181,2,0,B|80:316|116:296|116:296|192:296,1,150,0|4,0:0|0:0,0:0:0:0:
368,228,100758,1,0,0:0:0:0:
212,112,101046,2,0,L|152:112,4,37.5,2|0|0|0|0,0:3|0:0|0:0|0:0|0:0,0:0:0:0:
400,152,101623,6,0,P|448:200|432:284,1,150,4|2,0:0|0:3,0:0:0:0:
256,348,102200,1,0,0:0:0:0:
73,276,102489,1,2,0:3:0:0:
180,112,102777,6,0,L|336:112,1,150,0|2,0:0|0:3,0:0:0:0:
444,272,103354,1,0,0:0:0:0:
256,224,103642,1,2,0:3:0:0:
68,272,103931,6,0,B|40:240|40:240|40:108,1,150,4|2,0:0|0:3,0:0:0:0:
104,56,104364,2,0,B|140:84|140:120|140:120|140:208,1,150,4|0,0:0|0:0,0:0:0:0:
176,284,104796,1,0,0:0:0:0:
256,340,104941,1,2,0:3:0:0:
336,284,105085,6,0,L|336:124,1,150,0|2,0:0|0:3,0:0:0:0:
168,40,105662,2,0,L|168:200,1,150,0|6,0:0|0:3,0:0:0:0:
328,308,106239,6,0,L|388:312,3,50,4|0|0|2,0:0|0:0|0:0|0:3,0:0:0:0:
348,104,106816,6,0,L|420:108,3,52.4999983978272,0|0|0|2,0:0|0:0|0:0|0:3,0:0:0:0:
188,76,107392,6,0,L|124:72,3,55.0000016784668,0|0|0|2,0:0|0:0|0:0|0:3,0:0:0:0:
160,280,107969,6,0,L|64:276,3,57.5000010967255,4|0|0|6,0:0|0:0|0:0|0:3,0:0:0:0:
256,160,108545,6,0,B|308:124|304:80|256:44|256:44|216:72|216:72|168:48|136:108|136:108|168:164|124:204|124:204|76:200|36:216|24:280,1,525,4|0,0:0|0:0,0:0:0:0:
88,344,109700,6,0,B|132:340|164:320|176:272|176:272|188:236|236:232|256:260|256:260|288:328|288:328|320:368|372:352|380:312|372:280|340:264|340:264|308:200,1,525,4|0,0:0|0:0,0:0:0:0:
408,224,110854,6,0,B|436:256|440:284|440:284|504:284|504:284|512:240|480:196|456:172|456:172|476:92|476:92|440:52|400:52|364:80|364:80|276:80,1,525,4|0,0:0|0:0,0:0:0:0:
208,80,112008,6,0,L|156:72,2,37.5,4|0|0,0:0|0:0|0:0,0:0:0:0:
144,160,112296,2,0,L|104:168,2,37.5
160,256,112585,2,0,L|128:288,2,37.5,4|0|0,0:0|0:0|0:0,0:0:0:0:
244,308,112873,2,0,L|236:364,2,37.5
304,236,113162,6,0,L|276:156,3,75,4|0|0|0,0:0|0:0|0:0|0:0,0:0:0:0:
388,188,113739,2,0,L|416:268,3,75
476,164,114316,6,0,P|452:124|412:108,3,75,4|0|0|0,0:0|0:0|0:0|0:0,0:0:0:0:
316,92,114891,2,0,P|280:84|232:92,3,75
136,124,115469,6,0,L|48:136,1,75,4|0,0:0|0:0,0:0:0:0:
120,228,115758,2,0,L|68:308,1,75
192,288,116046,2,0,L|204:364,1,75
300,304,116335,2,0,L|376:336,1,75
436,300,116623,5,4,0:0:0:0:
456,228,116767,1,0,0:0:0:0:
444,152,116912,1,0,0:0:0:0:
400,88,117056,1,0,0:0:0:0:
328,72,117200,2,0,L|244:76,1,75
176,136,117489,2,0,L|88:140,1,75
60,228,117776,6,0,P|64:348|176:288,1,262.5,4|0,0:0|0:0,0:0:0:0:
160,224,118426,6,0,B|204:212|232:244|232:244|256:284|308:272|308:272|340:228|288:184,1,262.5,4|0,0:0|0:0,0:0:0:0:
208,140,119075,6,0,B|160:132|108:136|68:188|72:240|72:240|80:292|124:316|176:304|176:304|220:356|292:352,1,450,4|4,0:0|0:0,0:0:0:0:
