osu file format v14

[General]
AudioFilename: ManieraZ.mp3
AudioLeadIn: 0
PreviewTime: 15951
Countdown: 0
SampleSet: Soft
StackLeniency: 0.3
Mode: 0
LetterboxInBreaks: 0
WidescreenStoryboard: 1

[Editor]
DistanceSpacing: 1.3
BeatDivisor: 3
GridSize: 32
TimelineZoom: 8

[Metadata]
Title:MANIERA
TitleUnicode:MANIERA
Artist:D(ABE3)
ArtistUnicode:D(ABE3)
Creator:SakiZ
Version:Hoki's Insane
Source:BMS
Tags:piano abe yuta dwmω atheon mark101 hikan hokichi skydevil refaller
BeatmapID:1257627
BeatmapSetID:336828

[Difficulty]
HPDrainRate:6
CircleSize:4
OverallDifficulty:8
ApproachRate:9
SliderMultiplier:1.6
SliderTickRate:1

[Events]
//Background and Video events
0,0,"maniera bg resolution fixedZ.jpg",0,0
//Break Periods
2,6920,10735
2,49612,60350
//Storyboard Layer 0 (Background)
//Storyboard Layer 1 (Fail)
//Storyboard Layer 2 (Pass)
//Storyboard Layer 3 (Foreground)
//Storyboard Sound Samples

[TimingPoints]
951,288.461538461538,4,2,0,50,1,0
6287,-66.6666666666667,4,2,0,30,0,0
6576,-100,4,2,0,50,0,0
15950,-100,4,2,0,50,0,1
24604,-100,4,2,0,50,0,0
25470,-71.4285714285714,4,2,0,50,0,0
25758,-100,4,2,0,50,0,0
26047,-71.4285714285714,4,2,0,50,0,0
26335,-100,4,2,0,50,0,0
27201,-100,4,2,0,50,0,0
27489,-100,4,2,0,50,0,0
27778,-71.4285714285714,4,2,0,50,0,0
28066,-100,4,2,0,50,0,0
28354,-100,4,2,0,50,0,0
28643,-100,4,2,0,50,0,0
29508,-100,4,2,0,50,0,0
29797,-100,4,2,0,50,0,0
30085,-71.4285714285714,4,2,0,50,0,0
30374,-100,4,2,0,50,0,0
30662,-100,4,2,0,50,0,0
30951,-100,4,2,0,50,0,0
32104,-100,4,2,0,50,0,0
32393,-71.4285714285714,4,2,0,50,0,0
32681,-100,4,2,0,50,0,0
32970,-71.4285714285714,4,2,0,50,0,0
33258,-100,4,2,0,50,0,0
40181,-100,4,2,0,50,0,1
48547,-66.6666666666667,4,2,0,30,0,1
48835,-100,4,2,0,50,0,0
60951,-100,4,2,0,50,0,0
62104,-400,4,2,0,50,0,0
63258,-100,4,2,0,50,0,0
66143,288.461538461538,4,2,0,50,1,1
74220,-100,4,2,0,50,0,1
77681,-100,4,2,0,50,0,1
78258,-100,4,2,0,30,0,1
78835,-100,4,2,0,30,0,0
90374,-100,4,2,0,40,0,0
90951,-100,4,2,0,50,0,0
92392,288.461538461538,4,2,0,30,1,0
92392,-133.333333333333,4,2,0,30,0,0
101622,-100,4,2,0,30,0,0
108545,-100,4,2,0,50,0,1
117776,-100,4,2,0,50,0,0

[Colours]
Combo1 : 0,200,255
Combo2 : 255,150,0
Combo3 : 80,200,0
Combo4 : 255,50,255

[HitObjects]
256,96,1672,6,0,L|254:158,1,40,0|0,0:0|0:0,0:0:0:0:
254,182,1816,1,0,0:0:0:0:
128,64,1960,1,0,0:0:0:0:
82,165,2104,5,6,0:0:0:0:
101,166,2176,1,0,0:0:0:0:
121,168,2248,1,0,0:0:0:0:
141,170,2320,1,0,0:0:0:0:
161,173,2393,6,0,L|167:250,3,40,0|0|0|0,0:0|0:0|0:0|0:0,0:0:0:0:
248,232,2681,2,0,L|208:280,1,40,0|0,0:0|0:0,0:0:0:0:
336,256,2825,2,0,L|368:280,1,40,0|0,0:0|0:0,0:0:0:0:
320,160,2970,2,0,L|324:99,3,40,0|0|0|0,0:0|0:0|0:0|0:0,0:0:0:0:
215,99,3258,6,0,L|211:38,3,40,2|0|0|0,0:0|0:0|0:0|0:0,0:0:0:0:
161,173,3547,2,0,P|136:184|112:184,3,40,0|0|0|0,0:0|0:0|0:0|0:0,0:0:0:0:
40,176,3835,2,0,L|32:236,1,40,0|0,0:0|0:0,0:0:0:0:
84,276,3979,1,0,0:0:0:0:
84,276,4051,1,0,0:0:0:0:
84,276,4124,2,0,P|37:292|10:292,3,40,0|0|0|0,0:0|0:0|0:0|0:0,0:0:0:0:
155,206,4412,6,0,P|142:138|156:97,1,80,2|0,0:0|0:0,0:0:0:0:
167,102,4628,1,0,0:0:0:0:
167,102,4700,2,0,L|51:102,1,80,0|0,0:0|0:0,0:0:0:0:
145,283,4989,2,0,P|157:218|148:188,1,80,2|0,0:0|0:0,0:0:0:0:
132,180,5205,1,0,0:0:0:0:
132,180,5277,2,0,L|35:180,1,80,0|0,0:0|0:0,0:0:0:0:
312,256,5566,6,0,P|298:189|314:149,1,80,2|0,0:0|0:0,0:0:0:0:
364,128,5782,1,0,0:0:0:0:
364,128,5854,2,0,P|378:195|362:235,1,80,2|0,0:0|0:0,0:0:0:0:
350,238,6071,1,0,0:0:0:0:
312,256,6143,1,2,0:0:0:0:
227,188,6287,6,0,P|197:110|81:169,1,240.000009155274,0|0,0:0|0:0,0:0:0:0:
155,172,6720,5,6,0:0:0:0:
204,216,11335,6,0,L|120:224,2,53.3333333333333,0|0|0,0:0|0:0|0:0,0:0:0:0:
272,140,11624,2,0,P|304:203|278:276,1,106.666666666667,8|0,0:0|0:0,0:0:0:0:
256,304,11912,6,0,P|240:353|245:373,2,53.3333333333333,0|0|0,0:0|0:0|0:0,0:0:0:0:
300,236,12200,2,0,L|452:236,1,106.666666666667,8|0,0:0|0:0,0:0:0:0:
471,177,12489,6,0,B|478:147|478:147|471:117,2,53.3333333333333,0|0|0,0:0|0:0|0:0,0:0:0:0:
406,236,12777,2,0,P|388:297|418:357,1,106.666666666667,8|0,0:0|0:0,0:0:0:0:
465,289,13066,6,0,L|521:286,2,53.3333333333333,0|0|0,0:0|0:0|0:0,0:0:0:0:
406,236,13354,2,0,P|424:175|394:115,1,106.666666666667,8|0,0:0|0:0,0:0:0:0:
330,76,13643,5,2,0:0:0:0:
200,110,13931,1,0,0:0:0:0:
200,110,14220,5,0,0:0:0:0:
210,318,14364,1,0,0:0:0:0:
210,318,14652,5,0,0:0:0:0:
406,284,14797,1,0,0:0:0:0:
356,137,14941,1,0,0:0:0:0:
356,137,15013,1,0,0:0:0:0:
356,137,15085,2,0,L|259:142,1,80,0|0,0:0|0:0,0:0:0:0:
72,289,15374,1,0,0:0:0:0:
247,288,15518,1,0,0:0:0:0:
247,288,15590,1,0,0:0:0:0:
247,288,15662,2,0,L|292:286,2,40,2|0|0,0:0|0:0|0:0,0:0:0:0:
112,184,15950,6,0,L|104:76,1,80,2|0,0:0|0:0,0:0:0:0:
240,136,16239,2,0,L|248:28,1,80,2|0,0:0|0:0,0:0:0:0:
352,116,16527,1,2,0:0:0:0:
379,213,16671,1,0,0:0:0:0:
333,304,16815,1,2,0:0:0:0:
238,339,16959,1,0,0:0:0:0:
254,212,17104,6,0,P|238:160|246:112,1,80,2|0,0:0|0:0,0:0:0:0:
224,58,17393,2,0,P|240:110|232:158,1,80,2|0,0:0|0:0,0:0:0:0:
75,111,17681,2,0,L|175:111,1,80,2|0,0:0|0:0,0:0:0:0:
177,133,17898,1,0,0:0:0:0:
177,133,17970,2,0,P|173:179|194:244,1,80,2|0,0:0|0:0,0:0:0:0:
277,277,18258,6,0,L|390:281,1,80,2|0,0:0|0:0,0:0:0:0:
341,187,18547,2,0,L|454:191,1,80,2|0,0:0|0:0,0:0:0:0:
296,117,18835,2,0,P|265:155|261:197,1,80,2|0,0:0|0:0,0:0:0:0:
288,280,19124,1,2,0:0:0:0:
203,324,19268,1,0,0:0:0:0:
203,324,19340,1,0,0:0:0:0:
203,324,19412,6,0,P|196:274|201:267,3,40,2|0|0|0,0:0|0:0|0:0|0:0,0:0:0:0:
191,243,19700,2,0,P|189:223|179:206,3,40,2|0|0|0,0:0|0:0|0:0|0:0,0:0:0:0:
141,171,19989,2,0,L|45:177,1,80,2|0,0:0|0:0,0:0:0:0:
32,145,20205,1,0,0:0:0:0:
32,145,20277,2,0,P|58:89|43:38,1,80,0|0,0:0|0:0,0:0:0:0:
161,57,20566,6,0,P|191:63|220:53,3,40,2|0|0|0,0:0|0:0|0:0|0:0,0:0:0:0:
267,27,20854,2,0,P|286:25|305:31,3,40,2|0|0|0,0:0|0:0|0:0|0:0,0:0:0:0:
326,62,21143,1,2,0:0:0:0:
318,80,21215,1,0,0:0:0:0:
313,99,21287,1,0,0:0:0:0:
312,119,21359,1,0,0:0:0:0:
317,140,21431,2,0,P|326:197|317:211,3,40,2|0|0|0,0:0|0:0|0:0|0:0,0:0:0:0:
254,244,21720,6,0,L|204:246,3,40,2|0|0|0,0:0|0:0|0:0|0:0,0:0:0:0:
333,263,22008,2,0,L|383:265,3,40,2|0|0|0,0:0|0:0|0:0|0:0,0:0:0:0:
311,187,22297,2,0,L|317:147,3,40,2|0|0|0,0:0|0:0|0:0|0:0,0:0:0:0:
329,112,22585,1,2,0:0:0:0:
333,92,22657,1,0,0:0:0:0:
337,72,22729,1,0,0:0:0:0:
341,53,22801,1,0,0:0:0:0:
345,33,22874,6,0,L|419:34,3,40,2|0|0|0,0:0|0:0|0:0|0:0,0:0:0:0:
439,91,23162,2,0,P|429:131|435:149,3,40,2|0|0|0,0:0|0:0|0:0|0:0,0:0:0:0:
454,206,23450,2,0,P|452:225|443:243,3,40,2|0|0|0,0:0|0:0|0:0|0:0,0:0:0:0:
381,295,23739,2,0,L|335:295,3,40,2|0|0|0,0:0|0:0|0:0|0:0,0:0:0:0:
259,284,24027,6,0,P|243:226|239:220,3,40,2|0|0|0,0:0|0:0|0:0|0:0,0:0:0:0:
224,211,24316,1,2,0:0:0:0:
215,193,24388,1,0,0:0:0:0:
210,173,24460,1,0,0:0:0:0:
208,153,24532,1,0,0:0:0:0:
212,133,24604,2,0,L|126:144,1,80,2|0,0:0|0:0,0:0:0:0:
253,59,24893,2,0,L|339:70,1,80,0|0,0:0|0:0,0:0:0:0:
412,136,25181,6,0,P|402:188|403:205,3,40,2|0|0|0,0:0|0:0|0:0|0:0,0:0:0:0:
401,219,25470,1,4,0:0:0:0:
242,142,25758,6,0,P|252:90|251:73,3,40,2|0|0|0,0:0|0:0|0:0|0:0,0:0:0:0:
253,59,26047,1,4,0:0:0:0:
110,161,26335,6,0,L|103:257,1,80,4|0,0:0|0:0,0:0:0:0:
37,82,26624,2,0,L|31:161,1,80,0|0,0:0|0:0,0:0:0:0:
110,160,26912,1,0,0:0:0:0:
226,264,27056,1,0,0:0:0:0:
117,271,27200,1,0,0:0:0:0:
223,157,27345,2,0,L|235:117,1,40,8|0,0:0|0:0,0:0:0:0:
284,46,27489,6,0,P|308:48|341:37,3,40,2|0|0|0,0:0|0:0|0:0|0:0,0:0:0:0:
361,34,27777,1,4,0:0:0:0:
223,157,28066,6,0,P|199:159|166:148,3,40,2|0|0|0,0:0|0:0|0:0|0:0,0:0:0:0:
146,145,28354,1,4,0:0:0:0:
61,72,28499,2,0,L|66:28,1,40,0|0,0:0|0:0,0:0:0:0:
141,105,28643,6,0,L|149:180,3,40,4|0|0|0,0:0|0:0|0:0|0:0,0:0:0:0:
150,229,28931,2,0,L|142:304,3,40,0|0|0|0,0:0|0:0|0:0|0:0,0:0:0:0:
179,342,29220,2,0,P|212:346|237:339,3,40,0|0|0|0,0:0|0:0|0:0|0:0,0:0:0:0:
298,318,29508,2,0,P|336:306|408:319,1,80,0|8,0:0|0:0,0:0:0:0:
404,209,29797,6,0,L|411:134,3,40,2|0|0|0,0:0|0:0|0:0|0:0,0:0:0:0:
385,135,30085,1,4,0:0:0:0:
162,223,30374,6,0,L|155:298,3,40,2|0|0|0,0:0|0:0|0:0|0:0,0:0:0:0:
181,297,30662,1,4,0:0:0:0:
225,155,30806,1,0,0:0:0:0:
292,260,30950,6,0,L|386:257,1,80,6|2,0:0|0:0,0:0:0:0:
304,152,31239,2,0,L|224:154,1,80,2|2,0:0|0:0,0:0:0:0:
112,92,31527,1,2,0:0:0:0:
112,92,31672,1,2,0:0:0:0:
81,223,31816,1,2,0:0:0:0:
81,223,31960,1,8,0:0:0:0:
208,149,32104,6,0,L|270:148,3,40,2|0|0|0,0:0|0:0|0:0|0:0,0:0:0:0:
292,147,32393,1,4,0:0:0:0:
152,301,32681,6,0,L|90:302,3,40,2|0|0|0,0:0|0:0|0:0|0:0,0:0:0:0:
68,303,32970,1,4,0:0:0:0:
242,238,33114,1,0,0:0:0:0:
333,201,33258,6,0,L|334:110,1,80,10|2,0:0|0:0,0:0:0:0:
410,276,33547,2,0,L|411:185,1,80,2|2,0:0|0:0,0:0:0:0:
452,85,33835,1,2,0:0:0:0:
452,85,33979,1,2,0:0:0:0:
306,146,34124,1,2,0:0:0:0:
306,146,34268,1,2,0:0:0:0:
172,191,34412,6,0,P|164:248|179:285,1,80,10|2,0:0|0:0,0:0:0:0:
306,146,34700,2,0,P|267:136|228:144,1,80,2|2,0:0|0:0,0:0:0:0:
349,280,34989,2,0,P|358:241|350:202,1,80,2|2,0:0|0:0,0:0:0:0:
215,321,35277,2,0,P|253:330|292:322,1,80,2|2,0:0|0:0,0:0:0:0:
263,222,35566,5,10,0:0:0:0:
196,140,35710,1,2,0:0:0:0:
235,230,35854,1,2,0:0:0:0:
210,137,35999,1,2,0:0:0:0:
251,57,36143,2,0,P|305:63|354:46,1,80,10|2,0:0|0:0,0:0:0:0:
251,57,36431,2,0,P|197:51|148:68,1,80,2|2,0:0|0:0,0:0:0:0:
80,175,36720,6,0,L|72:82,1,80,8|0,0:0|0:0,0:0:0:0:
194,282,37008,2,0,L|202:189,1,80,8|0,0:0|0:0,0:0:0:0:
270,110,37297,1,8,0:0:0:0:
270,110,37441,1,0,0:0:0:0:
105,132,37585,1,8,0:0:0:0:
105,132,37729,1,0,0:0:0:0:
192,200,37874,6,0,L|194:290,1,80,10|0,0:0|0:0,0:0:0:0:
320,297,38162,1,4,0:0:0:0:
320,297,38450,5,0,0:0:0:0:
373,154,38595,1,0,0:0:0:0:
373,154,38883,5,0,0:0:0:0:
212,134,39027,1,0,0:0:0:0:
94,181,39172,2,0,L|32:185,2,40,0|0|0,0:0|0:0|0:0,0:0:0:0:
212,134,39460,1,0,0:0:0:0:
157,293,39604,1,0,0:0:0:0:
271,247,39749,2,0,L|327:255,1,40,0|0,0:0|0:0,0:0:0:0:
375,292,39893,2,0,P|368:243|381:196,1,80,2|0,0:0|0:0,0:0:0:0:
404,128,40181,6,0,P|408:76|400:52,3,40,6|0|0|0,0:0|0:0|0:0|0:0,0:0:0:0:
336,32,40470,2,0,P|284:28|260:36,3,40,2|0|0|0,0:0|0:0|0:0|0:0,0:0:0:0:
264,36,40758,1,2,0:0:0:0:
251,51,40830,1,0,0:0:0:0:
243,69,40902,1,0,0:0:0:0:
239,89,40974,1,0,0:0:0:0:
241,109,41047,2,0,L|168:112,1,40,2|0,0:0|0:0,0:0:0:0:
268,183,41191,2,0,L|341:186,1,40,0|0,0:0|0:0,0:0:0:0:
373,154,41335,6,0,P|381:186|373:214,3,40,2|0|0|0,0:0|0:0|0:0|0:0,0:0:0:0:
373,70,41624,2,0,P|396:47|424:40,3,40,2|0|0|0,0:0|0:0|0:0|0:0,0:0:0:0:
301,102,41912,2,0,P|269:92|249:71,3,40,2|0|0|0,0:0|0:0|0:0|0:0,0:0:0:0:
245,81,42200,1,2,0:0:0:0:
227,70,42272,1,0,0:0:0:0:
208,64,42344,1,0,0:0:0:0:
188,63,42416,1,0,0:0:0:0:
170,68,42489,6,0,L|165:119,3,40,2|0|0|0,0:0|0:0|0:0|0:0,0:0:0:0:
141,190,42777,2,0,P|146:213|146:241,1,40,2|0,0:0|0:0,0:0:0:0:
202,294,42922,2,0,P|229:287|260:295,1,40,0|0,0:0|0:0,0:0:0:0:
274,359,43066,2,0,P|234:362|217:356,3,40,2|0|0|0,0:0|0:0|0:0|0:0,0:0:0:0:
343,289,43354,2,0,L|337:218,1,40,2|0,0:0|0:0,0:0:0:0:
285,149,43499,2,0,L|281:188,1,40,0|0,0:0|0:0,0:0:0:0:
205,232,43643,6,0,L|166:241,3,40,2|0|0|0,0:0|0:0|0:0|0:0,0:0:0:0:
254,299,43931,2,0,L|201:328,3,40,2|0|0|0,0:0|0:0|0:0|0:0,0:0:0:0:
359,217,44220,1,10,0:0:0:0:
354,304,44364,1,0,0:0:0:0:
449,177,44508,1,0,0:0:0:0:
285,149,44652,1,0,0:0:0:0:
186,248,44797,6,0,P|155:254|118:248,3,40,6|0|0|0,0:0|0:0|0:0|0:0,0:0:0:0:
78,206,45085,2,0,P|58:206|38:211,3,40,2|0|0|0,0:0|0:0|0:0|0:0,0:0:0:0:
17,251,45374,1,2,0:0:0:0:
16,270,45446,1,0,0:0:0:0:
16,290,45518,1,0,0:0:0:0:
16,310,45590,1,0,0:0:0:0:
17,332,45662,2,0,L|71:340,1,40,2|0,0:0|0:0,0:0:0:0:
152,338,45806,2,0,L|206:330,1,40,0|0,0:0|0:0,0:0:0:0:
268,273,45950,6,0,B|274:243|274:243|274:213,3,40,2|0|0|0,0:0|0:0|0:0|0:0,0:0:0:0:
363,172,46239,2,0,B|333:166|333:166|303:166,3,40,2|0|0|0,0:0|0:0|0:0|0:0,0:0:0:0:
246,94,46527,2,0,B|240:124|240:124|240:154,3,40,2|0|0|0,0:0|0:0|0:0|0:0,0:0:0:0:
151,195,46816,2,0,B|181:201|181:201|211:201,3,40,2|0|0|0,0:0|0:0|0:0|0:0,0:0:0:0:
229,186,47104,5,6,0:0:0:0:
247,179,47176,1,0,0:0:0:0:
267,178,47248,1,0,0:0:0:0:
287,180,47320,1,0,0:0:0:0:
308,189,47393,2,0,L|305:253,3,40,2|0|0|0,0:0|0:0|0:0|0:0,0:0:0:0:
294,309,47681,2,0,P|261:311|222:298,1,40,2|0,0:0|0:0,0:0:0:0:
174,275,47825,2,0,P|154:273|134:276,1,40,0|0,0:0|0:0,0:0:0:0:
45,255,47970,2,0,L|46:186,3,40,2|0|0|0,0:0|0:0|0:0|0:0,0:0:0:0:
98,130,48258,6,0,P|122:136|146:129,1,40,2|0,0:0|0:0,0:0:0:0:
109,57,48402,2,0,P|85:51|61:58,1,40,0|0,0:0|0:0,0:0:0:0:
21,125,48547,6,0,P|16:197|177:231,1,240.000009155274,2|10,0:0|0:0,0:0:0:0:
250,75,49268,5,0,0:0:0:0:
250,75,49412,1,0,0:0:0:0:
252,312,60950,5,2,0:0:0:0:
252,312,61239,2,0,P|244:244|268:204,1,106.666666666667,6|0,0:0|0:0,0:0:0:0:
416,224,61527,2,0,P|361:264|314:264,1,106.666666666667,2|0,0:0|0:0,0:0:0:0:
260,123,61816,2,0,P|322:150|345:190,1,106.666666666667,2|0,0:0|0:0,0:0:0:0:
260,211,62104,6,0,P|160:216|108:182,1,160,6|0,0:0|0:0,0:0:0:0:
80,99,63547,5,2,0:0:0:0:
80,99,63835,2,0,L|40:24,1,80,0|2,0:0|0:0,0:0:0:0:
290,169,64268,1,0,0:0:0:0:
290,169,64412,6,0,L|326:244,1,80,2|2,0:0|2:0,0:0:0:0:
333,286,64628,1,0,0:0:0:0:
333,286,64700,1,0,0:0:0:0:
178,332,64845,1,0,2:0:0:0:
86,230,64989,1,2,0:0:0:0:
159,124,65133,6,0,P|166:77|159:62,2,40,0|0|2,0:0|0:0|0:0,0:0:0:0:
86,230,65422,1,0,0:0:0:0:
236,204,65566,2,0,L|344:200,1,80,2|2,0:0|0:0,0:0:0:0:
344,200,65782,1,0,0:0:0:0:
344,200,65854,2,0,P|332:156|344:96,1,80,0|0,0:0|0:0,0:0:0:0:
216,40,66143,6,0,L|128:40,1,80,6|2,0:0|0:0,0:0:0:0:
254,122,66431,2,0,L|334:122,1,80,10|2,0:0|0:0,0:0:0:0:
424,92,66719,1,2,0:0:0:0:
404,252,66864,1,2,0:0:0:0:
304,201,67008,1,10,0:0:0:0:
472,188,67152,1,2,0:0:0:0:
407,344,67296,6,0,P|369:355|307:343,1,80,2|2,0:0|0:0,0:0:0:0:
326,259,67585,2,0,P|364:248|426:260,1,80,10|2,0:0|0:0,0:0:0:0:
267,318,67873,2,0,P|247:270|261:212,1,80,2|2,0:0|0:0,0:0:0:0:
259,218,68090,1,0,0:0:0:0:
259,218,68162,2,0,P|258:178|240:142,1,80,10|2,0:0|0:0,0:0:0:0:
135,98,68450,5,2,0:0:0:0:
87,250,68594,1,2,0:0:0:0:
28,175,68739,1,10,0:0:0:0:
175,197,68883,1,2,0:0:0:0:
292,118,69027,2,0,L|382:116,2,80,2|2|10,0:0|0:0|0:0,0:0:0:0:
135,98,69460,2,0,L|131:51,1,40,2|0,0:0|0:0,0:0:0:0:
58,117,69604,6,0,P|55:143|60:168,3,40,10|0|0|0,0:0|0:0|0:0|0:0,0:0:0:0:
86,247,69893,2,0,P|87:275|84:295,3,40,8|0|0|0,0:0|0:0|0:0|0:0,0:0:0:0:
163,342,70181,2,0,L|255:339,1,80,10|0,0:0|0:0,0:0:0:0:
326,239,70469,2,0,L|246:241,1,80,0|0,0:0|0:0,0:0:0:0:
160,167,70758,6,0,P|150:117|155:96,3,40,2|0|0|0,0:0|0:0|0:0|0:0,0:0:0:0:
240,86,71046,2,0,P|237:105|229:124,3,40,8|0|0|0,0:0|0:0|0:0|0:0,0:0:0:0:
245,169,71335,1,2,0:0:0:0:
238,187,71407,1,0,0:0:0:0:
235,207,71479,1,0,0:0:0:0:
236,227,71551,1,0,0:0:0:0:
241,246,71623,2,0,L|310:246,3,40,8|0|0|0,0:0|0:0|0:0|0:0,0:0:0:0:
375,246,71912,6,0,P|378:204|374:174,3,40,2|0|0|0,0:0|0:0|0:0|0:0,0:0:0:0:
402,324,72200,2,0,P|436:347|464:359,3,40,8|0|0|0,0:0|0:0|0:0|0:0,0:0:0:0:
315,309,72489,2,0,P|277:327|253:345,3,40,2|0|0|0,0:0|0:0|0:0|0:0,0:0:0:0:
256,340,72777,1,8,0:0:0:0:
236,340,72849,1,0,0:0:0:0:
216,340,72921,1,0,0:0:0:0:
196,340,72993,1,0,0:0:0:0:
177,340,73066,6,0,L|159:269,1,40,10|0,0:0|0:0,0:0:0:0:
100,227,73210,2,0,L|82:298,1,40,0|0,0:0|0:0,0:0:0:0:
191,214,73354,2,0,L|244:203,3,40,8|0|0|0,0:0|0:0|0:0|0:0,0:0:0:0:
318,162,73642,2,0,P|310:129|317:108,1,40,10|0,0:0|0:0,0:0:0:0:
395,205,73787,2,0,P|403:238|396:259,1,40,0|0,0:0|0:0,0:0:0:0:
330,306,73931,2,0,L|267:309,3,40,8|0|0|0,0:0|0:0|0:0|0:0,0:0:0:0:
204,278,74219,5,10,0:0:0:0:
134,198,74364,1,0,0:0:0:0:
134,198,74436,1,0,0:0:0:0:
134,198,74508,2,0,P|124:149|135:126,3,40,0|0|0|0,0:0|0:0|0:0|0:0,0:0:0:0:
163,88,74796,2,0,L|257:99,1,80,8|0,0:0|0:0,0:0:0:0:
95,138,75085,2,0,L|1:149,1,80,0|0,0:0|0:0,0:0:0:0:
170,180,75373,5,10,0:0:0:0:
245,126,75517,1,0,0:0:0:0:
245,126,75590,1,0,0:0:0:0:
245,126,75662,2,0,L|310:95,3,40,0|0|0|0,0:0|0:0|0:0|0:0,0:0:0:0:
326,85,75950,2,0,L|326:176,1,80,8|0,0:0|0:0,0:0:0:0:
302,199,76167,1,0,0:0:0:0:
302,199,76239,2,0,L|302:290,1,80,0|0,0:0|0:0,0:0:0:0:
214,340,76527,5,10,0:0:0:0:
98,272,76671,2,0,L|81:226,2,40,0|0|8,0:0|0:0|0:0,0:0:0:0:
195,200,76960,2,0,L|212:154,2,40,0|0|8,0:0|0:0|0:0,0:0:0:0:
95,125,77248,1,0,0:0:0:0:
88,106,77320,1,0,0:0:0:0:
81,86,77392,2,0,P|115:83|133:76,3,40,8|0|0|0,0:0|0:0|0:0|0:0,0:0:0:0:
188,38,77681,6,0,L|259:39,3,40,8|0|0|0,0:0|0:0|0:0|0:0,0:0:0:0:
294,83,77969,2,0,L|365:84,3,40,0|0|0|0,0:0|0:0|0:0|0:0,0:0:0:0:
386,150,78258,2,0,P|380:178|382:195,11,26.6666666666667,2|0|0|0|0|0|0|0|0|0|0|0,0:0|0:0|0:0|0:0|0:0|0:0|0:0|0:0|0:0|0:0|0:0|0:0,0:0:0:0:
385,224,78835,5,4,0:0:0:0:
316,309,78979,1,0,0:0:0:0:
316,309,79051,1,0,0:0:0:0:
316,309,79123,2,0,P|283:315|256:311,3,40,0|0|0|0,0:0|0:0|0:0|0:0,0:0:0:0:
189,282,79412,2,0,P|169:282|149:287,3,40,0|0|0|0,0:0|0:0|0:0|0:0,0:0:0:0:
62,246,79700,2,0,L|51:184,3,40,0|0|0|0,0:0|0:0|0:0|0:0,0:0:0:0:
88,107,79989,6,0,P|125:109|139:103,3,40,4|0|0|0,0:0|0:0|0:0|0:0,0:0:0:0:
212,70,80277,2,0,L|223:124,3,40,0|0|0|0,0:0|0:0|0:0|0:0,0:0:0:0:
165,182,80566,2,0,L|154:236,3,40,0|8|8|8,0:0|0:0|0:0|0:0,0:0:0:0:
156,268,80854,1,0,0:0:0:0:
175,268,80926,1,0,0:0:0:0:
195,268,80998,1,0,0:0:0:0:
215,268,81070,1,0,0:0:0:0:
234,269,81142,6,0,P|241:202|223:164,1,80,2|0,0:0|0:0,0:0:0:0:
217,164,81359,1,0,0:0:0:0:
217,164,81431,2,0,L|112:162,1,80,2|0,0:0|0:0,0:0:0:0:
328,98,81719,2,0,L|407:99,1,80,2|0,0:0|0:0,0:0:0:0:
433,129,81936,1,0,0:0:0:0:
433,129,82008,2,0,P|423:181|437:218,1,80,2|0,0:0|0:0,0:0:0:0:
392,308,82296,6,0,P|341:322|303:310,1,80,2|0,0:0|0:0,0:0:0:0:
266,250,82513,1,0,0:0:0:0:
266,250,82585,2,0,P|303:236|342:241,1,80,2|0,0:0|0:0,0:0:0:0:
375,222,82801,1,0,0:0:0:0:
375,222,82873,2,0,L|375:118,1,80,2|0,0:0|0:0,0:0:0:0:
359,106,83090,1,0,0:0:0:0:
359,106,83162,1,2,0:0:0:0:
246,59,83306,1,4,0:0:0:0:
141,125,83450,5,2,0:0:0:0:
114,228,83594,2,0,L|108:283,2,40,0|0|2,0:0|0:0|0:0,0:0:0:0:
141,125,83883,1,0,0:0:0:0:
223,286,84027,1,2,0:0:0:0:
223,188,84171,1,0,0:0:0:0:
223,188,84243,1,0,0:0:0:0:
223,188,84315,2,0,L|217:133,3,40,2|0|0|0,0:0|0:0|0:0|0:0,0:0:0:0:
236,67,84604,6,0,P|273:79|328:61,1,80,2|0,0:0|0:0,0:0:0:0:
345,46,84820,1,0,0:0:0:0:
345,46,84892,2,0,L|344:140,1,80,2|0,0:0|0:0,0:0:0:0:
327,160,85109,1,0,0:0:0:0:
327,160,85181,2,0,L|326:254,1,80,2|0,0:0|0:0,0:0:0:0:
306,267,85397,1,0,0:0:0:0:
306,267,85469,1,2,0:0:0:0:
184,295,85614,1,4,0:0:0:0:
225,107,85758,5,2,0:0:0:0:
225,107,86335,1,2,0:0:0:0:
85,229,86912,5,2,0:0:0:0:
85,229,87489,1,2,0:0:0:0:
238,235,88066,6,0,L|305:225,7,40,2|0|0|0|0|0|0|0,0:0|0:0|0:0|0:0|0:0|0:0|0:0|0:0,0:0:0:0:
166,184,88642,2,0,L|126:178,7,40,8|0|0|0|0|0|0|0,0:0|0:0|0:0|0:0|0:0|0:0|0:0|0:0,0:0:0:0:
262,144,89219,6,0,P|266:119|266:98,7,40,0|0|0|0|0|0|0|0,0:0|0:0|0:0|0:0|0:0|0:0|0:0|0:0,0:0:0:0:
320,208,89796,2,0,P|316:233|316:254,7,40,8|0|0|0|0|0|8|0,0:0|0:0|0:0|0:0|0:0|0:0|0:0|0:0,0:0:0:0:
252,306,90373,6,0,P|223:313|200:306,1,40,8|0,0:0|0:0,0:0:0:0:
140,276,90517,2,0,P|120:274|101:281,1,40,8|0,0:0|0:0,0:0:0:0:
37,218,90662,2,0,L|32:106,1,80,8|8,0:0|0:0,0:0:0:0:
140,276,90950,2,0,L|145:164,1,80,8|0,0:0|0:0,0:0:0:0:
237,128,91239,2,0,L|299:126,2,53.3333333333333,8|8|8,0:0|0:0|0:0,0:0:0:0:
147,273,92392,6,0,P|99:211|226:142,1,240.000009155274,2|0,0:0|0:0,0:0:0:0:
296,245,93257,1,2,0:0:0:0:
175,201,93545,2,0,L|471:197,1,240.000009155274,0|0,0:0|0:0,0:0:0:0:
297,122,94411,1,0,0:0:0:0:
157,115,94699,6,0,B|140:192|140:192|152:269|152:269|136:359,1,240.000009155274,2|0,0:0|0:0,0:0:0:0:
261,314,95565,1,0,0:0:0:0:
282,203,95853,5,0,0:0:0:0:
197,117,96142,2,0,L|114:113,1,60.0000022888184,0|0,0:0|0:0,0:0:0:0:
97,108,96430,2,0,P|79:168|107:235,1,120.000004577637,0|0,0:0|0:0,0:0:0:0:
202,281,97007,6,0,P|276:248|214:324,1,240.000009155274,2|0,0:0|0:0,0:0:0:0:
138,218,97872,1,2,0:0:0:0:
213,159,98161,6,0,P|310:164|390:289,1,240.000009155274,0|0,0:0|0:0,0:0:0:0:
138,218,99026,1,0,0:0:0:0:
123,117,99315,2,0,L|123:-33,2,120.000004577637,2|0|8,0:0|0:0|0:0,0:0:0:0:
237,164,100180,2,0,L|314:164,1,60.0000022888184,0|0,0:0|0:0,0:0:0:0:
395,174,100468,6,0,P|406:131|394:98,1,60.0000022888184,2|0,0:0|0:0,0:0:0:0:
327,223,100757,2,0,P|358:254|393:260,1,60.0000022888184,0|0,0:0|0:0,0:0:0:0:
318,140,101045,2,0,P|275:151|252:178,1,60.0000022888184,8|0,0:0|0:0,0:0:0:0:
217,238,101334,2,0,L|225:285,3,30.0000011444092,0|0|0|0,0:0|0:0|0:0|0:0,0:0:0:0:
206,309,101622,6,0,L|40:307,2,160,2|8|0,0:0|0:0|0:0,0:0:0:0:
314,289,102343,1,0,0:0:0:0:
368,213,102488,2,0,P|372:168|358:123,1,80,8|0,0:0|0:0,0:0:0:0:
287,100,102776,6,0,P|217:97|205:11,2,160,0|8|0,0:0|0:0|0:0,0:0:0:0:
361,40,103497,1,0,0:0:0:0:
415,116,103641,2,0,B|421:157|421:157|414:206,1,80,8|0,0:0|0:0,0:0:0:0:
316,248,103930,6,0,B|248:248|248:248|208:268|208:268|128:268,2,160,2|8|0,0:0|0:0|0:0,0:0:0:0:
408,264,104651,1,0,0:0:0:0:
376,176,104795,1,8,0:0:0:0:
316,248,104940,1,0,0:0:0:0:
216,252,105084,6,0,P|184:172|232:96,2,160,0|8|0,0:0|0:0|0:0,0:0:0:0:
300,296,105805,2,0,L|384:300,2,80,0|8|0,0:0|0:0|0:0,0:0:0:0:
120,288,106238,6,0,P|64:288|40:300,2,53.3333333333333,2|0|0,0:0|0:0|0:0,0:0:0:0:
176,352,106526,2,0,L|176:208,1,106.666666666667,10|0,0:0|0:0,0:0:0:0:
234,200,106815,2,0,L|294:200,2,53.3333333333333,2|0|0,0:0|0:0|0:0,0:0:0:0:
176,138,107103,2,0,L|176:244,1,106.666666666667,10|0,0:0|0:0,0:0:0:0:
95,277,107391,6,0,P|68:286|37:282,2,53.3333333333333,2|0|0,0:0|0:0|0:0,0:0:0:0:
176,244,107680,2,0,P|242:231|288:243,1,106.666666666667,10|0,0:0|0:0,0:0:0:0:
355,280,107968,2,0,L|432:278,5,53.3333333333333,2|0|0|8|0|0,0:0|0:0|0:0|0:0|0:0|0:0,0:0:0:0:
273,251,108545,5,6,0:0:0:0:
203,186,109699,5,6,0:0:0:0:
297,158,110853,5,6,0:0:0:0:
166,182,112007,6,0,P|154:149|171:114,3,40,10|0|0|0,0:0|0:0|0:0|0:0,0:0:0:0:
186,102,112295,1,0,0:0:0:0:
225,101,112367,1,0,0:0:0:0:
265,101,112439,1,0,0:0:0:0:
305,100,112511,1,0,0:0:0:0:
345,100,112584,5,0,0:0:0:0:
338,118,112656,1,0,0:0:0:0:
335,138,112728,1,0,0:0:0:0:
338,158,112800,1,0,0:0:0:0:
346,178,112872,2,0,P|354:225|348:241,3,40,0|0|0|0,0:0|0:0|0:0|0:0,0:0:0:0:
259,206,113161,6,0,L|179:206,1,80,14|2,0:0|0:0,0:0:0:0:
311,272,113449,2,0,L|391:272,1,80,2|2,0:0|0:0,0:0:0:0:
325,152,113738,1,2,0:0:0:0:
325,152,113882,1,2,0:0:0:0:
216,207,114026,1,2,0:0:0:0:
216,207,114170,1,2,0:0:0:0:
146,79,114315,6,0,P|132:24|158:-15,1,80,14|2,0:0|0:0,0:0:0:0:
209,132,114603,2,0,P|224:168|215:206,1,80,2|2,0:0|0:0,0:0:0:0:
134,296,114891,1,2,0:0:0:0:
255,295,115036,1,2,0:0:0:0:
197,359,115180,1,2,0:0:0:0:
195,222,115324,1,2,0:0:0:0:
274,138,115468,6,0,L|375:140,1,80,14|2,0:0|0:0,0:0:0:0:
242,68,115757,2,0,P|198:133|204:163,1,80,2|2,0:0|0:0,0:0:0:0:
294,227,116045,1,2,0:0:0:0:
294,227,116190,1,2,0:0:0:0:
422,171,116334,1,2,0:0:0:0:
422,171,116478,1,2,0:0:0:0:
305,124,116622,6,0,L|212:127,1,80,14|2,0:0|0:0,0:0:0:0:
194,129,116839,1,0,0:0:0:0:
194,129,116911,2,0,P|175:178|186:218,1,80,2|2,0:0|0:0,0:0:0:0:
254,313,117199,1,2,0:0:0:0:
254,313,117343,1,2,0:0:0:0:
257,178,117488,1,2,0:0:0:0:
257,178,117632,1,2,0:0:0:0:
258,79,117776,6,0,L|83:78,1,160,6|0,0:0|0:0,0:0:0:0:
289,199,118425,2,0,L|448:199,1,160,6|0,0:0|0:0,0:0:0:0:
172,292,119122,1,2,0:0:0:0:
128,192,119327,2,0,B|121:126|121:126|130:68,2,120,8|0|0,0:0|0:0|0:0,0:0:0:0:
280,264,119976,5,0,0:0:0:0:
