osu file format v14

[General]
AudioFilename: ManieraZ.mp3
AudioLeadIn: 0
PreviewTime: 15951
Countdown: 0
SampleSet: Soft
StackLeniency: 0.4
Mode: 0
LetterboxInBreaks: 0
WidescreenStoryboard: 1

[Editor]
DistanceSpacing: 1.3
BeatDivisor: 3
GridSize: 32
TimelineZoom: 8

[Metadata]
Title:MANIERA
TitleUnicode:MANIERA
Artist:D(ABE3)
ArtistUnicode:D(ABE3)
Creator:SakiZ
Version:Hikan's Extra
Source:BMS
Tags:piano abe yuta dwmω atheon mark101 hikan hokichi skydevil refaller
BeatmapID:1229141
BeatmapSetID:336828

[Difficulty]
HPDrainRate:5.5
CircleSize:4
OverallDifficulty:8.5
ApproachRate:9.3
SliderMultiplier:1.6
SliderTickRate:1

[Events]
//Background and Video events
0,0,"maniera bg resolution fixedZ.jpg",0,0
//Break Periods
2,6872,10181
2,49612,58643
2,62304,62993
//Storyboard Layer 0 (Background)
//Storyboard Layer 1 (Fail)
//Storyboard Layer 2 (Pass)
//Storyboard Layer 3 (Foreground)
//Storyboard Sound Samples

[TimingPoints]
951,288.461538461538,4,2,0,50,1,0
2105,-100,4,2,0,50,0,0
6287,-66.6666666666667,4,2,0,30,0,0
6576,-66.6666666666667,4,2,0,50,0,0
11335,-100,4,2,0,50,0,0
15950,-100,4,2,0,50,0,1
20566,-100,4,2,0,50,0,1
24749,-100,4,2,0,50,0,0
40181,-100,4,2,0,50,0,1
48547,-100,4,2,0,30,0,1
48835,-100,4,2,0,50,0,0
61239,-166.666666666667,4,2,0,50,0,0
61528,-100,4,2,0,50,0,0
61816,-71.4285714285714,4,2,0,50,0,0
63547,-100,4,2,0,50,0,0
66143,288.461538461538,4,2,0,50,1,1
73066,-83.3333333333333,4,2,0,50,0,1
74219,-100,4,2,0,50,0,0
74796,-76.9230769230769,4,2,0,50,0,0
75517,-100,4,2,0,50,0,0
75950,-76.9230769230769,4,2,0,50,0,0
76527,-83.3333333333333,4,2,0,50,0,0
78258,-83.3333333333333,4,2,0,30,0,0
79556,-100,4,2,0,30,0,0
84892,-83.3333333333333,4,2,0,30,0,0
88066,-100,4,2,0,30,0,0
90374,-100,4,2,0,40,0,0
90951,-100,4,2,0,50,0,0
92392,288.461538461538,4,2,0,30,1,0
92392,-166.666666666667,4,2,0,30,0,0
101622,-117.647058823529,4,2,0,30,0,0
108545,-100,4,2,0,50,0,1
117776,-200,4,2,0,50,0,0
119315,-166.666666666667,4,2,0,50,0,0

[Colours]
Combo1 : 0,200,255
Combo2 : 255,150,0
Combo3 : 80,200,0
Combo4 : 255,50,255

[HitObjects]
144,288,951,5,0,0:0:0:0:
148,292,1239,1,0,0:0:0:0:
152,296,1528,1,0,0:0:0:0:
246,355,1672,6,0,P|285:359|315:352,1,40,0|0,0:0|0:0,0:0:0:0:
363,260,1816,2,0,P|356:299|362:330,1,40,0|0,0:0|0:0,0:0:0:0:
420,375,1960,1,0,0:0:0:0:
435,166,2104,1,6,0:0:0:0:
443,171,2826,6,0,P|407:182|368:179,1,40,0|0,0:0|0:0,0:0:0:0:
367,93,2970,2,0,P|346:124|314:147,1,40,0|0,0:0|0:0,0:0:0:0:
272,186,3114,1,0,0:0:0:0:
285,18,3258,1,2,0:0:0:0:
294,27,3979,6,0,P|297:55|298:88,1,40,0|0,0:0|0:0,0:0:0:0:
179,89,4124,2,0,P|201:71|229:55,1,40,0|0,0:0|0:0,0:0:0:0:
291,158,4268,1,0,0:0:0:0:
38,91,4412,5,2,0:0:0:0:
69,66,4484,1,0,0:0:0:0:
107,57,4556,1,0,0:0:0:0:
146,65,4628,1,0,0:0:0:0:
178,88,4701,2,0,L|173:197,1,80,0|0,0:0|0:0,0:0:0:0:
32,210,4989,5,2,0:0:0:0:
63,185,5061,1,0,0:0:0:0:
101,176,5133,1,0,0:0:0:0:
140,184,5205,1,0,0:0:0:0:
172,207,5278,2,0,L|166:315,1,80,0|0,0:0|0:0,0:0:0:0:
100,353,5566,5,2,0:0:0:0:
134,373,5638,1,0,0:0:0:0:
173,378,5710,1,0,0:0:0:0:
211,367,5782,1,0,0:0:0:0:
242,342,5854,1,2,0:0:0:0:
272,316,5927,1,0,0:0:0:0:
310,305,5999,1,0,0:0:0:0:
350,311,6071,1,0,0:0:0:0:
384,331,6143,2,0,L|390:253,1,40,2|0,0:0|0:0,0:0:0:0:
414,189,6287,6,0,L|408:130,1,40.000001525879,0|0,0:0|0:0,0:0:0:0:
404,197,6383,2,0,L|403:137,1,40.000001525879,0|0,0:0|0:0,0:0:0:0:
393,204,6479,2,0,L|397:144,1,40.000001525879,0|0,0:0|0:0,0:0:0:0:
381,210,6576,2,0,L|390:151,2,40.000001525879,0|0|0,0:0|0:0|0:0,0:0:0:0:
123,261,11335,5,0,0:0:0:0:
158,258,11431,1,0,0:0:0:0:
193,256,11527,1,0,0:0:0:0:
229,254,11623,1,8,0:0:0:0:
391,213,11912,5,0,0:0:0:0:
432,253,12008,1,0,0:0:0:0:
443,310,12104,1,0,0:0:0:0:
421,363,12200,1,8,0:0:0:0:
106,260,12489,5,0,0:0:0:0:
145,258,12585,1,0,0:0:0:0:
185,255,12681,1,0,0:0:0:0:
224,253,12777,1,8,0:0:0:0:
376,204,13066,5,0,0:0:0:0:
422,249,13162,1,0,0:0:0:0:
434,312,13258,1,0,0:0:0:0:
410,371,13354,1,8,0:0:0:0:
4,306,13643,5,2,0:0:0:0:
20,317,13931,1,0,0:0:0:0:
117,188,14076,1,0,0:0:0:0:
180,336,14220,1,0,0:0:0:0:
20,211,14364,1,0,0:0:0:0:
35,221,14653,5,0,0:0:0:0:
35,221,14797,1,0,0:0:0:0:
108,113,14941,2,0,L|156:116,2,40,0|0|0,0:0|0:0|0:0,0:0:0:0:
22,74,15229,5,0,0:0:0:0:
22,74,15374,1,0,0:0:0:0:
131,197,15518,2,0,L|180:193,2,40,0|0|2,0:0|0:0|0:0,0:0:0:0:
46,318,15806,1,0,0:0:0:0:
286,263,15951,5,2,0:0:0:0:
201,363,16095,1,0,0:0:0:0:
193,270,16239,1,2,0:0:0:0:
293,355,16383,1,0,0:0:0:0:
347,189,16528,5,2,0:0:0:0:
193,270,16672,1,0,0:0:0:0:
368,288,16816,1,2,0:0:0:0:
250,157,16960,1,0,0:0:0:0:
293,355,17104,5,2,0:0:0:0:
465,319,17249,1,0,0:0:0:0:
347,189,17393,1,2,0:0:0:0:
368,288,17537,1,0,0:0:0:0:
423,122,17681,5,2,0:0:0:0:
271,256,17826,1,0,0:0:0:0:
250,157,17970,1,2,0:0:0:0:
444,221,18114,1,0,0:0:0:0:
271,256,18258,5,2,0:0:0:0:
326,90,18403,1,0,0:0:0:0:
347,189,18547,1,2,0:0:0:0:
153,125,18691,1,0,0:0:0:0:
195,326,18835,5,2,0:0:0:0:
249,157,18979,1,0,0:0:0:0:
98,245,19124,1,2,0:0:0:0:
294,357,19268,2,0,L|365:346,1,40,0|0,0:0|0:0,0:0:0:0:
461,365,19412,5,2,0:0:0:0:
461,338,19484,1,0,0:0:0:0:
462,311,19556,1,0,0:0:0:0:
462,285,19628,1,0,0:0:0:0:
446,258,19701,5,2,0:0:0:0:
446,231,19773,1,0,0:0:0:0:
447,204,19845,1,0,0:0:0:0:
447,178,19917,1,0,0:0:0:0:
436,155,19989,5,2,0:0:0:0:
308,182,20133,6,0,L|367:172,1,40,0|0,0:0|0:0,0:0:0:0:
349,57,20278,2,0,L|328:113,1,40,0|0,0:0|0:0,0:0:0:0:
436,155,20422,2,0,L|397:108,1,40,0|0,0:0|0:0,0:0:0:0:
262,57,20566,5,2,0:0:0:0:
233,48,20638,1,0,0:0:0:0:
203,49,20710,1,0,0:0:0:0:
176,61,20782,1,0,0:0:0:0:
154,82,20854,1,2,0:0:0:0:
132,102,20927,1,0,0:0:0:0:
105,114,20999,1,0,0:0:0:0:
75,116,21071,1,0,0:0:0:0:
46,107,21143,6,0,L|50:171,3,40,2|0|0|0,0:0|0:0|0:0|0:0,0:0:0:0:
116,207,21431,2,0,L|120:271,3,40,2|0|0|0,0:0|0:0|0:0|0:0,0:0:0:0:
50,306,21720,2,0,L|-7:302,3,40,2|0|0|0,0:0|0:0|0:0|0:0,0:0:0:0:
163,367,22008,2,0,L|106:363,3,40,2|0|0|0,0:0|0:0|0:0|0:0,0:0:0:0:
241,312,22297,5,2,0:0:0:0:
265,310,22369,1,0,0:0:0:0:
290,309,22441,1,0,0:0:0:0:
315,308,22513,1,0,0:0:0:0:
340,307,22585,1,2,0:0:0:0:
365,306,22657,1,0,0:0:0:0:
390,305,22729,1,0,0:0:0:0:
415,303,22801,1,0,0:0:0:0:
440,302,22874,6,0,L|444:241,3,40,2|0|0|0,0:0|0:0|0:0|0:0,0:0:0:0:
483,163,23162,2,0,L|487:102,3,40,2|0|0|0,0:0|0:0|0:0|0:0,0:0:0:0:
413,28,23451,2,0,L|373:33,3,40,2|0|0|0,0:0|0:0|0:0|0:0,0:0:0:0:
336,144,23739,2,0,L|296:149,3,40,2|0|0|0,0:0|0:0|0:0|0:0,0:0:0:0:
196,101,24028,5,2,0:0:0:0:
184,64,24100,1,0,0:0:0:0:
154,41,24172,1,0,0:0:0:0:
117,36,24244,1,0,0:0:0:0:
83,52,24316,1,2,0:0:0:0:
64,84,24388,1,0,0:0:0:0:
64,122,24460,1,0,0:0:0:0:
84,153,24532,1,0,0:0:0:0:
113,166,24604,5,2,0:0:0:0:
280,77,24749,1,0,0:0:0:0:
273,266,24893,1,0,0:0:0:0:
221,174,25037,1,0,0:0:0:0:
441,242,25181,6,0,L|439:305,3,40,2|0|0|0,0:0|0:0|0:0|0:0,0:0:0:0:
437,381,25470,1,4,0:0:0:0:
117,305,25758,6,0,L|115:242,3,40,2|0|0|0,0:0|0:0|0:0|0:0,0:0:0:0:
113,166,26047,1,4,0:0:0:0:
379,35,26335,6,0,L|377:136,1,80,4|0,0:0|0:0,0:0:0:0:
398,223,26624,1,0,0:0:0:0:
300,196,26768,1,0,0:0:0:0:
417,204,26912,1,0,0:0:0:0:
281,215,27056,1,0,0:0:0:0:
359,328,27201,2,0,L|359:239,1,80,0|8,0:0|0:0,0:0:0:0:
205,57,27489,6,0,L|147:61,3,40,2|0|0|0,0:0|0:0|0:0|0:0,0:0:0:0:
50,70,27778,1,4,0:0:0:0:
332,135,28066,6,0,L|390:139,3,40,2|0|0|0,0:0|0:0|0:0|0:0,0:0:0:0:
487,148,28355,1,4,0:0:0:0:
139,351,28643,6,0,P|122:299|134:255,1,80,4|0,0:0|0:0,0:0:0:0:
159,181,28931,1,0,0:0:0:0:
159,181,29076,1,0,0:0:0:0:
206,303,29220,1,0,0:0:0:0:
206,303,29364,1,0,0:0:0:0:
41,259,29508,2,0,P|19:208|27:163,1,80,0|8,0:0|0:0,0:0:0:0:
205,57,29797,6,0,L|270:59,3,40,2|0|0|0,0:0|0:0|0:0|0:0,0:0:0:0:
389,62,30085,1,4,0:0:0:0:
320,302,30374,6,0,L|255:304,3,40,2|0|0|0,0:0|0:0|0:0|0:0,0:0:0:0:
136,307,30662,1,4,0:0:0:0:
436,245,30951,5,6,0:0:0:0:
423,355,31095,1,2,0:0:0:0:
429,219,31239,1,2,0:0:0:0:
397,48,31383,1,2,0:0:0:0:
346,190,31528,1,2,0:0:0:0:
479,76,31672,1,2,0:0:0:0:
330,104,31816,1,2,0:0:0:0:
495,162,31960,1,8,0:0:0:0:
316,307,32104,6,0,L|322:241,3,40,2|0|0|0,0:0|0:0|0:0|0:0,0:0:0:0:
330,104,32393,1,4,0:0:0:0:
56,18,32681,6,0,L|60:86,3,40,2|0|0|0,0:0|0:0|0:0|0:0,0:0:0:0:
74,224,32970,1,4,0:0:0:0:
74,224,33114,1,0,0:0:0:0:
210,88,33258,6,0,L|207:174,1,80,10|2,0:0|0:0,0:0:0:0:
383,94,33547,2,0,L|297:91,1,80,2|2,0:0|0:0,0:0:0:0:
377,267,33835,2,0,L|380:181,1,80,2|2,0:0|0:0,0:0:0:0:
204,261,34124,2,0,L|290:264,1,80,2|2,0:0|0:0,0:0:0:0:
447,346,34412,6,0,P|382:369|338:356,1,80,10|2,0:0|0:0,0:0:0:0:
315,197,34701,2,0,P|379:173|423:186,1,80,2|2,0:0|0:0,0:0:0:0:
306,337,34989,2,0,P|282:272|295:228,1,80,2|2,0:0|0:0,0:0:0:0:
456,206,35278,2,0,P|479:270|466:314,1,80,2|2,0:0|0:0,0:0:0:0:
389,174,35566,6,0,L|393:84,2,80,10|2|2,0:0|0:0|0:0,0:0:0:0:
209,293,36143,2,0,L|213:383,2,80,10|2|2,0:0|0:0|0:0,0:0:0:0:
184,28,36720,6,0,P|139:26|80:60,1,80,8|0,0:0|0:0,0:0:0:0:
175,106,37008,2,0,P|154:66|95:31,1,80,8|0,0:0|0:0,0:0:0:0:
102,137,37297,2,0,P|126:99|126:30,1,80,8|0,0:0|0:0,0:0:0:0:
38,89,37585,2,0,P|83:91|142:57,1,80,8|0,0:0|0:0,0:0:0:0:
47,9,37874,2,0,P|67:48|126:83,1,80,10|0,0:0|0:0,0:0:0:0:
240,121,38162,5,4,0:0:0:0:
260,112,38451,1,0,0:0:0:0:
429,97,38595,1,0,0:0:0:0:
439,108,38883,5,0,0:0:0:0:
439,108,39028,1,0,0:0:0:0:
342,213,39172,2,0,L|288:208,2,40,0|0|0,0:0|0:0|0:0,0:0:0:0:
436,245,39460,5,0,0:0:0:0:
439,249,39604,1,0,0:0:0:0:
345,129,39749,2,0,L|291:134,2,40,0|0|0,0:0|0:0|0:0,0:0:0:0:
465,21,40037,1,0,0:0:0:0:
329,227,40181,6,0,L|273:227,1,40,6|0,0:0|0:0,0:0:0:0:
198,165,40326,2,0,L|201:204,3,40,0|0|2|0,0:0|0:0|0:0|0:0,0:0:0:0:
120,79,40614,2,0,L|126:12,3,40,0|0|2|0,0:0|0:0|0:0|0:0,0:0:0:0:
32,163,40903,2,0,L|38:230,3,40,0|0|2|0,0:0|0:0|0:0|0:0,0:0:0:0:
119,295,41191,2,0,L|122:222,3,40,0|0|2|0,0:0|0:0|0:0|0:0,0:0:0:0:
206,364,41479,5,0,0:0:0:0:
206,364,41552,1,0,0:0:0:0:
206,364,41624,2,0,L|275:358,1,40,2|0,0:0|0:0,0:0:0:0:
355,307,41768,1,0,0:0:0:0:
355,307,41841,1,0,0:0:0:0:
355,307,41913,2,0,L|286:301,1,40,2|0,0:0|0:0,0:0:0:0:
209,257,42056,6,0,L|278:251,1,40,0|0,0:0|0:0,0:0:0:0:
365,230,42201,2,0,L|296:224,1,40,2|0,0:0|0:0,0:0:0:0:
219,180,42344,2,0,L|288:174,1,40,0|0,0:0|0:0,0:0:0:0:
375,153,42489,2,0,L|306:147,1,40,2|0,0:0|0:0,0:0:0:0:
229,102,42633,6,0,L|298:96,3,40,0|0|2|0,0:0|0:0|0:0|0:0,0:0:0:0:
94,75,42922,2,0,L|25:69,3,40,0|0|2|0,0:0|0:0|0:0|0:0,0:0:0:0:
175,21,43210,2,0,L|181:-47,3,40,0|0|2|0,0:0|0:0|0:0|0:0,0:0:0:0:
147,156,43499,2,0,L|153:225,1,40,0|0,0:0|0:0,0:0:0:0:
93,277,43643,5,2,0:0:0:0:
110,286,43715,1,0,0:0:0:0:
129,293,43787,1,0,0:0:0:0:
149,295,43859,1,0,0:0:0:0:
168,294,43931,1,2,0:0:0:0:
188,288,44003,1,0,0:0:0:0:
205,279,44075,1,0,0:0:0:0:
221,267,44147,1,0,0:0:0:0:
234,252,44219,5,10,0:0:0:0:
329,289,44364,2,0,L|327:349,1,40,0|0,0:0|0:0,0:0:0:0:
398,203,44508,2,0,L|400:263,1,40,0|0,0:0|0:0,0:0:0:0:
303,149,44653,2,0,L|305:209,1,40,0|0,0:0|0:0,0:0:0:0:
402,108,44797,6,0,L|405:48,1,40,6|0,0:0|0:0,0:0:0:0:
321,11,44942,2,0,L|281:14,3,40,0|0|0|0,0:0|0:0|0:0|0:0,0:0:0:0:
200,73,45229,2,0,L|156:71,3,40,0|0|2|0,0:0|0:0|0:0|0:0,0:0:0:0:
52,39,45518,2,0,L|54:-10,3,40,0|0|2|0,0:0|0:0|0:0|0:0,0:0:0:0:
2,135,45806,2,0,L|4:184,3,40,0|0|2|0,0:0|0:0|0:0|0:0,0:0:0:0:
101,232,46095,5,0,0:0:0:0:
101,232,46168,1,0,0:0:0:0:
101,232,46239,2,0,L|103:183,1,40,2|0,0:0|0:0,0:0:0:0:
15,275,46383,1,0,0:0:0:0:
15,275,46456,1,0,0:0:0:0:
15,275,46527,2,0,L|17:324,1,40,2|0,0:0|0:0,0:0:0:0:
117,364,46672,6,0,L|176:360,3,40,0|0|2|0,0:0|0:0|0:0|0:0,0:0:0:0:
257,294,46960,2,0,L|264:359,1,40,0|0,0:0|0:0,0:0:0:0:
391,309,47104,2,0,L|384:374,1,40,6|0,0:0|0:0,0:0:0:0:
241,175,47249,6,0,L|245:214,3,40,0|0|2|0,0:0|0:0|0:0|0:0,0:0:0:0:
408,188,47537,2,0,L|403:227,3,40,0|0|2|0,0:0|0:0|0:0|0:0,0:0:0:0:
208,52,47826,6,0,L|228:123,3,40,0|0|2|0,0:0|0:0|0:0|0:0,0:0:0:0:
439,74,48114,2,0,L|423:147,1,40,0|0,0:0|0:0,0:0:0:0:
396,227,48258,5,2,0:0:0:0:
395,231,48330,1,0,0:0:0:0:
391,234,48402,1,0,0:0:0:0:
386,233,48474,1,0,0:0:0:0:
382,231,48546,1,2,0:0:0:0:
382,226,48618,1,0,0:0:0:0:
383,222,48690,1,0,0:0:0:0:
388,219,48762,1,0,0:0:0:0:
392,221,48834,5,10,0:0:0:0:
394,225,49268,5,0,0:0:0:0:
400,42,49412,1,0,0:0:0:0:
227,204,60951,5,2,0:0:0:0:
247,207,61239,2,0,L|336:219,1,71.9999978027344,6|0,0:0|0:0,0:0:0:0:
413,180,61528,2,0,L|279:200,1,120,2|0,0:0|0:0,0:0:0:0:
217,160,61816,2,0,L|403:177,1,167.999994873047,2|0,0:0|0:0,0:0:0:0:
441,96,62104,5,6,0:0:0:0:
78,249,63547,6,0,P|135:227|178:238,1,80,2|0,0:0|0:0,0:0:0:0:
178,237,63763,1,0,0:0:0:0:
178,237,63835,2,0,L|181:183,1,40,0|0,0:0|0:0,0:0:0:0:
283,136,63979,2,0,L|293:304,1,160,2|0,0:0|0:0,0:0:0:0:
212,346,64412,5,2,0:0:0:0:
377,281,64556,2,0,L|429:285,2,40,2|0|0,2:0|0:0|0:0,0:0:0:0:
234,355,64845,1,0,2:0:0:0:
237,253,64989,1,2,0:0:0:0:
273,236,65061,1,0,0:0:0:0:
312,235,65133,1,0,0:0:0:0:
349,251,65205,1,0,0:0:0:0:
376,280,65277,1,2,0:0:0:0:
216,279,65422,5,0,0:0:0:0:
314,137,65566,1,2,0:0:0:0:
349,360,65710,2,0,L|289:356,2,40,2|0|0,0:0|0:0|0:0,0:0:0:0:
468,299,65999,1,0,0:0:0:0:
216,279,66143,5,6,0:0:0:0:
353,205,66287,1,2,0:0:0:0:
349,360,66431,1,10,0:0:0:0:
262,197,66575,1,2,0:0:0:0:
409,134,66719,5,2,0:0:0:0:
390,282,66864,1,2,0:0:0:0:
300,64,67008,1,10,0:0:0:0:
489,103,67152,1,2,0:0:0:0:
366,21,67296,5,2,0:0:0:0:
161,57,67441,1,2,0:0:0:0:
257,271,67585,1,10,0:0:0:0:
300,64,67729,1,2,0:0:0:0:
69,191,67873,5,2,0:0:0:0:
288,141,68018,1,2,0:0:0:0:
115,124,68162,1,10,0:0:0:0:
316,144,68306,1,2,0:0:0:0:
23,258,68450,5,2,0:0:0:0:
160,337,68594,1,2,0:0:0:0:
115,124,68739,1,10,0:0:0:0:
98,262,68883,1,2,0:0:0:0:
247,210,69027,5,2,0:0:0:0:
69,191,69171,1,2,0:0:0:0:
210,125,69316,1,10,0:0:0:0:
98,262,69460,2,0,L|102:196,1,40,2|0,0:0|0:0,0:0:0:0:
131,48,69604,5,10,0:0:0:0:
153,33,69676,1,0,0:0:0:0:
178,27,69748,1,0,0:0:0:0:
205,29,69820,1,0,0:0:0:0:
228,41,69892,1,8,0:0:0:0:
251,51,69965,1,0,0:0:0:0:
278,54,70037,1,0,0:0:0:0:
303,47,70109,1,0,0:0:0:0:
326,33,70181,5,10,0:0:0:0:
437,93,70325,2,0,L|442:147,1,40,0|0,0:0|0:0,0:0:0:0:
317,161,70469,2,0,L|312:215,1,40,0|0,0:0|0:0,0:0:0:0:
451,231,70614,2,0,L|456:285,1,40,0|0,0:0|0:0,0:0:0:0:
384,358,70758,6,0,L|328:362,3,40,2|0|0|0,0:0|0:0|0:0|0:0,0:0:0:0:
258,344,71046,2,0,L|160:340,1,80,8|0,0:0|0:0,0:0:0:0:
104,149,71335,6,0,P|121:180|124:216,3,40,2|0|0|0,0:0|0:0|0:0|0:0,0:0:0:0:
115,264,71623,2,0,P|93:295|33:323,1,80,8|0,0:0|0:0,0:0:0:0:
0,89,71912,6,0,L|50:91,3,40,2|0|0|0,0:0|0:0|0:0|0:0,0:0:0:0:
104,149,72200,2,0,P|167:146|200:119,1,80,8|0,0:0|0:0,0:0:0:0:
314,0,72489,6,0,L|319:62,3,40,2|0|0|0,0:0|0:0|0:0|0:0,0:0:0:0:
366,108,72777,2,0,L|362:221,1,80,8|0,0:0|0:0,0:0:0:0:
292,299,73066,6,0,B|392:290|392:290|366:331,1,143.999995605469,10|0,0:0|0:0,0:0:0:0:
291,379,73354,2,0,B|192:360|192:360|228:327,1,143.999995605469,8|0,0:0|0:0,0:0:0:0:
170,276,73642,2,0,P|236:255|291:298,1,143.999995605469,10|0,0:0|0:0,0:0:0:0:
368,326,73931,2,0,P|434:346|488:304,1,143.999995605469,8|0,0:0|0:0,0:0:0:0:
436,116,74219,5,10,0:0:0:0:
416,232,74364,2,0,L|422:295,5,40,0|0|0|0|0|0,0:0|0:0|0:0|0:0|0:0|0:0,0:0:0:0:
435,134,74796,2,0,L|442:23,1,103.999995239258,8|0,0:0|0:0,0:0:0:0:
441,30,75373,5,10,0:0:0:0:
327,131,75517,2,0,L|264:129,5,40,0|0|0|0|0|0,0:0|0:0|0:0|0:0|0:0|0:0,0:0:0:0:
435,134,75950,2,0,P|471:195|446:264,1,103.999995239258,8|0,0:0|0:0,0:0:0:0:
396,331,76383,5,0,0:0:0:0:
342,207,76527,2,0,L|390:203,2,47.9999985351563,10|0|0,0:0|0:0|0:0,0:0:0:0:
264,320,76816,2,0,L|311:324,2,47.9999985351563,8|0|0,0:0|0:0|0:0,0:0:0:0:
199,224,77104,2,0,L|246:219,2,47.9999985351563,8|0|0,0:0|0:0|0:0,0:0:0:0:
92,316,77392,5,8,0:0:0:0:
106,283,77464,1,0,0:0:0:0:
106,247,77536,1,0,0:0:0:0:
92,214,77608,1,0,0:0:0:0:
66,189,77681,5,8,0:0:0:0:
32,142,77753,1,0,0:0:0:0:
49,86,77825,1,0,0:0:0:0:
103,65,77897,1,0,0:0:0:0:
153,94,77969,1,0,0:0:0:0:
184,111,78041,1,0,0:0:0:0:
220,116,78113,1,0,0:0:0:0:
255,110,78185,1,0,0:0:0:0:
286,92,78258,2,0,L|284:169,7,47.9999985351563,2|0|0|0|0|0|0|0,0:0|0:0|0:0|0:0|0:0|0:0|0:0|0:0,0:0:0:0:
388,30,78835,5,4,0:0:0:0:
260,333,79556,6,0,L|262:375,2,40,0|0|0,0:0|0:0|0:0,0:0:0:0:
242,319,79844,1,0,0:0:0:0:
357,327,79989,1,4,0:0:0:0:
111,168,80566,6,0,L|106:108,1,40,0|8,0:0|0:0,0:0:0:0:
56,27,80710,2,0,L|51:87,2,40,8|8|0,0:0|0:0|0:0,0:0:0:0:
59,10,80998,1,0,0:0:0:0:
180,69,81142,6,0,L|249:63,3,40,2|0|0|0,0:0|0:0|0:0|0:0,0:0:0:0:
299,32,81431,2,0,L|385:36,1,80,2|0,0:0|0:0,0:0:0:0:
456,125,81719,6,0,B|442:169|457:197,3,40,2|0|0|0,0:0|0:0|0:0|0:0,0:0:0:0:
465,257,82008,2,0,P|481:312|463:368,1,80,2|0,0:0|0:0,0:0:0:0:
312,236,82296,6,0,L|314:176,3,40,2|0|0|0,0:0|0:0|0:0|0:0,0:0:0:0:
268,114,82585,2,0,P|320:118|365:92,1,80,2|0,0:0|0:0,0:0:0:0:
180,91,82873,6,0,B|147:74|106:78|83:106|83:106|126:99,1,120,2|0,0:0|0:0,0:0:0:0:
191,104,83162,2,0,L|197:18,1,80,2|4,0:0|0:0,0:0:0:0:
141,170,83450,5,2,0:0:0:0:
141,179,83522,1,0,0:0:0:0:
142,189,83594,1,0,0:0:0:0:
143,199,83666,1,0,0:0:0:0:
144,210,83739,2,0,L|152:324,1,80,2|0,0:0|0:0,0:0:0:0:
358,283,84027,5,2,0:0:0:0:
350,276,84099,1,0,0:0:0:0:
342,270,84171,1,0,0:0:0:0:
333,266,84243,1,0,0:0:0:0:
323,264,84316,2,0,P|271:279|249:321,1,80,2|0,0:0|0:0,0:0:0:0:
434,353,84604,6,0,L|436:255,1,80,2|0,0:0|0:0,0:0:0:0:
325,104,84892,2,0,B|293:143|293:143|407:132,1,143.999995605469,2|0,0:0|0:0,0:0:0:0:
369,43,85181,2,0,P|311:30|249:102,1,143.999995605469,2|0,0:0|0:0,0:0:0:0:
210,167,85469,2,0,B|223:117|223:117|184:24,1,143.999995605469,2|0,0:0|0:0,0:0:0:0:
105,11,85758,6,0,L|48:13,1,47.9999985351563,2|0,0:0|0:0,0:0:0:0:
410,342,86335,2,0,L|467:344,1,47.9999985351563,2|0,0:0|0:0,0:0:0:0:
96,87,86912,6,0,L|39:89,1,47.9999985351563,2|0,0:0|0:0,0:0:0:0:
399,266,87489,2,0,L|456:268,1,47.9999985351563,2|0,0:0|0:0,0:0:0:0:
260,342,87777,2,0,B|161:353|161:353|144:301,1,143.999995605469,10|0,0:0|0:0,0:0:0:0:
85,223,88066,6,0,B|174:264|166:182|273:240,1,160,2|0,0:0|0:0,0:0:0:0:
399,266,88642,2,0,P|457:284|422:247,1,160,8|0,0:0|0:0,0:0:0:0:
323,131,89219,2,0,L|238:134,1,53.3333333333333,0|0,0:0|0:0,0:0:0:0:
193,158,89412,2,0,L|108:155,1,53.3333333333333,8|0,0:0|0:0,0:0:0:0:
41,13,89796,2,0,P|71:62|50:151,1,106.666666666667,8|0,0:0|0:0,0:0:0:0:
29,343,90181,2,0,P|14:299|32:247,1,53.3333333333333,0|0,0:0|0:0,0:0:0:0:
81,228,90373,6,0,L|214:233,1,106.666666666667,8|0,0:0|0:0,0:0:0:0:
262,279,90662,2,0,P|329:286|375:251,1,106.666666666667,8|0,0:0|0:0,0:0:0:0:
382,182,90950,2,0,B|408:197|408:197|421:108,1,106.666666666667,8|8,0:0|0:0,0:0:0:0:
395,101,91239,1,8,0:0:0:0:
462,132,91335,1,8,0:0:0:0:
455,61,91431,1,8,0:0:0:0:
167,232,92392,5,2,0:0:0:0:
433,212,92968,1,0,0:0:0:0:
134,150,93545,2,0,B|79:145|79:145|35:167,2,95.9999970703126,0|0|0,0:0|0:0|0:0,0:0:0:0:
344,347,94699,6,0,B|340:278|340:278|366:229|366:229|359:150,1,191.999994140625,2|0,0:0|0:0,0:0:0:0:
297,108,95565,1,0,0:0:0:0:
154,210,95853,2,0,L|210:205,1,47.9999985351563,0|0,0:0|0:0,0:0:0:0:
75,172,96142,2,0,L|80:228,1,47.9999985351563,0|0,0:0|0:0,0:0:0:0:
113,93,96430,2,0,L|57:98,1,47.9999985351563,0|0,0:0|0:0,0:0:0:0:
192,131,96718,2,0,L|187:75,1,47.9999985351563,0|0,0:0|0:0,0:0:0:0:
137,322,97007,5,2,0:0:0:0:
176,57,97584,1,0,0:0:0:0:
219,364,98161,2,0,B|262:382|272:347|319:364,2,95.9999970703126,0|0|0,0:0|0:0|0:0,0:0:0:0:
420,135,99315,6,0,P|474:171|450:297,1,191.999994140625,2|8,0:0|0:0,0:0:0:0:
381,319,100180,1,0,0:0:0:0:
286,275,100468,2,0,L|223:276,2,47.9999985351563,2|0|0,0:0|0:0|0:0,0:0:0:0:
351,202,100901,1,0,0:0:0:0:
351,202,100973,1,0,0:0:0:0:
351,202,101045,2,0,L|355:161,4,23.9999992675781,8|0|0|0|0,0:0|0:0|0:0|0:0|0:0,0:0:0:0:
181,321,101622,5,2,0:0:0:0:
278,174,101911,5,8,0:0:0:0:
286,275,102055,1,0,0:0:0:0:
288,159,102343,5,0,0:0:0:0:
279,285,102488,1,8,0:0:0:0:
128,112,102776,5,0,0:0:0:0:
237,92,102920,1,0,0:0:0:0:
117,95,103065,1,8,0:0:0:0:
288,159,103497,6,0,L|327:152,2,34.0000006484985,0|0|8,0:0|0:0|0:0,0:0:0:0:
45,157,103930,5,2,0:0:0:0:
219,287,104218,5,8,0:0:0:0:
97,301,104363,1,0,0:0:0:0:
329,239,104940,5,0,0:0:0:0:
328,60,105084,1,0,0:0:0:0:
234,121,105228,1,0,0:0:0:0:
329,239,105372,1,8,0:0:0:0:
329,213,105444,1,0,0:0:0:0:
329,188,105516,1,0,0:0:0:0:
330,162,105588,1,0,0:0:0:0:
330,137,105661,2,0,L|377:132,3,34.0000006484985,0|0|0|0,0:0|0:0|0:0|0:0,0:0:0:0:
221,142,105949,2,0,L|129:139,1,68.0000012969971,8|0,0:0|0:0,0:0:0:0:
76,239,106238,5,2,0:0:0:0:
78,272,106334,1,0,0:0:0:0:
80,306,106430,1,0,0:0:0:0:
82,340,106526,1,10,0:0:0:0:
226,62,106815,5,2,0:0:0:0:
176,41,106911,1,0,0:0:0:0:
124,54,107007,1,0,0:0:0:0:
89,94,107103,1,10,0:0:0:0:
73,243,107391,5,2,0:0:0:0:
75,279,107487,1,0,0:0:0:0:
77,316,107583,1,0,0:0:0:0:
79,352,107679,1,10,0:0:0:0:
233,53,107968,5,2,0:0:0:0:
180,31,108064,1,0,0:0:0:0:
124,45,108160,1,0,0:0:0:0:
87,88,108256,1,8,0:0:0:0:
78,144,108353,1,0,0:0:0:0:
106,194,108449,1,0,0:0:0:0:
202,223,108545,5,6,0:0:0:0:
211,226,109699,5,6,0:0:0:0:
220,229,110853,5,6,0:0:0:0:
229,232,112007,5,10,0:0:0:0:
150,193,112151,2,0,L|92:204,2,40,0|0|0,0:0|0:0|0:0,0:0:0:0:
173,106,112440,1,0,0:0:0:0:
197,116,112512,1,0,0:0:0:0:
217,133,112584,1,0,0:0:0:0:
232,155,112656,1,0,0:0:0:0:
239,181,112728,1,0,0:0:0:0:
238,207,112800,1,0,0:0:0:0:
229,232,112872,2,0,L|289:224,3,40,0|0|0|0,0:0|0:0|0:0|0:0,0:0:0:0:
340,159,113161,6,0,P|362:198|355:268,1,80,14|2,0:0|0:0,0:0:0:0:
160,287,113449,2,0,P|138:248|145:178,1,80,2|2,0:0|0:0,0:0:0:0:
314,313,113738,2,0,P|275:335|205:328,1,80,2|0,0:0|0:0,0:0:0:0:
186,133,114026,2,0,P|225:111|295:118,1,80,2|2,0:0|0:0,0:0:0:0:
41,216,114315,6,0,L|48:108,1,80,14|2,0:0|0:0,0:0:0:0:
230,371,114603,2,0,L|150:365,1,80,2|2,0:0|0:0,0:0:0:0:
385,182,114891,2,0,L|379:261,1,80,2|2,0:0|0:0,0:0:0:0:
196,27,115180,2,0,L|275:32,1,80,2|2,0:0|0:0,0:0:0:0:
115,290,115468,6,0,P|117:238|89:196,1,80,14|2,0:0|0:0,0:0:0:0:
305,374,115757,2,0,P|253:372|211:400,1,80,2|2,0:0|0:0,0:0:0:0:
389,184,116045,2,0,P|387:236|415:278,1,80,2|2,0:0|0:0,0:0:0:0:
199,100,116334,2,0,P|251:102|293:74,1,80,2|2,0:0|0:0,0:0:0:0:
127,67,116622,5,14,0:0:0:0:
142,225,116766,1,2,0:0:0:0:
199,100,116911,1,2,0:0:0:0:
69,191,117055,1,2,0:0:0:0:
205,179,117199,1,2,0:0:0:0:
62,111,117343,1,2,0:0:0:0:
199,100,117488,1,2,0:0:0:0:
142,225,117632,1,2,0:0:0:0:
127,67,117776,6,0,P|178:31|171:95,1,160,6|0,0:0|0:0,0:0:0:0:
145,232,118425,6,0,P|196:268|189:204,1,160,6|0,0:0|0:0,0:0:0:0:
119,142,119122,5,2,0:0:0:0:
56,260,119315,2,0,L|53:335,2,63.9999980468751,0|0|0,0:0|0:0|0:0,0:0:0:0:
18,27,119988,5,14,0:0:0:0:
