osu file format v14

[General]
AudioFilename: audio.mp3
AudioLeadIn: 0
PreviewTime: 199996
Countdown: 0
SampleSet: Soft
StackLeniency: 0.7
Mode: 0
LetterboxInBreaks: 0
WidescreenStoryboard: 0

[Editor]
DistanceSpacing: 1.2
BeatDivisor: 4
GridSize: 8
TimelineZoom: 2.599999

[Metadata]
Title:Reverie
TitleUnicode:Reverie
Artist:D I V I N I T Y
ArtistUnicode:D I V I N I T Y
Creator:FruityEnLoops
Version:Dream
Source:
Tags:porter robinson style future pop bass vocaloid worlds Marathon
BeatmapID:1308243
BeatmapSetID:620604

[Difficulty]
HPDrainRate:6
CircleSize:4.1
OverallDifficulty:6.4
ApproachRate:8
SliderMultiplier:1.2
SliderTickRate:1

[Events]
//Background and Video events
0,0,"DIVINITYSENPAIIIII.jpg",0,0
//Break Periods
//Storyboard Layer 0 (Background)
//Storyboard Layer 1 (Fail)
//Storyboard Layer 2 (Pass)
//Storyboard Layer 3 (Foreground)
//Storyboard Sound Samples

[TimingPoints]
1266,625,4,1,1,15,1,0
1266,-100,2,1,1,20,0,0
3141,-166.666666666667,2,1,1,20,0,0
6266,-100,2,1,1,20,0,0
11266,-83.3333333333333,2,1,1,20,0,0
28141,-147.058823529412,2,1,1,20,0,0
30641,-83.3333333333333,2,1,1,20,0,0
33141,-142.857142857143,2,1,1,20,0,0
36266,-111.111111111111,2,1,1,20,0,0
41266,-83.3333333333333,4,3,1,40,0,0
73766,-83.3333333333333,4,3,1,60,0,0
78766,-83.3333333333333,4,3,1,65,0,0
81266,-50,4,3,1,65,0,1
83766,-125,4,3,1,65,0,1
84391,-50,4,3,1,65,0,1
86266,-200,4,3,1,65,0,1
86891,-50,4,3,1,65,0,1
93766,-125,4,3,1,65,0,1
94391,-50,4,3,1,65,0,1
96266,-200,4,3,1,65,0,1
96891,-50,4,3,1,65,0,1
106266,-200,4,3,1,65,0,1
106891,-50,4,3,1,65,0,1
116266,-200,4,3,1,65,0,1
116891,-50,4,3,1,65,0,1
121266,-133.333333333333,4,2,1,20,0,0
136266,-117.647058823529,4,2,1,40,0,0
161266,-66.6666666666667,4,2,1,60,0,0
181266,-200,4,2,1,30,0,0
191266,-66.6666666666667,4,2,1,70,0,0
201266,-50,4,3,1,70,0,1
206266,-200,4,2,1,35,0,1
206891,-50,4,3,1,70,0,1
216266,-200,4,2,1,35,0,1
216891,-50,4,3,1,70,0,1
226266,-200,4,2,1,35,0,1
226891,-50,4,3,1,70,0,1
236266,-200,4,2,1,35,0,1
236891,-50,4,3,1,70,0,1
261266,-100,4,2,1,50,0,0
281266,-200,4,2,1,40,0,0
298766,-500,4,2,1,30,0,0
301266,-500,4,2,1,5,0,0

[Colours]
Combo1 : 153,57,139
Combo2 : 255,239,100
Combo3 : 255,212,218
Combo4 : 255,129,216
Combo5 : 69,206,239
SliderBorder : 171,154,146
SliderTrackOverride : 81,73,70

[HitObjects]
56,120,1266,6,0,B|120:72|184:112|184:112|240:144|296:112,1,240,6|2,0:2|0:2,0:0:0:0:
240,56,3141,6,0,P|344:72|344:160,1,197.99999395752,2|2,0:2|0:2,0:0:0:0:
264,208,5641,1,2,0:2:0:0:
146,214,6266,6,0,B|130:146|162:110|162:110|222:142|286:106,1,240,6|2,0:2|0:2,0:0:0:0:
320,200,8141,2,0,B|376:160|416:184|416:184|448:152|448:116|448:116|408:88|408:60,1,240,2|0,0:2|2:2,0:0:0:0:
504,208,10016,1,0,0:0:0:0:
448,288,10641,2,0,P|418:308|390:315,1,60,2|2,0:2|0:2,0:0:0:0:
344,248,11266,6,0,B|288:304|280:344|280:344|272:304|224:248,1,215.999993408203,6|0,0:2|0:0,0:0:0:0:
144,232,12516,2,0,B|168:184|204:172|204:172|204:140|220:100,1,143.999995605469,2|2,0:2|0:2,0:0:0:0:
300,151,13453,1,0,0:0:0:0:
300,151,13766,5,0,0:0:0:0:
375,99,14391,1,0,0:0:0:0:
375,99,14703,1,0,0:0:0:0:
375,99,15016,2,0,P|399:147|351:223,1,143.999995605469,2|2,0:2|0:2,0:0:0:0:
271,243,16266,2,0,B|281:285|320:320|368:320|402:302|422:284|422:284|435:340|487:357,1,287.999991210938
504,280,17828,2,0,B|498:236|451:212|451:212|442:184|452:148,1,143.999995605469,2|0,0:2|0:0,0:0:0:0:
371,218,18766,6,0,B|347:134|399:86|399:86|331:102|235:46,1,287.999991210938
399,86,20641,1,0,0:0:0:0:
460,27,21266,6,0,B|488:72|472:128|472:128|448:184|476:243,1,215.999993408203,6|0,0:2|0:0,0:0:0:0:
372,220,22516,2,0,L|352:304,1,71.9999978027344
270,333,23141,2,0,B|222:370|172:357|172:357|165:341|173:319|159:293|159:293|199:291|231:285|266:237,1,287.999991210938
324,168,24703,1,0,0:0:0:0:
231,162,25016,2,0,P|247:118|243:86,1,71.9999978027344
202,28,25641,2,0,P|246:12|290:32,1,71.9999978027344,2|0,0:2|0:0,0:0:0:0:
330,71,26266,6,0,B|350:123|394:131|394:131|410:191|358:223|358:223|382:263|438:255,1,287.999991210938,6|0,0:2|0:0,0:0:0:0:
514,253,28141,6,0,B|488:192|504:120|504:120|512:56|489:13,1,244.800001494141,2|0,0:2|0:2,0:0:0:0:
288,76,30641,6,0,L|220:108,1,71.9999978027344,2|0,0:2|0:0,0:0:0:0:
280,160,31266,2,0,B|246:185|232:216|232:216|184:208|168:188|168:188|136:224|144:260,1,215.999993408203,6|0,0:2|0:0,0:0:0:0:
89,306,32516,2,0,P|137:329|163:323,1,71.9999978027344,2|0,0:2|0:0,0:0:0:0:
226,309,33141,6,0,B|256:296|289:293|289:293|337:242|337:242|372:258,1,167.999994873047,2|2,0:2|0:2,0:0:0:0:
431,317,34703,1,0,0:0:0:0:
452,235,35016,2,0,P|472:227|490:216,1,41.9999987182618
417,164,35641,2,0,P|399:175|380:184,1,41.9999987182618
468,100,36266,6,0,B|416:72|368:104|368:104|312:144|255:100,1,215.999993408203,2|0,0:2|0:0,0:0:0:0:
184,64,37828,2,0,B|168:112|185:148|185:148|200:192|184:232,1,161.999995056153,2|0,0:2|0:0,0:0:0:0:
256,192,40016,12,0,40953,0:0:0:0:
248,72,41266,6,0,L|168:96,1,71.9999978027344,6|0,0:2|0:0,0:0:0:0:
244,148,41891,2,0,L|312:127,1,71.9999978027344
320,212,42516,1,6,1:2:0:0:
251,235,42828,1,0,0:0:0:0:
251,235,43141,6,0,P|207:231|171:199,1,71.9999978027344,6|0,1:2|0:0,0:0:0:0:
141,291,43766,2,0,P|97:295|61:327,1,71.9999978027344
44,228,44391,2,0,P|88:224|124:192,1,71.9999978027344
69,140,45016,6,0,L|169:116,1,71.9999978027344,6|0,1:2|0:0,0:0:0:0:
217,116,45641,2,0,L|193:216,1,71.9999978027344,6|0,1:2|0:0,0:0:0:0:
161,252,46266,6,0,P|93:228|117:324,1,215.999993408203,6|0,1:2|0:0,0:0:0:0:
192,332,47516,2,0,P|236:356|336:320,1,143.999995605469,6|2,1:2|1:2,0:0:0:0:
259,265,48453,1,0,0:0:0:0:
325,196,48766,2,0,P|259:172|194:199,1,143.999995605469,6|2,1:2|1:2,0:0:0:0:
129,238,49703,1,0,0:0:0:0:
60,200,50016,6,0,P|82:172|116:159,1,71.9999978027344,0|0,0:0|0:0,0:0:0:0:
44,108,50641,1,2,1:2:0:0:
112,68,50953,1,2,1:2:0:0:
180,112,51266,6,0,B|200:107|225:121|225:121|242:87|239:46|239:46|273:40|321:76,1,215.999993408203,6|0,1:2|0:0,0:0:0:0:
303,168,52516,2,0,P|316:196|312:246,1,71.9999978027344,2|0,1:2|0:0,0:0:0:0:
240,216,53141,2,0,B|216:256|156:244|156:244|132:188|88:208|80:260|80:260|72:308|92:336,1,287.999991210938,2|0,1:2|0:0,0:0:0:0:
164,344,54703,1,0,0:0:0:0:
240,320,55016,6,0,L|312:264,1,71.9999978027344,2|0,1:2|0:0,0:0:0:0:
356,320,55641,2,0,L|388:240,1,71.9999978027344,2|0,1:2|0:0,0:0:0:0:
464,252,56266,6,0,P|428:188|340:184,1,143.999995605469,6|0,1:2|0:0,0:0:0:0:
288,200,57203,1,0,0:0:0:0:
212,224,57516,1,0,0:0:0:0:
132,248,57828,2,0,P|137:182|220:140,1,143.999995605469,0|0,1:0|0:0,0:0:0:0:
212,224,58766,6,0,B|252:200|316:208|316:208|360:216|385:206|392:208|392:208|408:244|408:244|432:276|464:284,1,287.999991210938,6|0,1:2|0:0,0:0:0:0:
60,292,61266,6,0,L|48:196,1,71.9999978027344,14|0,1:2|0:0,0:0:0:0:
134,229,61891,2,0,L|98:145,1,71.9999978027344,12|0,1:2|0:0,0:0:0:0:
65,90,62516,1,14,1:2:0:0:
141,61,62828,1,0,0:0:0:0:
141,61,63141,6,0,L|201:125,1,71.9999978027344,14|0,1:2|0:0,0:0:0:0:
234,43,63766,2,0,L|266:115,1,71.9999978027344,12|0,1:2|0:0,0:0:0:0:
344,91,64391,2,0,L|324:175,1,71.9999978027344,12|0,1:2|0:0,0:0:0:0:
312,268,65016,5,14,1:2:0:0:
476,216,65641,1,14,1:2:0:0:
328,128,66266,6,0,P|276:112|240:120,1,71.9999978027344,14|0,1:2|0:0,0:0:0:0:
176,136,66891,2,0,P|224:188|252:192,1,71.9999978027344,12|0,1:2|0:0,0:0:0:0:
308,208,67516,1,14,1:2:0:0:
240,260,67828,1,0,0:0:0:0:
156,244,68141,6,0,P|116:212|104:172,1,71.9999978027344,14|0,1:2|0:0,0:0:0:0:
32,152,68766,2,0,P|76:120|104:112,1,71.9999978027344,12|0,1:2|0:0,0:0:0:0:
168,112,69391,2,0,P|182:144|205:172,1,71.9999978027344,12|0,1:2|0:0,0:0:0:0:
252,108,70016,2,0,P|296:80|332:80,1,71.9999978027344,12|0,1:2|0:0,0:0:0:0:
312,164,70641,5,14,1:2:0:0:
264,236,70953,1,0,0:0:0:0:
368,248,71266,6,0,L|408:316,1,71.9999978027344,14|0,1:2|0:0,0:0:0:0:
472,280,71891,2,0,L|435:217,1,71.9999978027344,12|0,1:2|0:0,0:0:0:0:
396,140,72516,1,14,1:2:0:0:
312,156,72828,1,0,0:0:0:0:
240,104,73141,2,0,P|228:160|236:192,1,71.9999978027344,14|0,1:2|0:0,0:0:0:0:
148,196,73766,6,0,L|64:212,2,71.9999978027344,12|8|12,1:2|1:2|1:2,0:0:0:0:
192,268,74703,1,8,1:2:0:0:
280,244,75016,2,0,L|364:260,2,71.9999978027344,14|8|14,1:2|1:2|1:2,0:0:0:0:
230,173,75953,1,8,1:2:0:0:
228,28,76266,6,0,L|260:64,1,35.9999989013672,14|0,1:2|0:0,0:0:0:0:
192,96,76578,2,0,L|160:56,1,35.9999989013672,14|0,1:2|0:0,0:0:0:0:
112,112,76891,2,0,L|144:148,1,35.9999989013672,14|0,1:2|0:0,0:0:0:0:
80,188,77203,2,0,L|48:148,1,35.9999989013672,14|0,1:2|0:0,0:0:0:0:
96,272,77516,6,0,L|118:300,1,35.9999989013672,14|0,1:2|0:0,0:0:0:0:
174,251,77828,2,0,L|150:224,1,35.9999989013672,14|0,1:2|0:0,0:0:0:0:
208,180,78141,2,0,L|230:208,1,35.9999989013672,14|0,1:2|0:0,0:0:0:0:
290,167,78453,2,0,L|266:140,1,35.9999989013672,14|0,1:2|0:0,0:0:0:0:
384,152,78766,6,0,L|420:136,2,23.9999992675781,14|8|8,0:2|0:2|0:2,0:0:0:0:
399,222,79078,2,0,L|427:246,2,23.9999992675781,8|8|8,0:2|0:2|0:2,0:0:0:0:
346,272,79391,2,0,L|343:296,2,23.9999992675781,12|8|8,0:2|0:2|0:2,0:0:0:0:
277,249,79703,2,0,L|259:267,2,23.9999992675781,8|8|8,0:2|0:2|0:2,0:0:0:0:
278,176,80016,6,0,L|322:180,1,35.9999989013672,10|0,0:3|0:0,0:0:0:0:
392,176,80328,1,0,0:0:0:0:
392,176,80484,1,0,0:0:0:0:
392,176,80641,1,0,0:0:0:0:
476,156,80953,1,0,0:0:0:0:
424,80,81266,6,0,P|388:68|336:64,1,60,6|0,1:1|2:0,0:0:0:0:
284,36,81578,1,0,0:0:0:0:
290,121,81734,1,0,0:0:0:0:
209,112,81891,2,0,P|232:176|280:203,1,120,10|2,0:1|0:1,0:0:0:0:
368,212,82359,1,2,0:1:0:0:
368,212,82516,1,0,1:0:0:0:
248,270,82828,6,0,P|298:273|322:267,1,60,2|0,0:0|0:0,0:0:0:0:
310,349,83141,2,0,P|355:326|373:307,1,60,2|0,1:0|0:0,0:0:0:0:
416,377,83453,2,0,P|444:334|450:309,1,60,2|0,0:0|0:0,0:0:0:0:
393,219,83766,6,0,L|348:172,1,48,2|0,1:0|2:0,0:0:0:0:
212,164,84391,6,0,P|178:180|138:214,1,60,10|0,0:1|2:0,0:0:0:0:
88,184,84703,1,2,0:1:0:0:
64,252,84859,1,2,0:1:0:0:
16,312,85016,1,0,0:0:0:0:
158,330,85328,6,0,P|196:297|209:275,1,60,2|0,0:0|0:0,0:0:0:0:
259,342,85641,2,0,P|275:294|275:268,1,60,2|0,1:0|0:0,0:0:0:0:
353,287,85953,2,0,P|343:237|330:215,1,60,2|0,0:0|0:0,0:0:0:0:
436,272,86266,6,0,L|448:204,1,60,2|14,1:2|0:1,0:0:0:0:
380,64,87203,6,0,P|345:120|339:124,1,60
281,151,87516,1,2,0:1:0:0:
223,71,87828,6,0,P|213:43|210:14,1,60,2|0,0:0|0:0,0:0:0:0:
189,139,88141,2,0,P|166:120|149:96,1,60,2|0,1:0|0:0,0:0:0:0:
149,204,88453,2,0,P|177:217|206:222,1,60,2|0,0:0|0:0,0:0:0:0:
58,192,88766,6,0,P|82:280|97:300,1,80,0|2,1:0|0:1,0:0:0:0:
106,130,89182,2,0,P|54:204|48:230,1,80,2|10,0:1|0:1,0:0:0:0:
184,126,89599,2,2,P|93:134|70:146,1,80,2|2,0:1|0:1,0:0:0:0:
237,183,90016,2,2,P|172:118|148:109,1,80,2|2,1:1|2:1,0:0:0:0:
227,261,90432,2,0,P|234:170|226:145,1,80,2|6,2:1|2:3,0:0:0:0:
327,217,90849,1,6,0:3:0:0:
323,313,91057,1,4,0:3:0:0:
140,318,91266,6,0,P|112:326|44:306,1,60,6|0,1:0|0:0,0:0:0:0:
28,274,91578,1,0,0:0:0:0:
96,250,91734,1,0,0:0:0:0:
44,202,91891,2,0,B|48:142|48:142|88:94,1,120,10|2,0:1|0:1,0:0:0:0:
152,62,92359,1,2,0:1:0:0:
184,126,92516,1,0,0:0:0:0:
433,93,92828,6,0,P|400:131|378:144,1,60,2|0,0:0|0:0,0:0:0:0:
445,194,93141,2,0,P|397:210|371:210,1,60,2|0,1:0|0:0,0:0:0:0:
390,288,93453,2,0,P|340:278|318:265,1,60,2|0,0:0|0:0,0:0:0:0:
297,204,93766,6,0,L|245:224,1,48,0|0,1:0|2:0,0:0:0:0:
116,280,94391,6,2,P|96:200|116:136,1,120,10|2,0:1|0:1,0:0:0:0:
76,96,94859,1,2,0:1:0:0:
76,96,95016,1,0,1:2:0:0:
116,280,95328,6,0,P|154:247|167:225,1,60,2|0,0:0|0:0,0:0:0:0:
217,292,95641,2,0,P|233:244|233:218,1,60,2|0,1:0|0:0,0:0:0:0:
311,237,95953,2,0,P|301:187|288:165,1,60,2|0,0:0|0:0,0:0:0:0:
254,98,96266,6,0,L|214:150,1,60,2|10,1:2|0:1,0:0:0:0:
128,80,97203,5,2,0:1:0:0:
128,80,97359,1,2,0:1:0:0:
128,80,97516,2,0,P|77:111|44:161,1,120,0|2,1:0|0:1,0:0:0:0:
184,196,98141,1,10,0:1:0:0:
44,161,98453,1,2,0:1:0:0:
183,195,98766,6,0,P|271:219|291:234,1,80,0|2,1:0|0:1,0:0:0:0:
121,243,99182,2,2,P|195:191|221:185,1,80,2|10,0:1|0:1,0:0:0:0:
117,321,99599,2,2,P|125:230|137:206,1,80,2|2,0:1|0:1,0:0:0:0:
174,374,100016,2,2,P|109:309|100:285,1,80,10|2,0:3|0:1,0:0:0:0:
252,363,100432,2,2,P|161:370|136:362,1,80,2|10,0:3|0:3,0:0:0:0:
212,284,100849,1,0,0:0:0:0:
261,213,101057,1,4,0:3:0:0:
356,92,101266,6,0,P|284:92|252:104,1,60,6|0,1:1|0:0,0:0:0:0:
208,84,101578,1,0,0:0:0:0:
252,164,101734,1,0,0:0:0:0:
340,172,101891,6,2,P|341:201|288:312,1,120,14|2,0:1|0:1,0:0:0:0:
224,256,102359,1,2,0:1:0:0:
244,344,102516,1,4,1:1:0:0:
144,337,102828,6,0,P|177:299|199:286,1,60,2|0,0:0|0:0,0:0:0:0:
132,236,103141,2,0,P|180:220|206:220,1,60,2|0,1:0|0:0,0:0:0:0:
187,142,103453,2,0,P|237:152|259:165,1,60,2|0,0:0|0:0,0:0:0:0:
108,161,103766,2,0,P|104:96|136:36,1,120
284,112,104391,6,0,P|352:72|360:72,1,60,14|0,0:1|2:0,0:0:0:0:
422,83,104703,1,2,0:1:0:0:
462,163,104860,1,4,1:0:0:0:
374,159,105016,1,2,0:1:0:0:
188,112,105328,6,0,P|132:124|92:144,1,60,2|0,0:1|0:0,0:0:0:0:
73,183,105641,2,0,P|99:198|123:216,1,60,6|0,0:1|0:0,0:0:0:0:
208,244,105953,2,0,P|195:188|175:148,1,60,2|0,0:1|0:0,0:0:0:0:
188,112,106266,6,0,P|214:97|238:79,1,60,6|14,1:2|0:1,0:0:0:0:
420,80,107203,5,2,0:1:0:0:
392,164,107359,1,2,0:1:0:0:
480,144,107516,1,0,0:0:0:0:
460,240,107828,6,0,P|404:252|364:272,1,60,2|0,0:1|0:0,0:0:0:0:
392,164,108141,2,0,P|368:146|342:131,1,60,6|0,0:1|0:0,0:0:0:0:
306,207,108453,2,0,P|314:235|319:265,1,60,2|0,0:1|0:0,0:0:0:0:
158,194,108766,6,0,P|237:239|261:242,1,80,4|2,1:0|0:1,0:0:0:0:
148,116,109182,2,2,P|163:205|177:227,1,80,2|14,0:1|0:1,0:0:0:0:
201,58,109599,2,2,P|142:128|133:153,1,80,2|2,0:1|0:1,0:0:0:0:
278,61,110016,2,2,P|186:61|162:71,1,80,6|2,0:1|2:1,0:0:0:0:
326,123,110432,2,2,P|266:53|243:41,1,80,2|14,2:1|0:1,0:0:0:0:
242,151,110849,1,0,0:0:0:0:
201,58,111057,1,0,0:0:0:0:
111,150,111266,6,0,P|108:120|116:92,1,60,6|0,1:1|2:0,0:0:0:0:
200,140,111578,1,0,0:0:0:0:
164,224,111734,1,0,0:0:0:0:
104,288,111891,2,0,P|144:336|240:372,1,120,14|2,1:1|0:1,0:0:0:0:
280,332,112359,1,2,0:1:0:0:
280,332,112516,1,6,0:1:0:0:
380,68,112828,6,0,P|344:72|304:84,1,60,2|0,0:1|0:0,0:0:0:0:
332,168,113141,2,0,P|361:161|390:158,1,60,14|0,0:1|0:0,0:0:0:0:
396,248,113453,2,0,P|360:252|264:288,1,120,2|4,0:1|0:1,0:0:0:0:
184,356,114078,1,0,0:0:0:0:
60,304,114391,6,0,P|86:317|116:321,1,60,14|0,0:1|2:0,0:0:0:0:
112,232,114703,1,2,0:1:0:0:
192,276,114859,1,2,0:1:0:0:
192,184,115016,1,0,0:0:0:0:
221,347,115328,6,0,P|259:314|272:292,1,60,2|0,0:0|0:0,0:0:0:0:
322,359,115641,2,0,P|338:311|338:285,1,60,2|0,1:0|0:0,0:0:0:0:
416,304,115953,2,0,P|406:254|393:232,1,60,2|0,0:0|0:0,0:0:0:0:
364,156,116266,6,0,P|383:133|400:100,1,60,4|14,1:1|0:1,0:0:0:0:
292,80,117203,5,2,0:1:0:0:
204,104,117359,1,2,0:1:0:0:
272,172,117516,2,0,P|212:220|168:228,1,120,6|0,1:1|0:0,0:0:0:0:
84,60,118141,1,14,0:1:0:0:
171,227,118453,1,2,0:1:0:0:
300,73,118766,6,0,P|212:97|192:112,1,80,4|2,1:0|0:1,0:0:0:0:
363,122,119182,2,2,P|289:69|263:63,1,80,2|14,0:1|0:1,0:0:0:0:
367,201,119599,2,2,P|359:110|347:85,1,80,2|2,0:1|0:1,0:0:0:0:
310,253,120016,2,2,P|374:188|384:164,1,80,2|2,2:1|2:1,0:0:0:0:
233,243,120432,2,2,P|324:250|348:242,1,80,2|2,2:1|2:1,0:0:0:0:
272,164,120849,1,0,2:0:0:0:
272,164,121057,1,0,2:0:0:0:
272,164,121266,5,4,2:2:0:0:
256,192,121422,12,0,125016,0:0:0:0:
152,113,125641,5,0,0:0:0:0:
152,113,126266,2,0,L|92:125,1,45.0000017166138,0|0,1:0|0:0,0:0:0:0:
44,79,126891,2,0,P|32:139|84:199,1,135.000005149841,8|0,0:2|1:0,0:0:0:0:
125,50,128453,2,0,L|171:56,1,45.0000017166138
236,92,129078,2,0,P|206:132|157:135,1,90.0000034332277
98,169,130016,1,4,0:2:0:0:
247,202,130641,1,0,0:0:0:0:
409,113,131266,6,0,L|349:101,1,45.0000017166138,0|0,1:0|0:0,0:0:0:0:
331,31,131891,2,0,P|289:82|300:146,1,135.000005149841,8|0,0:2|1:0,0:0:0:0:
367,181,133141,1,0,0:0:0:0:
430,223,133453,1,0,0:0:0:0:
487,273,133766,2,0,P|451:297|435:305,1,45.0000017166138
381,262,134391,1,0,0:0:0:0:
349,331,134703,2,0,L|301:299,2,45.0000017166138,0|4|0,0:0|0:2|0:0,0:0:0:0:
381,262,135641,1,0,0:0:0:0:
218,321,136266,6,0,L|154:309,1,51.0000009727478,0|0,1:0|0:0,0:0:0:0:
81,318,136891,2,0,P|81:270|125:234,1,102.000001945496,8|0,0:2|0:0,0:0:0:0:
204,225,137828,2,0,P|212:197|236:173,1,51.0000009727478,0|0,1:0|0:0,0:0:0:0:
291,237,138453,1,0,0:0:0:0:
319,154,138766,1,0,0:0:0:0:
344,76,139078,2,0,P|279:77|242:119,1,102.000001945496
156,146,140016,1,4,0:2:0:0:
156,146,140641,1,0,0:0:0:0:
156,146,141266,5,6,1:2:0:0:
224,190,141578,1,0,0:0:0:0:
168,242,141891,2,0,P|200:297|284:302,1,153.000002918243,10|2,0:2|1:0,0:0:0:0:
349,246,143141,1,0,0:0:0:0:
365,161,143453,5,0,0:0:0:0:
365,161,143609,1,0,0:0:0:0:
365,161,143766,2,0,P|405:137|417:121,1,51.0000009727478,2|2,1:2|0:2,0:0:0:0:
440,214,144391,1,0,0:0:0:0:
442,300,144703,2,0,L|494:324,2,51.0000009727478,0|2|0,0:0|0:2|1:0,0:0:0:0:
355,302,145641,1,2,0:2:0:0:
271,280,145953,5,0,0:0:0:0:
271,280,146109,1,2,0:2:0:0:
271,280,146266,2,0,L|291:224,1,51.0000009727478,6|2,1:2|0:2,0:0:0:0:
248,154,146891,2,0,P|320:138|368:194,1,153.000002918243,10|2,0:2|1:2,0:0:0:0:
376,278,148141,1,0,0:0:0:0:
451,235,148453,1,0,0:0:0:0:
451,235,148609,1,0,0:0:0:0:
451,235,148766,6,0,L|463:183,1,51.0000009727478,2|2,1:2|0:2,0:0:0:0:
406,119,149391,1,0,0:0:0:0:
321,100,149703,1,2,0:2:0:0:
275,174,150016,2,0,P|233:121|235:76,1,102.000001945496,2|2,0:2|0:2,0:0:0:0:
153,112,150953,5,0,0:0:0:0:
153,112,151109,1,2,0:2:0:0:
153,112,151266,2,0,L|104:124,1,51.0000009727478,6|2,1:2|0:2,0:0:0:0:
29,169,151891,2,0,P|34:244|70:311,1,153.000002918243,10|2,0:2|1:2,0:0:0:0:
153,285,153141,1,0,0:0:0:0:
237,304,153453,5,0,0:0:0:0:
237,304,153609,1,0,0:0:0:0:
237,304,153766,2,2,L|197:356,1,51.0000009727478,6|2,1:2|0:2,0:0:0:0:
292,355,154391,1,0,0:0:0:0:
333,279,154703,1,0,0:0:0:0:
377,353,155016,2,0,P|401:360|426:359,2,51.0000009727478,2|0|2,0:2|0:0|0:2,0:0:0:0:
333,279,155953,5,0,0:0:0:0:
333,279,156109,1,2,0:2:0:0:
333,279,156266,2,0,L|313:223,1,51.0000009727478,4|0,1:2|0:2,0:0:0:0:
387,181,156891,2,0,P|307:149|247:181,1,153.000002918243,8|0,0:2|1:2,0:0:0:0:
185,119,158141,1,0,0:0:0:0:
170,204,158453,1,0,0:0:0:0:
170,204,158609,1,0,0:0:0:0:
170,204,158766,6,0,L|182:256,1,51.0000009727478,2|2,1:2|0:2,0:0:0:0:
200,338,159391,1,8,0:2:0:0:
285,353,159703,1,2,0:2:0:0:
361,311,160016,2,0,P|421:303|461:279,1,102.000001945496,0|0,0:2|0:2,0:0:0:0:
444,197,160953,5,0,0:0:0:0:
444,197,161109,1,2,0:2:0:0:
444,197,161266,2,0,P|412:161|372:137,1,90.0000034332277,6|2,1:2|0:3,0:0:0:0:
227,104,161891,2,0,P|259:140|299:164,1,90.0000034332277,10|2,0:2|0:3,0:0:0:0:
356,272,162516,6,0,P|392:240|416:200,1,90.0000034332277,0|2,1:0|0:3,0:0:0:0:
280,220,163141,2,0,P|244:252|220:292,1,90.0000034332277,8|2,0:2|0:3,0:0:0:0:
92,328,163766,6,2,P|89:279|100:234,1,90.0000034332277,2|2,1:2|0:2,0:0:0:0:
132,108,164391,2,0,P|169:132|199:165,1,90.0000034332277,8|2,0:2|0:3,0:0:0:0:
284,272,165016,6,0,P|235:274|190:263,1,90.0000034332277,2|2,1:2|0:3,0:0:0:0:
92,328,165641,2,0,P|89:279|100:234,1,90.0000034332277,10|8,0:2|0:2,0:0:0:0:
116,174,166109,1,8,0:2:0:0:
132,108,166266,6,2,P|180:105|225:116,1,90.0000034332277,6|0,1:2|0:3,0:0:0:0:
196,248,166891,2,0,P|239:257|284:254,1,90.0000034332277,10|2,0:2|0:3,0:0:0:0:
288,120,167516,6,0,P|336:117|381:128,1,90.0000034332277,0|2,1:0|0:3,0:0:0:0:
400,260,168141,2,0,P|443:269|488:266,1,90.0000034332277,10|2,0:2|0:3,0:0:0:0:
464,132,168766,6,2,P|473:84|468:38,1,90.0000034332277,2|2,1:2|0:2,0:0:0:0:
336,56,169391,2,0,P|291:52|247:61,1,90.0000034332277,8|2,0:2|0:2,0:0:0:0:
112,72,170016,6,0,P|102:119|107:165,1,90.0000034332277,6|2,1:2|0:3,0:0:0:0:
68,292,170641,2,0,P|112:295|156:286,1,90.0000034332277,2|8,0:2|0:2,0:0:0:0:
220,260,171109,1,8,0:2:0:0:
264,208,171266,6,0,P|308:204|352:213,1,90.0000034332277,6|2,1:2|0:3,0:0:0:0:
444,312,171891,2,0,P|447:267|438:223,1,90.0000034332277,10|2,0:2|0:3,0:0:0:0:
392,96,172516,6,0,P|348:86|303:90,1,90.0000034332277,0|2,1:0|0:3,0:0:0:0:
176,44,173141,2,0,P|172:88|181:132,1,90.0000034332277,10|2,0:2|0:3,0:0:0:0:
91,158,173766,6,2,P|123:189|162:210,1,90.0000034332277,2|2,1:2|0:2,0:0:0:0:
115,284,174391,2,0,P|160:284|203:271,1,90.0000034332277,8|2,0:2|0:2,0:0:0:0:
222,356,175016,6,0,P|253:324|274:285,1,90.0000034332277,2|2,1:0|0:3,0:0:0:0:
348,312,175641,2,0,P|348:267|335:224,1,90.0000034332277,10|8,0:2|0:2,0:0:0:0:
300,176,176109,1,8,0:2:0:0:
260,132,176266,6,0,P|227:100|188:79,1,90.0000034332277,6|2,1:2|0:3,0:0:0:0:
168,212,176891,2,0,P|154:254|154:299,1,90.0000034332277,10|2,0:2|0:3,0:0:0:0:
277,279,177516,6,0,P|309:310|348:331,1,90.0000034332277,0|2,1:0|0:3,0:0:0:0:
369,199,178141,2,0,P|382:156|382:111,1,90.0000034332277,10|0,0:2|0:0,0:0:0:0:
260,132,178766,6,2,P|227:100|188:79,1,90.0000034332277,2|2,1:2|0:2,0:0:0:0:
168,212,179391,2,0,P|154:254|154:299,1,90.0000034332277,8|2,0:2|0:2,0:0:0:0:
288,328,180016,5,2,0:3:0:0:
360,212,180328,1,2,0:3:0:0:
316,84,180641,1,10,0:3:0:0:
273,68,180797,1,10,0:3:0:0:
229,60,180953,1,10,0:3:0:0:
184,59,181109,1,10,0:3:0:0:
140,67,181266,6,0,L|112:80,1,30,6|0,0:2|0:0,0:0:0:0:
48,120,181891,2,0,P|36:164|44:188,1,60,0|0,0:0|0:0,0:0:0:0:
112,168,182828,2,0,L|152:184,1,30,0|0,0:0|0:0,0:0:0:0:
160,252,183453,2,0,L|200:268,1,30,0|0,0:0|0:0,0:0:0:0:
228,200,184078,6,0,P|260:184|276:152,1,60,0|0,0:0|0:0,0:0:0:0:
276,88,185016,1,0,0:0:0:0:
276,88,185641,1,0,0:0:0:0:
384,192,186266,6,0,L|412:184,1,30,0|0,0:0|0:0,0:0:0:0:
448,252,186891,2,0,P|416:276|384:276,1,60,0|0,0:0|0:0,0:0:0:0:
320,276,187828,2,0,L|280:272,2,30,0|0|0,0:0|0:0|0:0,0:0:0:0:
360,340,188766,1,0,0:0:0:0:
284,348,189078,2,0,P|256:344|228:320,1,60,0|0,0:0|0:0,0:0:0:0:
180,272,190016,1,0,0:0:0:0:
180,272,190641,1,0,0:0:0:0:
32,332,191266,5,2,1:0:0:0:
108,72,191891,1,0,1:0:0:0:
220,316,192516,1,0,1:0:0:0:
292,56,193141,1,0,1:0:0:0:
348,116,193766,6,0,P|300:136|256:136,1,90.0000034332277,2|0,1:0|1:0,0:0:0:0:
162,178,194391,2,0,P|198:218|250:242,1,90.0000034332277,0|2,1:0|1:0,0:0:0:0:
280,330,195016,2,0,P|321:298|343:260,1,90.0000034332277,2|0,1:0|1:0,0:0:0:0:
405,183,195641,2,0,P|365:147|341:95,1,90.0000034332277,0|0,1:0|1:0,0:0:0:0:
260,92,196266,6,0,L|168:88,2,90.0000034332277,2|2|2,1:0|1:0|1:0,0:0:0:0:
200,184,197203,1,0,1:0:0:0:
308,172,197516,6,0,L|400:168,2,90.0000034332277,0|2|2,1:0|1:0|1:0,0:0:0:0:
368,264,198453,1,2,1:0:0:0:
200,164,198766,1,4,0:3:0:0:
164,248,198974,5,4,0:3:0:0:
252,236,199182,1,4,0:3:0:0:
216,320,199391,1,4,0:3:0:0:
304,308,199599,1,4,0:3:0:0:
344,228,199807,1,4,0:3:0:0:
252,236,200016,6,0,L|262:176,1,45.0000017166138,4|0,0:2|0:0,0:0:0:0:
184,160,200328,1,8,0:3:0:0:
184,160,200484,1,8,0:1:0:0:
184,160,200641,1,8,0:1:0:0:
272,144,200953,1,0,0:0:0:0:
392,112,201266,6,0,P|344:104|308:108,1,60,6|0,0:1|2:0,0:0:0:0:
272,144,201578,1,0,0:0:0:0:
288,216,201734,1,0,0:0:0:0:
316,284,201891,2,0,P|404:240|440:184,1,120,10|2,0:1|0:1,0:0:0:0:
440,156,202359,1,2,0:1:0:0:
440,156,202516,1,0,1:0:0:0:
388,48,202828,6,0,P|350:81|337:103,1,60,2|0,0:0|0:0,0:0:0:0:
287,36,203141,2,0,P|271:84|271:110,1,60,2|0,1:0|0:0,0:0:0:0:
193,91,203453,2,0,P|203:141|216:163,1,60,2|0,0:0|0:0,0:0:0:0:
260,252,203766,6,0,P|220:248|172:248,1,60,0|0,1:0|2:0,0:0:0:0:
124,292,204078,2,0,P|116:232|108:216,1,60
40,244,204391,2,10,P|12:188|32:100,1,120,10|10,0:1|0:1,0:0:0:0:
108,92,204859,1,2,0:1:0:0:
108,92,205016,1,0,1:0:0:0:
251,79,205328,6,0,P|289:112|302:134,1,60,2|0,0:0|0:0,0:0:0:0:
352,67,205641,2,0,P|368:115|368:141,1,60,2|0,1:0|0:0,0:0:0:0:
446,122,205953,2,0,P|436:172|423:194,1,60,2|0,0:0|0:0,0:0:0:0:
360,248,206266,6,0,L|292:248,1,60,2|14,1:2|1:0,0:0:0:0:
160,336,207203,5,2,0:1:0:0:
136,248,207359,1,2,0:1:0:0:
76,316,207516,2,0,P|28:248|36:200,1,120,0|2,1:1|0:1,0:0:0:0:
76,56,208141,1,10,0:1:0:0:
127,230,208453,1,2,0:1:0:0:
71,156,208766,6,0,P|40:241|41:265,1,80,0|2,1:0|0:1,0:0:0:0:
147,134,209182,2,2,P|61:164|42:181,1,80,2|10,0:1|0:1,0:0:0:0:
214,176,209599,2,2,P|134:130|108:125,1,80,2|2,0:1|0:1,0:0:0:0:
224,253,210016,2,2,P|208:162|194:140,1,80,2|2,1:1|2:1,0:0:0:0:
171,311,210432,2,2,P|229:239|237:215,1,80,2|6,2:1|2:3,0:0:0:0:
127,230,210849,1,4,0:3:0:0:
147,134,211057,1,4,0:3:0:0:
136,36,211266,6,0,P|208:16|212:16,1,60,6|0,1:0|2:0,0:0:0:0:
284,34,211578,1,0,0:0:0:0:
220,98,211734,1,0,0:0:0:0:
308,110,211891,2,0,P|376:78|448:66,1,120,10|2,1:0|0:1,0:0:0:0:
484,108,212359,1,2,0:1:0:0:
484,108,212516,1,0,1:0:0:0:
337,178,212828,6,0,P|286:181|262:175,1,60,2|0,0:0|0:0,0:0:0:0:
274,257,213141,2,2,P|228:234|210:215,1,60,2|2,1:0|0:0,0:0:0:0:
168,285,213453,2,0,P|139:242|133:217,1,60,2|0,0:0|0:0,0:0:0:0:
140,138,213766,6,0,P|120:122|88:110,1,60,2|0,1:0|2:0,0:0:0:0:
34,166,214078,1,0,0:0:0:0:
9,92,214234,1,0,0:0:0:0:
63,35,214391,2,0,P|109:39|180:75,1,120,10|2,0:1|0:1,0:0:0:0:
245,103,214859,1,2,0:1:0:0:
245,103,215016,1,0,1:0:0:0:
265,269,215328,6,0,P|303:236|316:214,1,60,2|0,0:0|0:0,0:0:0:0:
366,281,215641,2,0,P|382:233|382:207,1,60,2|0,1:0|0:0,0:0:0:0:
460,225,215953,2,0,P|450:175|437:153,1,60,2|0,0:0|0:0,0:0:0:0:
472,86,216266,6,0,L|405:90,1,60,2|14,1:1|1:0,0:0:0:0:
328,48,217203,5,2,0:1:0:0:
340,140,217359,1,2,0:1:0:0:
256,104,217516,2,0,P|200:116|156:180,1,120,0|2,1:0|0:1,0:0:0:0:
248,232,218141,1,10,0:1:0:0:
104,240,218453,1,2,0:1:0:0:
163,111,218766,6,0,P|72:116|50:126,1,80,0|2,1:0|0:1,0:0:0:0:
215,172,219182,2,2,P|153:105|130:94,1,80,2|10,0:1|0:1,0:0:0:0:
202,250,219599,2,2,P|213:159|207:133,1,80,2|2,0:1|0:1,0:0:0:0:
216,340,220016,6,2,L|152:315,1,60,2|0,1:3|0:0,0:0:0:0:
84,324,220328,1,0,0:0:0:0:
84,324,220484,1,0,0:0:0:0:
84,324,220641,1,10,0:3:0:0:
60,232,220953,1,0,0:0:0:0:
44,116,221266,6,0,P|84:56|96:52,1,60,6|0,1:0|2:0,0:0:0:0:
156,32,221578,1,0,0:0:0:0:
244,48,221734,1,0,0:0:0:0:
292,124,221891,2,0,P|324:192|336:256,1,120,14|2,0:1|0:1,0:0:0:0:
336,324,222359,1,2,0:1:0:0:
336,324,222516,1,4,1:0:0:0:
200,292,222828,6,0,P|162:259|149:237,1,60,2|0,0:0|0:0,0:0:0:0:
99,304,223141,2,0,P|83:256|83:230,1,60,2|0,1:0|0:0,0:0:0:0:
5,249,223453,2,0,P|15:199|28:177,1,60,2|0,0:0|0:0,0:0:0:0:
96,168,223766,6,0,P|140:164|200:140,1,60,6|0,1:0|2:0,0:0:0:0:
212,104,224078,1,0,0:0:0:0:
236,32,224234,1,0,0:0:0:0:
309,3,224391,2,0,P|373:-1|453:11,1,120,14|2,0:1|0:1,0:0:0:0:
488,64,224859,1,2,0:1:0:0:
488,64,225016,1,4,1:0:0:0:
349,165,225328,6,0,P|302:146|282:130,1,60,2|0,0:0|0:0,0:0:0:0:
258,211,225641,2,0,P|226:171|217:146,1,60,2|0,1:0|0:0,0:0:0:0:
151,191,225953,2,0,P|143:140|147:115,1,60,2|0,0:0|0:0,0:0:0:0:
102,55,226266,6,0,L|56:110,1,60,6|14,1:2|0:1,0:0:0:0:
80,268,227203,5,2,0:1:0:0:
112,184,227359,1,2,0:1:0:0:
168,252,227516,2,0,B|204:252|220:276|220:276|248:304|296:296,1,120,4|2,1:0|0:1,0:0:0:0:
308,140,228141,1,14,0:1:0:0:
168,252,228453,1,2,0:1:0:0:
308,140,228766,6,0,P|399:145|421:155,1,80,4|2,1:0|0:1,0:0:0:0:
257,201,229182,2,2,P|319:134|342:123,1,80,2|14,0:1|0:1,0:0:0:0:
270,279,229599,2,2,P|259:188|265:162,1,80,2|2,0:1|0:1,0:0:0:0:
336,318,230016,2,2,P|259:267|245:246,1,80,6|2,1:1|2:1,0:0:0:0:
411,292,230432,2,2,P|323:318|297:315,1,80,2|6,2:1|2:3,0:0:0:0:
405,204,230849,1,4,0:3:0:0:
309,140,231057,1,4,0:3:0:0:
360,36,231266,6,0,P|388:25|417:20,1,60,6|0,1:0|2:0,0:0:0:0:
496,48,231578,1,0,0:0:0:0:
440,108,231734,1,0,0:0:0:0:
504,156,231891,2,2,B|486:197|511:245|511:245|484:284,1,120,14|2,0:1|0:1,0:0:0:0:
428,316,232359,1,2,0:1:0:0:
428,316,232516,1,4,1:0:0:0:
272,324,232828,6,0,P|234:291|221:269,1,60,2|0,0:0|0:0,0:0:0:0:
171,336,233141,2,0,P|155:288|155:262,1,60,2|0,1:0|0:0,0:0:0:0:
77,281,233453,2,0,P|87:231|100:209,1,60,2|0,0:0|0:0,0:0:0:0:
184,196,233766,2,0,P|251:179|305:142,1,120,4|0,1:0|2:0,0:0:0:0:
448,56,234391,6,0,P|448:80|440:120,1,60,14|0,1:0|2:0,0:0:0:0:
496,188,234703,1,2,0:1:0:0:
394,199,234859,1,2,0:1:0:0:
454,281,235016,1,0,0:0:0:0:
324,160,235328,6,0,P|320:210|326:234,1,60,2|0,0:0|0:0,0:0:0:0:
244,223,235641,2,0,P|266:268|285:286,1,60,2|0,1:0|0:0,0:0:0:0:
216,329,235953,2,0,P|258:357|283:363,1,60,2|0,0:0|0:0,0:0:0:0:
144,308,236266,6,0,L|160:244,1,60,6|14,1:2|0:1,0:0:0:0:
204,96,237203,5,2,0:1:0:0:
246,15,237359,1,2,0:1:0:0:
301,89,237516,2,0,B|343:74|343:74|357:113|397:132|397:132,1,120,4|2,1:0|0:1,0:0:0:0:
264,228,238141,1,14,0:1:0:0:
448,252,238453,1,2,0:1:0:0:
264,228,238766,6,0,P|331:288|354:297,1,80,4|2,1:0|0:1,0:0:0:0:
271,150,239182,2,2,P|267:241|275:265,1,80,2|14,0:1|0:1,0:0:0:0:
335,104,239599,2,2,P|262:160|248:183,1,80,2|2,0:1|0:1,0:0:0:0:
419,101,240016,6,2,L|479:111,1,60,6|2,1:1|0:3,0:0:0:0:
434,188,240328,1,0,0:0:0:0:
434,188,240484,1,0,0:0:0:0:
434,188,240641,1,0,0:0:0:0:
327,290,240953,1,2,0:1:0:0:
188,320,241266,6,0,P|140:328|108:324,1,60,4|0,1:0|2:0,0:0:0:0:
72,260,241578,1,0,0:0:0:0:
44,176,241734,1,0,0:0:0:0:
56,88,241891,2,0,P|132:84|176:56,1,120,14|2,1:0|0:1,0:0:0:0:
260,76,242359,1,2,0:1:0:0:
344,104,242516,2,0,L|390:106,2,30,2|0|0,2:2|2:2|2:2,0:0:0:0:
448,192,243141,5,14,0:1:0:0:
256,192,243453,1,2,0:1:0:0:
448,192,243766,5,6,0:1:0:0:
408,272,243922,1,0,0:0:0:0:
336,328,244078,2,0,P|276:336|252:332,1,60,0|0,0:0|0:0,0:0:0:0:
188,332,244391,2,0,P|128:320|80:272,1,120,14|2,0:1|0:1,0:0:0:0:
88,192,244859,1,2,0:1:0:0:
164,252,245016,2,0,L|184:224,2,30,2|0|0,2:2|2:0|2:0,0:0:0:0:
256,344,245641,5,14,0:1:0:0:
264,260,245953,2,0,L|264:201,2,60,0|2|0,0:0|0:0|0:0,0:0:0:0:
340,312,246422,1,0,0:0:0:0:
420,268,246578,2,0,P|440:224|448:184,1,60,0|0,0:0|0:0,0:0:0:0:
440,124,246891,2,2,B|376:104|376:104|340:48,1,120,14|2,0:1|0:1,0:0:0:0:
256,44,247359,1,2,0:1:0:0:
216,124,247516,2,0,L|272:128,2,30,2|0|0,2:2|2:0|2:0,0:0:0:0:
391,327,248141,5,14,0:1:0:0:
264,200,248453,1,2,0:1:0:0:
391,327,248766,5,6,1:1:0:0:
444,256,248922,1,0,0:0:0:0:
440,164,249078,2,0,P|428:124|404:80,1,60,0|0,0:0|0:0,0:0:0:0:
332,112,249391,2,2,P|352:216|344:256,1,120,14|2,0:1|0:1,0:0:0:0:
308,308,249859,1,2,0:1:0:0:
264,228,250016,2,0,L|208:232,2,30,2|0|0,2:0|2:0|2:0,0:0:0:0:
121,327,250641,5,14,0:1:0:0:
161,228,250953,2,0,L|202:186,2,60,0|2|0,0:0|0:0|0:0,0:0:0:0:
68,256,251422,1,0,0:0:0:0:
72,164,251578,2,0,P|84:124|108:80,1,60,0|0,0:0|0:0,0:0:0:0:
180,112,251891,2,2,P|160:216|168:256,1,120,14|2,0:1|0:1,0:0:0:0:
204,308,252359,1,2,0:1:0:0:
244,232,252516,1,0,0:0:0:0:
336,72,252828,5,2,0:1:0:0:
332,253,253141,1,14,0:1:0:0:
490,162,253453,1,2,0:1:0:0:
312,148,253766,2,0,P|240:120|220:116,1,60,6|0,0:1|2:0,0:0:0:0:
212,48,254078,1,0,1:0:0:0:
168,128,254234,1,0,0:0:0:0:
104,64,254391,2,2,B|80:112|80:112|16:144,1,120,14|2,1:0|1:0,0:0:0:0:
104,188,254859,1,2,0:1:0:0:
172,248,255016,2,0,P|240:272|272:272,1,60,6|0,1:0|2:0,0:0:0:0:
299,316,255328,5,2,1:0:0:0:
359,214,255641,1,14,1:0:0:0:
392,324,255953,1,10,1:2:0:0:
392,324,256109,1,0,0:0:0:0:
392,324,256266,2,0,P|356:252|360:212,1,120,4|0,1:0|1:0,0:0:0:0:
496,168,256891,2,0,P|495:108|463:58,1,120,6|0,1:0|1:0,0:0:0:0:
400,96,257359,1,0,0:0:0:0:
340,136,257516,6,8,L|292:172,1,60,12|8,1:1|0:2,0:0:0:0:
292,276,257828,2,8,L|344:236,1,60,10|8,0:1|0:2,0:0:0:0:
232,220,258141,2,8,L|180:260,1,60,14|8,1:1|0:2,0:0:0:0:
192,152,258453,2,8,L|244:112,1,60,10|8,0:1|0:2,0:0:0:0:
100,132,258766,5,6,0:3:0:0:
48,216,258974,1,6,0:3:0:0:
68,304,259182,1,6,0:3:0:0:
136,236,259391,1,6,0:3:0:0:
164,328,259599,1,6,0:3:0:0:
224,252,259807,1,6,0:3:0:0:
264,340,260016,6,0,L|360:312,1,60,2|8,0:3|0:3,0:0:0:0:
376,272,260328,1,8,0:3:0:0:
376,272,260484,1,10,0:2:0:0:
376,272,260641,1,10,0:2:0:0:
428,140,260953,1,0,0:0:0:0:
428,140,261266,6,0,B|384:84|320:100|320:100|248:72,1,180,6|0,1:2|0:0,0:0:0:0:
200,48,262516,2,0,P|192:76|204:124,1,60,2|0,0:2|1:0,0:0:0:0:
253,155,263141,2,0,B|303:185|352:173|352:173|443:269,1,232.5,2|2,0:2|0:2,0:0:0:0:
396,332,264703,2,0,L|420:352,1,30,0|0,0:0|0:0,0:0:0:0:
324,320,265016,6,0,P|276:316|240:304,1,60,0|0,0:0|1:0,0:0:0:0:
236,248,265641,2,0,P|188:252|152:264,1,60,0|0,0:0|0:0,0:0:0:0:
140,316,266266,6,0,P|52:304|56:176,1,240,6|0,1:2|0:0,0:0:0:0:
109,242,267828,1,0,0:0:0:0:
164,168,268141,2,0,P|132:112|152:48,1,120
216,40,268974,2,0,L|216:0,2,40
272,96,269599,2,0,L|272:136,2,40
336,40,270224,2,0,L|336:0,1,40
402,74,270641,6,0,L|386:138,1,60
239,161,271266,2,0,P|183:209|227:305,1,180,0|0,1:0|0:0,0:0:0:0:
346,371,272516,6,0,L|418:347,1,60,0|0,0:0|1:0,0:0:0:0:
298,239,273141,2,0,B|242:231|242:231|194:175|122:207|122:207|66:199,1,240,0|0,0:0|0:2,0:0:0:0:
176,120,274703,2,0,L|144:83,1,30
104,72,275016,6,0,L|88:156,1,60,0|0,0:0|1:0,0:0:0:0:
72,200,275641,2,0,L|108:260,1,60,0|0,0:0|0:0,0:0:0:0:
148,308,276266,2,0,P|216:300|272:152,1,240,0|0,1:0|0:0,0:0:0:0:
184,213,277828,6,0,L|100:209,1,60
41,197,278453,1,0,0:0:0:0:
48,116,278766,2,0,B|148:112|196:24|196:24|224:112|324:136,1,360,0|0,1:0|0:0,0:0:0:0:
414,96,281266,6,0,L|414:220,1,120,6|0,0:2|0:0,0:0:0:0:
408,336,283141,2,0,B|320:312|320:312|264:244,1,180
144,248,285641,5,0,0:0:0:0:
45,254,286266,2,0,P|65:191|105:155,1,120
184,80,288141,2,0,B|237:107|237:107|293:112|293:112|352:144,1,180
404,236,290641,6,0,L|376:264,1,30,0|0,0:0|0:0,0:0:0:0:
296,280,291266,2,0,L|196:284,1,90,0|0,0:0|0:0,0:0:0:0:
124,244,292516,6,0,L|156:216,1,30,0|0,0:0|0:0,0:0:0:0:
174,154,293141,2,0,B|226:142|266:150|266:150|302:122|346:122,1,180
386,189,295641,5,0,0:0:0:0:
380,260,296266,2,0,P|316:256|264:272,1,120
200,208,297828,2,0,L|252:172,1,60
276,100,298766,6,0,P|312:120|328:148,1,72
360,212,301266,5,0,0:2:0:0:
