osu file format v14

[General]
AudioFilename: audio.mp3
AudioLeadIn: 0
PreviewTime: -1
Countdown: 1
SampleSet: None
StackLeniency: 0.7
Mode: 1
LetterboxInBreaks: 0
WidescreenStoryboard: 0

[Editor]
DistanceSpacing: 1
BeatDivisor: 4
GridSize: 32
TimelineZoom: 2.2

[Metadata]
Title:Jungaaaa
TitleUnicode:Jungaaaa
Artist:D Fast
ArtistUnicode:D Fast
Creator:Zetera
Version:CONCRETE JUNGLE
Source:Lethal League Blaze
Tags:
BeatmapID:1889811
BeatmapSetID:905428

[Difficulty]
HPDrainRate:6
CircleSize:2
OverallDifficulty:6.5
ApproachRate:10
SliderMultiplier:1.4
SliderTickRate:1

[Events]
//Background and Video events
0,0,"BG_VOMIT.jpg",0,0
//Break Periods
//Storyboard Layer 0 (Background)
//Storyboard Layer 1 (Fail)
//Storyboard Layer 2 (Pass)
//Storyboard Layer 3 (Foreground)
//Storyboard Sound Samples

[TimingPoints]
69.1556886227545,352.941176470588,4,1,0,100,1,0
62186,-100,4,1,0,100,0,1
84775,-100,4,1,0,100,0,0

[HitObjects]
256,192,69,5,0,0:0:0:0:
256,192,245,1,8,0:0:0:0:
256,192,333,1,0,0:0:0:0:
256,192,510,1,0,0:0:0:0:
256,192,598,1,8,0:0:0:0:
256,192,775,1,0,0:0:0:0:
256,192,951,1,0,0:0:0:0:
256,192,1127,1,8,0:0:0:0:
256,192,1304,1,8,0:0:0:0:
256,192,1392,1,8,0:0:0:0:
256,192,1480,1,0,0:0:0:0:
256,192,1657,1,0,0:0:0:0:
256,192,1745,1,8,0:0:0:0:
256,192,1922,1,8,0:0:0:0:
256,192,2010,1,0,0:0:0:0:
256,192,2098,1,0,0:0:0:0:
256,192,2186,1,8,0:0:0:0:
256,192,2363,1,0,0:0:0:0:
256,192,2539,1,8,0:0:0:0:
256,192,2716,1,8,0:0:0:0:
256,192,2804,1,8,0:0:0:0:
256,192,2892,1,0,0:0:0:0:
256,192,3069,1,8,0:0:0:0:
256,192,3157,1,0,0:0:0:0:
256,192,3333,1,0,0:0:0:0:
256,192,3422,1,8,0:0:0:0:
256,192,3598,1,0,0:0:0:0:
256,192,3775,1,0,0:0:0:0:
256,192,3951,1,8,0:0:0:0:
256,192,4127,1,8,0:0:0:0:
256,192,4216,1,8,0:0:0:0:
256,192,4304,1,0,0:0:0:0:
256,192,4480,1,8,0:0:0:0:
256,192,4569,1,8,0:0:0:0:
256,192,4657,1,0,0:0:0:0:
256,192,4745,1,0,0:0:0:0:
256,192,4833,1,0,0:0:0:0:
256,192,5010,1,8,0:0:0:0:
256,192,5098,1,8,0:0:0:0:
256,192,5186,1,0,0:0:0:0:
256,192,5275,1,8,0:0:0:0:
256,192,5363,1,0,0:0:0:0:
256,192,5451,1,0,0:0:0:0:
256,192,5539,1,8,0:0:0:0:
256,192,5716,1,0,0:0:0:0:
256,192,5892,1,8,0:0:0:0:
256,192,5980,1,0,0:0:0:0:
256,192,6157,1,0,0:0:0:0:
256,192,6245,1,8,0:0:0:0:
256,192,6422,1,0,0:0:0:0:
256,192,6598,1,0,0:0:0:0:
256,192,6775,1,8,0:0:0:0:
256,192,6951,1,8,0:0:0:0:
256,192,7039,1,8,0:0:0:0:
256,192,7127,1,0,0:0:0:0:
256,192,7304,1,0,0:0:0:0:
256,192,7392,1,8,0:0:0:0:
256,192,7569,1,8,0:0:0:0:
256,192,7657,1,0,0:0:0:0:
256,192,7745,1,0,0:0:0:0:
256,192,7833,1,8,0:0:0:0:
256,192,8010,1,0,0:0:0:0:
256,192,8186,1,8,0:0:0:0:
256,192,8363,1,8,0:0:0:0:
256,192,8451,1,8,0:0:0:0:
256,192,8539,1,0,0:0:0:0:
256,192,8716,1,8,0:0:0:0:
256,192,8804,1,0,0:0:0:0:
256,192,8980,1,0,0:0:0:0:
256,192,9069,1,8,0:0:0:0:
256,192,9245,1,0,0:0:0:0:
256,192,9422,1,0,0:0:0:0:
256,192,9598,1,8,0:0:0:0:
256,192,9775,1,8,0:0:0:0:
256,192,9863,1,8,0:0:0:0:
256,192,9951,1,0,0:0:0:0:
256,192,10127,1,0,0:0:0:0:
256,192,10216,1,8,0:0:0:0:
256,192,10392,1,8,0:0:0:0:
256,192,10480,1,0,0:0:0:0:
256,192,10657,1,0,0:0:0:0:
256,192,10745,1,0,0:0:0:0:
256,192,10833,1,8,0:0:0:0:
256,192,10922,1,8,0:0:0:0:
256,192,11010,1,8,0:0:0:0:
256,192,11098,1,0,0:0:0:0:
256,192,11187,1,8,0:0:0:0:
256,192,11275,1,8,0:0:0:0:
256,192,11363,1,0,0:0:0:0:
256,192,11539,1,8,0:0:0:0:
256,192,11627,1,8,0:0:0:0:
256,192,11716,1,8,0:0:0:0:
256,192,11804,1,0,0:0:0:0:
256,192,11892,1,8,0:0:0:0:
256,192,11980,1,8,0:0:0:0:
256,192,12069,1,0,0:0:0:0:
256,192,12245,1,0,0:0:0:0:
256,192,12333,1,0,0:0:0:0:
256,192,12422,1,8,0:0:0:0:
256,192,12598,1,8,0:0:0:0:
256,192,12686,1,8,0:0:0:0:
256,192,12775,1,0,0:0:0:0:
256,192,12951,1,0,0:0:0:0:
256,192,13039,1,8,0:0:0:0:
256,192,13127,1,8,0:0:0:0:
256,192,13216,1,0,0:0:0:0:
256,192,13304,1,8,0:0:0:0:
256,192,13392,1,8,0:0:0:0:
256,192,13480,1,0,0:0:0:0:
256,192,13657,1,8,0:0:0:0:
256,192,13745,1,0,0:0:0:0:
256,192,13833,1,8,0:0:0:0:
256,192,14010,1,8,0:0:0:0:
256,192,14098,1,8,0:0:0:0:
256,192,14186,1,0,0:0:0:0:
256,192,14245,1,0,0:0:0:0:
256,192,14304,1,0,0:0:0:0:
256,192,14363,1,8,0:0:0:0:
256,192,14451,1,8,0:0:0:0:
256,192,14627,1,0,0:0:0:0:
256,192,14716,1,8,0:0:0:0:
256,192,14892,1,0,0:0:0:0:
256,192,14980,1,0,0:0:0:0:
256,192,15069,1,8,0:0:0:0:
256,192,15157,1,0,0:0:0:0:
256,192,15245,1,8,0:0:0:0:
256,192,15422,1,8,0:0:0:0:
256,192,15510,1,8,0:0:0:0:
256,192,15598,1,0,0:0:0:0:
256,192,15775,1,0,0:0:0:0:
256,192,15863,1,8,0:0:0:0:
256,192,16039,1,8,0:0:0:0:
256,192,16127,1,0,0:0:0:0:
256,192,16216,1,0,0:0:0:0:
256,192,16304,1,8,0:0:0:0:
256,192,16392,1,0,0:0:0:0:
256,192,16480,1,8,0:0:0:0:
256,192,16569,1,8,0:0:0:0:
256,192,16657,1,0,0:0:0:0:
256,192,16833,1,8,0:0:0:0:
256,192,16922,1,8,0:0:0:0:
256,192,17010,1,0,0:0:0:0:
256,192,17098,1,0,0:0:0:0:
256,192,17186,1,8,0:0:0:0:
256,192,17275,1,8,0:0:0:0:
256,192,17363,1,8,0:0:0:0:
256,192,17451,1,0,0:0:0:0:
256,192,17539,1,8,0:0:0:0:
256,192,17627,1,8,0:0:0:0:
256,192,17716,1,0,0:0:0:0:
256,192,17804,1,8,0:0:0:0:
256,192,17892,1,0,0:0:0:0:
256,192,17980,1,0,0:0:0:0:
256,192,18069,1,8,0:0:0:0:
256,192,18245,1,8,0:0:0:0:
256,192,18333,1,8,0:0:0:0:
256,192,18422,1,0,0:0:0:0:
256,192,18510,1,0,0:0:0:0:
256,192,18598,1,0,0:0:0:0:
256,192,18686,1,8,0:0:0:0:
256,192,18863,1,8,0:0:0:0:
256,192,18951,1,0,0:0:0:0:
256,192,19039,1,0,0:0:0:0:
256,192,19127,1,8,0:0:0:0:
256,192,19304,1,8,0:0:0:0:
256,192,19392,1,0,0:0:0:0:
256,192,19480,1,8,0:0:0:0:
256,192,19657,1,8,0:0:0:0:
256,192,19745,1,8,0:0:0:0:
256,192,19833,1,0,0:0:0:0:
256,192,19892,1,8,0:0:0:0:
256,192,19951,1,8,0:0:0:0:
256,192,20010,1,8,0:0:0:0:
256,192,20098,1,0,0:0:0:0:
256,192,20186,1,8,0:0:0:0:
256,192,20275,1,8,0:0:0:0:
256,192,20363,1,0,0:0:0:0:
256,192,20539,1,0,0:0:0:0:
256,192,20627,1,0,0:0:0:0:
256,192,20716,1,8,0:0:0:0:
256,192,20892,1,8,0:0:0:0:
256,192,21069,1,8,0:0:0:0:
256,192,21157,1,8,0:0:0:0:
256,192,21245,1,0,0:0:0:0:
256,192,21422,1,8,0:0:0:0:
256,192,21510,1,0,0:0:0:0:
256,192,21686,1,0,0:0:0:0:
256,192,21775,1,8,0:0:0:0:
256,192,21951,1,0,0:0:0:0:
256,192,22216,1,8,0:0:0:0:
256,192,22304,1,8,0:0:0:0:
256,192,22392,1,8,0:0:0:0:
256,192,22480,1,8,0:0:0:0:
256,192,22569,1,8,0:0:0:0:
256,192,22657,1,4,0:0:0:0:
256,192,22922,1,0,0:0:0:0:
256,192,23010,1,8,0:0:0:0:
256,192,23186,1,4,0:0:0:0:
256,192,23451,1,8,0:0:0:0:
256,192,23539,1,0,0:0:0:0:
256,192,23716,1,8,0:0:0:0:
256,192,23804,1,8,0:0:0:0:
256,192,23892,1,0,0:0:0:0:
256,192,23980,1,8,0:0:0:0:
256,192,24069,1,4,0:0:0:0:
256,192,24333,1,8,0:0:0:0:
256,192,24422,1,8,0:0:0:0:
256,192,24598,1,4,0:0:0:0:
256,192,24863,1,0,0:0:0:0:
256,192,24951,1,8,0:0:0:0:
256,192,25039,1,0,0:0:0:0:
256,192,25127,1,8,0:0:0:0:
256,192,25216,1,8,0:0:0:0:
256,192,25304,1,0,0:0:0:0:
256,192,25480,1,4,0:0:0:0:
256,192,25745,1,0,0:0:0:0:
256,192,25833,1,8,0:0:0:0:
256,192,26010,1,4,0:0:0:0:
256,192,26275,1,8,0:0:0:0:
256,192,26363,1,0,0:0:0:0:
256,192,26539,1,8,0:0:0:0:
256,192,26627,1,8,0:0:0:0:
256,192,26716,1,0,0:0:0:0:
256,192,26804,1,8,0:0:0:0:
256,192,26892,1,0,0:0:0:0:
256,192,27069,1,8,0:0:0:0:
256,192,27157,1,8,0:0:0:0:
256,192,27245,1,0,0:0:0:0:
256,192,27333,1,0,0:0:0:0:
256,192,27422,1,0,0:0:0:0:
256,192,27598,1,8,0:0:0:0:
256,192,27686,1,0,0:0:0:0:
256,192,27775,1,8,0:0:0:0:
256,192,27863,1,8,0:0:0:0:
256,192,27951,1,0,0:0:0:0:
256,192,28039,1,8,0:0:0:0:
256,192,28127,1,8,0:0:0:0:
256,192,28216,1,8,0:0:0:0:
256,192,28304,1,4,0:0:0:0:
256,192,28569,1,0,0:0:0:0:
256,192,28657,1,8,0:0:0:0:
256,192,28833,1,4,0:0:0:0:
256,192,29098,1,8,0:0:0:0:
256,192,29186,1,0,0:0:0:0:
256,192,29363,1,8,0:0:0:0:
256,192,29451,1,8,0:0:0:0:
256,192,29539,1,0,0:0:0:0:
256,192,29627,1,8,0:0:0:0:
256,192,29716,1,4,0:0:0:0:
256,192,29980,1,8,0:0:0:0:
256,192,30069,1,8,0:0:0:0:
256,192,30245,1,4,0:0:0:0:
256,192,30510,1,0,0:0:0:0:
256,192,30598,1,8,0:0:0:0:
256,192,30775,1,0,0:0:0:0:
256,192,30951,1,0,0:0:0:0:
256,192,31039,1,8,0:0:0:0:
256,192,31127,1,4,0:0:0:0:
256,192,31392,1,0,0:0:0:0:
256,192,31480,1,8,0:0:0:0:
256,192,31657,1,4,0:0:0:0:
256,192,31922,1,8,0:0:0:0:
256,192,32010,1,0,0:0:0:0:
256,192,32186,1,8,0:0:0:0:
256,192,32275,1,8,0:0:0:0:
256,192,32363,1,0,0:0:0:0:
256,192,32451,1,8,0:0:0:0:
256,192,32539,1,0,0:0:0:0:
256,192,32716,1,8,0:0:0:0:
256,192,32804,1,0,0:0:0:0:
256,192,32892,1,0,0:0:0:0:
256,192,32980,1,0,0:0:0:0:
256,192,33069,1,8,0:0:0:0:
256,192,33157,1,8,0:0:0:0:
256,192,33245,1,8,0:0:0:0:
256,192,33333,1,0,0:0:0:0:
256,192,33422,1,8,0:0:0:0:
256,192,33510,1,8,0:0:0:0:
256,192,33598,1,0,0:0:0:0:
256,192,33686,1,8,0:0:0:0:
256,192,33775,1,8,0:0:0:0:
256,192,33863,1,8,0:0:0:0:
256,192,33951,1,4,0:0:0:0:
256,192,34216,1,0,0:0:0:0:
256,192,34304,1,8,0:0:0:0:
256,192,34480,1,4,0:0:0:0:
256,192,34657,1,0,0:0:0:0:
256,192,34745,1,8,0:0:0:0:
256,192,34833,1,0,0:0:0:0:
256,192,34922,1,8,0:0:0:0:
256,192,35010,1,8,0:0:0:0:
256,192,35098,1,0,0:0:0:0:
256,192,35186,1,8,0:0:0:0:
256,192,35363,1,4,0:0:0:0:
256,192,35627,1,8,0:0:0:0:
256,192,35716,1,8,0:0:0:0:
256,192,35892,1,4,0:0:0:0:
256,192,36069,1,0,0:0:0:0:
256,192,36157,1,0,0:0:0:0:
256,192,36245,1,8,0:0:0:0:
256,192,36333,1,8,0:0:0:0:
256,192,36422,1,0,0:0:0:0:
256,192,36510,1,8,0:0:0:0:
256,192,36598,1,0,0:0:0:0:
256,192,36775,1,4,0:0:0:0:
256,192,37039,1,0,0:0:0:0:
256,192,37127,1,8,0:0:0:0:
256,192,37304,1,4,0:0:0:0:
256,192,37480,1,0,0:0:0:0:
256,192,37569,1,8,0:0:0:0:
256,192,37657,1,0,0:0:0:0:
256,192,37745,1,0,0:0:0:0:
256,192,37833,1,8,0:0:0:0:
256,192,37922,1,8,0:0:0:0:
256,192,38010,1,0,0:0:0:0:
256,192,38098,1,8,0:0:0:0:
256,192,38186,1,0,0:0:0:0:
256,192,38363,1,8,0:0:0:0:
256,192,38451,1,8,0:0:0:0:
256,192,38539,1,0,0:0:0:0:
256,192,38627,1,0,0:0:0:0:
256,192,38716,1,0,0:0:0:0:
256,192,38892,1,8,0:0:0:0:
256,192,38980,1,8,0:0:0:0:
256,192,39069,1,0,0:0:0:0:
256,192,39157,1,8,0:0:0:0:
256,192,39245,1,0,0:0:0:0:
256,192,39333,1,8,0:0:0:0:
256,192,39422,1,8,0:0:0:0:
256,192,39510,1,8,0:0:0:0:
256,192,39598,1,4,0:0:0:0:
256,192,39863,1,0,0:0:0:0:
256,192,39951,1,8,0:0:0:0:
256,192,40127,1,4,0:0:0:0:
256,192,40392,1,8,0:0:0:0:
256,192,40480,1,0,0:0:0:0:
256,192,40568,1,0,0:0:0:0:
256,192,40657,1,8,0:0:0:0:
256,192,40745,1,8,0:0:0:0:
256,192,40833,1,0,0:0:0:0:
256,192,40922,1,8,0:0:0:0:
256,192,41010,1,4,0:0:0:0:
256,192,41275,1,8,0:0:0:0:
256,192,41363,1,8,0:0:0:0:
256,192,41539,1,4,0:0:0:0:
256,192,41716,1,0,0:0:0:0:
256,192,41804,1,8,0:0:0:0:
256,192,41892,1,0,0:0:0:0:
256,192,41980,1,0,0:0:0:0:
256,192,42069,1,8,0:0:0:0:
256,192,42157,1,8,0:0:0:0:
256,192,42245,1,0,0:0:0:0:
256,192,42333,1,8,0:0:0:0:
256,192,42422,1,4,0:0:0:0:
256,192,42598,1,8,0:0:0:0:
256,192,42657,1,8,0:0:0:0:
256,192,42716,1,8,0:0:0:0:
256,192,42775,1,0,0:0:0:0:
256,192,42863,1,0,0:0:0:0:
256,192,42951,1,8,0:0:0:0:
256,192,43039,1,0,0:0:0:0:
256,192,43216,1,8,0:0:0:0:
256,192,43304,1,0,0:0:0:0:
256,192,43392,1,0,0:0:0:0:
256,192,43480,1,8,0:0:0:0:
256,192,43569,1,8,0:0:0:0:
256,192,43657,1,0,0:0:0:0:
256,192,43745,1,8,0:0:0:0:
256,192,43833,1,0,0:0:0:0:
256,192,44010,1,0,0:0:0:0:
256,192,44098,1,0,0:0:0:0:
256,192,44186,1,8,0:0:0:0:
256,192,44275,1,8,0:0:0:0:
256,192,44363,1,0,0:0:0:0:
256,192,44451,1,0,0:0:0:0:
256,192,44539,1,8,0:0:0:0:
256,192,44627,1,0,0:0:0:0:
256,192,44716,1,8,0:0:0:0:
256,192,44804,1,8,0:0:0:0:
256,192,44892,1,0,0:0:0:0:
256,192,44980,1,8,0:0:0:0:
256,192,45069,1,0,0:0:0:0:
256,192,45245,1,4,0:0:0:0:
256,192,45422,1,0,0:0:0:0:
256,192,45510,1,8,0:0:0:0:
256,192,45598,1,0,0:0:0:0:
256,192,45686,1,0,0:0:0:0:
256,192,45775,1,8,0:0:0:0:
256,192,45863,1,8,0:0:0:0:
256,192,45951,1,0,0:0:0:0:
256,192,46039,1,8,0:0:0:0:
256,192,46127,1,0,0:0:0:0:
256,192,46216,1,0,0:0:0:0:
256,192,46304,1,8,0:0:0:0:
256,192,46480,1,0,0:0:0:0:
256,192,46569,1,8,0:0:0:0:
256,192,46657,1,0,0:0:0:0:
256,192,46745,1,0,0:0:0:0:
256,192,46833,1,0,0:0:0:0:
256,192,46922,1,8,0:0:0:0:
256,192,47010,1,0,0:0:0:0:
256,192,47098,1,0,0:0:0:0:
256,192,47186,1,8,0:0:0:0:
256,192,47275,1,8,0:0:0:0:
256,192,47363,1,0,0:0:0:0:
256,192,47451,1,8,0:0:0:0:
256,192,47539,1,0,0:0:0:0:
256,192,47627,1,0,0:0:0:0:
256,192,47716,1,8,0:0:0:0:
256,192,47892,1,8,0:0:0:0:
256,192,47980,1,8,0:0:0:0:
256,192,48069,1,0,0:0:0:0:
256,192,48157,1,8,0:0:0:0:
256,192,48245,1,0,0:0:0:0:
256,192,48333,1,0,0:0:0:0:
256,192,48422,1,8,0:0:0:0:
256,192,48510,1,8,0:0:0:0:
256,192,48598,1,0,0:0:0:0:
256,192,48686,1,0,0:0:0:0:
256,192,48775,1,8,0:0:0:0:
256,192,48863,1,0,0:0:0:0:
256,192,48951,1,8,0:0:0:0:
256,192,49039,1,0,0:0:0:0:
256,192,49216,1,0,0:0:0:0:
256,192,49304,1,8,0:0:0:0:
256,192,49392,1,8,0:0:0:0:
256,192,49480,1,0,0:0:0:0:
256,192,49569,1,0,0:0:0:0:
256,192,49657,1,8,0:0:0:0:
256,192,49745,1,0,0:0:0:0:
256,192,49833,1,8,0:0:0:0:
256,192,49922,1,8,0:0:0:0:
256,192,50010,1,0,0:0:0:0:
256,192,50098,1,8,0:0:0:0:
256,192,50186,1,0,0:0:0:0:
256,192,50275,1,0,0:0:0:0:
256,192,50363,1,8,0:0:0:0:
256,192,50451,1,0,0:0:0:0:
256,192,50539,1,8,0:0:0:0:
256,192,50627,1,8,0:0:0:0:
256,192,50716,1,8,0:0:0:0:
256,192,50804,1,8,0:0:0:0:
256,192,50892,1,0,0:0:0:0:
256,192,51069,1,8,0:0:0:0:
256,192,51157,1,8,0:0:0:0:
256,192,51245,1,0,0:0:0:0:
256,192,51333,1,8,0:0:0:0:
256,192,51422,1,0,0:0:0:0:
256,192,51510,1,0,0:0:0:0:
256,192,51598,1,8,0:0:0:0:
256,192,51686,1,8,0:0:0:0:
256,192,51775,1,0,0:0:0:0:
256,192,51951,1,8,0:0:0:0:
256,192,52039,1,0,0:0:0:0:
256,192,52127,1,8,0:0:0:0:
256,192,52216,1,8,0:0:0:0:
256,192,52304,1,0,0:0:0:0:
256,192,52480,1,8,0:0:0:0:
256,192,52569,1,0,0:0:0:0:
256,192,52657,1,0,0:0:0:0:
256,192,52745,1,8,0:0:0:0:
256,192,52833,1,0,0:0:0:0:
256,192,52922,1,0,0:0:0:0:
256,192,53010,1,8,0:0:0:0:
256,192,53098,1,0,0:0:0:0:
256,192,53186,1,8,0:0:0:0:
256,192,53275,1,0,0:0:0:0:
256,192,53363,1,8,0:0:0:0:
256,192,53451,1,8,0:0:0:0:
256,192,53539,1,0,0:0:0:0:
256,192,53716,1,0,0:0:0:0:
256,192,53804,1,0,0:0:0:0:
256,192,53980,1,0,0:0:0:0:
256,192,54069,1,8,0:0:0:0:
256,192,54157,1,8,0:0:0:0:
256,192,54245,1,0,0:0:0:0:
256,192,54333,1,8,0:0:0:0:
256,192,54422,1,0,0:0:0:0:
256,192,54510,1,0,0:0:0:0:
256,192,54598,1,8,0:0:0:0:
256,192,54686,1,8,0:0:0:0:
256,192,54775,1,0,0:0:0:0:
256,192,54951,1,8,0:0:0:0:
256,192,55039,1,8,0:0:0:0:
256,192,55127,1,8,0:0:0:0:
256,192,55216,1,0,0:0:0:0:
256,192,55304,1,0,0:0:0:0:
256,192,55392,1,0,0:0:0:0:
256,192,55480,1,8,0:0:0:0:
256,192,55569,1,0,0:0:0:0:
256,192,55657,1,0,0:0:0:0:
256,192,55745,1,0,0:0:0:0:
256,192,55833,1,8,0:0:0:0:
256,192,55922,1,8,0:0:0:0:
256,192,56010,1,8,0:0:0:0:
256,192,56187,1,8,0:0:0:0:
256,192,56275,1,8,0:0:0:0:
256,192,56363,1,0,0:0:0:0:
256,192,56539,1,12,0:0:0:0:
256,192,57069,1,8,0:0:0:0:
256,192,57951,1,8,0:0:0:0:
256,192,58480,1,8,0:0:0:0:
256,192,59363,1,8,0:0:0:0:
256,192,59892,1,8,0:0:0:0:
256,192,60775,1,8,0:0:0:0:
256,192,60951,1,8,0:0:0:0:
256,192,61039,1,8,0:0:0:0:
256,192,61216,1,8,0:0:0:0:
256,192,61304,1,8,0:0:0:0:
256,192,61480,1,8,0:0:0:0:
256,192,61569,1,8,0:0:0:0:
256,192,61745,1,8,0:0:0:0:
256,192,61833,1,8,0:0:0:0:
256,192,61922,1,8,0:0:0:0:
256,192,62098,1,8,0:0:0:0:
256,192,62186,1,4,0:0:0:0:
256,192,62363,1,8,0:0:0:0:
256,192,62451,1,8,0:0:0:0:
256,192,62539,1,8,0:0:0:0:
256,192,62716,1,0,0:0:0:0:
256,192,62892,1,8,0:0:0:0:
256,192,63069,1,0,0:0:0:0:
256,192,63157,1,8,0:0:0:0:
256,192,63245,1,0,0:0:0:0:
256,192,63333,1,0,0:0:0:0:
256,192,63422,1,8,0:0:0:0:
256,192,63598,1,0,0:0:0:0:
256,192,63775,1,8,0:0:0:0:
256,192,63863,1,8,0:0:0:0:
256,192,63951,1,8,0:0:0:0:
256,192,64127,1,0,0:0:0:0:
256,192,64304,1,8,0:0:0:0:
256,192,64392,1,0,0:0:0:0:
256,192,64480,1,0,0:0:0:0:
256,192,64569,1,0,0:0:0:0:
256,192,64657,1,8,0:0:0:0:
256,192,64745,1,8,0:0:0:0:
256,192,64833,1,0,0:0:0:0:
256,192,65010,1,0,0:0:0:0:
256,192,65069,1,0,0:0:0:0:
256,192,65127,1,0,0:0:0:0:
256,192,65186,1,8,0:0:0:0:
256,192,65275,1,0,0:0:0:0:
256,192,65363,1,8,0:0:0:0:
256,192,65451,1,8,0:0:0:0:
256,192,65539,1,0,0:0:0:0:
256,192,65716,1,0,0:0:0:0:
256,192,65804,1,0,0:0:0:0:
256,192,65892,1,8,0:0:0:0:
256,192,65980,1,0,0:0:0:0:
256,192,66069,1,8,0:0:0:0:
256,192,66157,1,8,0:0:0:0:
256,192,66245,1,0,0:0:0:0:
256,192,66304,1,0,0:0:0:0:
256,192,66363,1,0,0:0:0:0:
256,192,66422,1,8,0:0:0:0:
256,192,66480,1,0,0:0:0:0:
256,192,66539,1,0,0:0:0:0:
256,192,66598,1,8,0:0:0:0:
256,192,66686,1,8,0:0:0:0:
256,192,66775,1,0,0:0:0:0:
256,192,66863,1,8,0:0:0:0:
256,192,66951,1,8,0:0:0:0:
256,192,67039,1,0,0:0:0:0:
256,192,67127,1,8,0:0:0:0:
256,192,67186,1,8,0:0:0:0:
256,192,67245,1,0,0:0:0:0:
256,192,67304,1,8,0:0:0:0:
256,192,67392,1,0,0:0:0:0:
256,192,67480,1,8,0:0:0:0:
256,192,67569,1,8,0:0:0:0:
256,192,67657,1,0,0:0:0:0:
256,192,67745,1,8,0:0:0:0:
256,192,67833,1,0,0:0:0:0:
256,192,68010,1,8,0:0:0:0:
256,192,68098,1,8,0:0:0:0:
256,192,68186,1,8,0:0:0:0:
256,192,68363,1,0,0:0:0:0:
256,192,68539,1,8,0:0:0:0:
256,192,68627,1,0,0:0:0:0:
256,192,68716,1,0,0:0:0:0:
256,192,68804,1,8,0:0:0:0:
256,192,68892,1,0,0:0:0:0:
256,192,69069,1,8,0:0:0:0:
256,192,69245,1,0,0:0:0:0:
256,192,69422,1,8,0:0:0:0:
256,192,69510,1,8,0:0:0:0:
256,192,69598,1,8,0:0:0:0:
256,192,69775,1,0,0:0:0:0:
256,192,69951,1,8,0:0:0:0:
256,192,70039,1,0,0:0:0:0:
256,192,70127,1,0,0:0:0:0:
256,192,70216,1,0,0:0:0:0:
256,192,70304,1,8,0:0:0:0:
256,192,70392,1,8,0:0:0:0:
256,192,70480,1,0,0:0:0:0:
256,192,70569,1,8,0:0:0:0:
256,192,70657,1,0,0:0:0:0:
256,192,70716,1,0,0:0:0:0:
256,192,70775,1,0,0:0:0:0:
256,192,70833,1,0,0:0:0:0:
256,192,70922,1,0,0:0:0:0:
256,192,71010,1,8,0:0:0:0:
256,192,71098,1,0,0:0:0:0:
256,192,71186,1,8,0:0:0:0:
256,192,71275,1,8,0:0:0:0:
256,192,71363,1,0,0:0:0:0:
256,192,71539,1,0,0:0:0:0:
256,192,71627,1,0,0:0:0:0:
256,192,71716,1,8,0:0:0:0:
256,192,71804,1,8,0:0:0:0:
256,192,71892,1,0,0:0:0:0:
256,192,71980,1,0,0:0:0:0:
256,192,72069,1,0,0:0:0:0:
256,192,72245,1,8,0:0:0:0:
256,192,72333,1,0,0:0:0:0:
256,192,72422,1,0,0:0:0:0:
256,192,72480,1,0,0:0:0:0:
256,192,72539,1,0,0:0:0:0:
256,192,72598,1,8,0:0:0:0:
256,192,72686,1,8,0:0:0:0:
256,192,72775,1,8,0:0:0:0:
256,192,72863,1,0,0:0:0:0:
256,192,72951,1,8,0:0:0:0:
256,192,73039,1,8,0:0:0:0:
256,192,73127,1,0,0:0:0:0:
256,192,73216,1,8,0:0:0:0:
256,192,73304,1,8,0:0:0:0:
256,192,73392,1,8,0:0:0:0:
256,192,73480,1,0,0:0:0:0:
256,192,73657,1,8,0:0:0:0:
256,192,73745,1,8,0:0:0:0:
256,192,73833,1,8,0:0:0:0:
256,192,74010,1,0,0:0:0:0:
256,192,74186,1,8,0:0:0:0:
256,192,74275,1,0,0:0:0:0:
256,192,74363,1,0,0:0:0:0:
256,192,74451,1,8,0:0:0:0:
256,192,74539,1,8,0:0:0:0:
256,192,74598,1,0,0:0:0:0:
256,192,74657,1,0,0:0:0:0:
256,192,74716,1,8,0:0:0:0:
256,192,74892,1,0,0:0:0:0:
256,192,75069,1,8,0:0:0:0:
256,192,75157,1,8,0:0:0:0:
256,192,75245,1,8,0:0:0:0:
256,192,75422,1,0,0:0:0:0:
256,192,75510,1,8,0:0:0:0:
256,192,75686,1,8,0:0:0:0:
256,192,75863,1,8,0:0:0:0:
256,192,75951,1,8,0:0:0:0:
256,192,76039,1,0,0:0:0:0:
256,192,76127,1,0,0:0:0:0:
256,192,76216,1,8,0:0:0:0:
256,192,76304,1,0,0:0:0:0:
256,192,76392,1,8,0:0:0:0:
256,192,76480,1,8,0:0:0:0:
256,192,76657,1,8,0:0:0:0:
256,192,76833,1,0,0:0:0:0:
256,192,76922,1,8,0:0:0:0:
256,192,77098,1,8,0:0:0:0:
256,192,77186,1,0,0:0:0:0:
256,192,77275,1,0,0:0:0:0:
256,192,77363,1,8,0:0:0:0:
256,192,77451,1,0,0:0:0:0:
256,192,77539,1,8,0:0:0:0:
256,192,77716,1,0,0:0:0:0:
256,192,77804,1,0,0:0:0:0:
256,192,77892,1,8,0:0:0:0:
256,192,77980,1,0,0:0:0:0:
256,192,78069,1,0,0:0:0:0:
256,192,78157,1,8,0:0:0:0:
256,192,78245,1,8,0:0:0:0:
256,192,78333,1,0,0:0:0:0:
256,192,78422,1,8,0:0:0:0:
256,192,78510,1,0,0:0:0:0:
256,192,78598,1,8,0:0:0:0:
256,192,78686,1,8,0:0:0:0:
256,192,78775,1,8,0:0:0:0:
256,192,78863,1,0,0:0:0:0:
256,192,78951,1,8,0:0:0:0:
256,192,79039,1,8,0:0:0:0:
256,192,79127,1,0,0:0:0:0:
256,192,79304,1,8,0:0:0:0:
256,192,79392,1,8,0:0:0:0:
256,192,79480,1,8,0:0:0:0:
256,192,79657,1,0,0:0:0:0:
256,192,79833,1,8,0:0:0:0:
256,192,79922,1,8,0:0:0:0:
256,192,80010,1,8,0:0:0:0:
256,192,80098,1,0,0:0:0:0:
256,192,80186,1,8,0:0:0:0:
256,192,80275,1,8,0:0:0:0:
256,192,80363,1,0,0:0:0:0:
256,192,80539,1,0,0:0:0:0:
256,192,80627,1,8,0:0:0:0:
256,192,80716,1,8,0:0:0:0:
256,192,80892,1,0,0:0:0:0:
256,192,81069,1,8,0:0:0:0:
256,192,81157,1,0,0:0:0:0:
256,192,81245,1,8,0:0:0:0:
256,192,81333,1,8,0:0:0:0:
256,192,81422,1,0,0:0:0:0:
256,192,81510,1,8,0:0:0:0:
256,192,81598,1,0,0:0:0:0:
256,192,81686,1,8,0:0:0:0:
256,192,81775,1,0,0:0:0:0:
256,192,81951,1,0,0:0:0:0:
256,192,82039,1,8,0:0:0:0:
256,192,82127,1,0,0:0:0:0:
256,192,82216,1,0,0:0:0:0:
256,192,82304,1,8,0:0:0:0:
256,192,82480,1,0,0:0:0:0:
256,192,82569,1,8,0:0:0:0:
256,192,82657,1,0,0:0:0:0:
256,192,82745,1,8,0:0:0:0:
256,192,82833,1,8,0:0:0:0:
256,192,82922,1,0,0:0:0:0:
256,192,83010,1,8,0:0:0:0:
256,192,83098,1,8,0:0:0:0:
256,192,83186,1,0,0:0:0:0:
256,192,83275,1,0,0:0:0:0:
256,192,83363,1,8,0:0:0:0:
256,192,83451,1,0,0:0:0:0:
256,192,83539,1,8,0:0:0:0:
256,192,83627,1,8,0:0:0:0:
256,192,83716,1,0,0:0:0:0:
256,192,83804,1,0,0:0:0:0:
256,192,83892,1,8,0:0:0:0:
256,192,83980,1,8,0:0:0:0:
256,192,84069,1,8,0:0:0:0:
256,192,84157,1,0,0:0:0:0:
256,192,84245,1,8,0:0:0:0:
256,192,84333,1,8,0:0:0:0:
256,192,84422,1,0,0:0:0:0:
256,192,84510,1,8,0:0:0:0:
256,192,84598,1,8,0:0:0:0:
256,192,84775,1,4,0:0:0:0:
256,192,84951,1,0,0:0:0:0:
256,192,85127,1,8,0:0:0:0:
256,192,85304,1,8,0:0:0:0:
256,192,85392,1,8,0:0:0:0:
256,192,85480,1,8,0:0:0:0:
256,192,85657,1,0,0:0:0:0:
256,192,85833,1,8,0:0:0:0:
256,192,86010,1,8,0:0:0:0:
256,192,86098,1,8,0:0:0:0:
256,192,86186,1,0,0:0:0:0:
256,192,86363,1,0,0:0:0:0:
256,192,86539,1,8,0:0:0:0:
256,192,86716,1,8,0:0:0:0:
256,192,86804,1,8,0:0:0:0:
256,192,86892,1,0,0:0:0:0:
256,192,87069,1,0,0:0:0:0:
256,192,87245,1,8,0:0:0:0:
256,192,87422,1,8,0:0:0:0:
256,192,87598,1,0,0:0:0:0:
256,192,87775,1,0,0:0:0:0:
256,192,87951,1,8,0:0:0:0:
256,192,88127,1,0,0:0:0:0:
256,192,88216,1,8,0:0:0:0:
256,192,88304,1,0,0:0:0:0:
256,192,88392,1,0,0:0:0:0:
256,192,88480,1,0,0:0:0:0:
256,192,88657,1,8,0:0:0:0:
256,192,88833,1,8,0:0:0:0:
256,192,88922,1,8,0:0:0:0:
256,192,89010,1,0,0:0:0:0:
256,192,89186,1,0,0:0:0:0:
256,192,89363,1,8,0:0:0:0:
256,192,89539,1,0,0:0:0:0:
256,192,89716,1,0,0:0:0:0:
256,192,89804,1,0,0:0:0:0:
256,192,89892,1,0,0:0:0:0:
256,192,90069,1,8,0:0:0:0:
256,192,90245,1,0,0:0:0:0:
256,192,90333,1,8,0:0:0:0:
256,192,90422,1,0,0:0:0:0:
256,192,90510,1,0,0:0:0:0:
256,192,90598,1,0,0:0:0:0:
256,192,90686,1,0,0:0:0:0:
256,192,90775,1,8,0:0:0:0:
256,192,90863,1,8,0:0:0:0:
256,192,90951,1,0,0:0:0:0:
256,192,91039,1,0,0:0:0:0:
256,192,91127,1,0,0:0:0:0:
256,192,91216,1,8,0:0:0:0:
256,192,91304,1,0,0:0:0:0:
256,192,91392,1,0,0:0:0:0:
256,192,91480,1,8,0:0:0:0:
256,192,91569,1,8,0:0:0:0:
256,192,91657,1,0,0:0:0:0:
256,192,91833,1,8,0:0:0:0:
256,192,91922,1,0,0:0:0:0:
256,192,92010,1,8,0:0:0:0:
256,192,92098,1,8,0:0:0:0:
256,192,92186,1,8,0:0:0:0:
256,192,92275,1,0,0:0:0:0:
256,192,92363,1,8,0:0:0:0:
256,192,92451,1,0,0:0:0:0:
256,192,92539,1,8,0:0:0:0:
256,192,92627,1,0,0:0:0:0:
256,192,92716,1,8,0:0:0:0:
256,192,92804,1,8,0:0:0:0:
256,192,92892,1,0,0:0:0:0:
256,192,92980,1,8,0:0:0:0:
256,192,93069,1,8,0:0:0:0:
256,192,93157,1,8,0:0:0:0:
256,192,93245,1,4,0:0:0:0:
256,192,93422,1,8,0:0:0:0:
256,192,93510,1,0,0:0:0:0:
256,192,93686,1,0,0:0:0:0:
256,192,93775,1,8,0:0:0:0:
256,192,93863,1,8,0:0:0:0:
256,192,93951,1,0,0:0:0:0:
256,192,94127,1,0,0:0:0:0:
256,192,94304,1,8,0:0:0:0:
256,192,94480,1,8,0:0:0:0:
256,192,94569,1,8,0:0:0:0:
256,192,94657,1,0,0:0:0:0:
256,192,94745,1,8,0:0:0:0:
256,192,94833,1,0,0:0:0:0:
256,192,94922,1,8,0:0:0:0:
256,192,95098,1,8,0:0:0:0:
256,192,95186,1,0,0:0:0:0:
256,192,95275,1,0,0:0:0:0:
256,192,95363,1,8,0:0:0:0:
256,192,95451,1,0,0:0:0:0:
256,192,95539,1,8,0:0:0:0:
256,192,95627,1,0,0:0:0:0:
256,192,95716,1,8,0:0:0:0:
256,192,95804,1,8,0:0:0:0:
256,192,95892,1,0,0:0:0:0:
256,192,95980,1,8,0:0:0:0:
256,192,96069,1,0,0:0:0:0:
256,192,96245,1,0,0:0:0:0:
256,192,96333,1,8,0:0:0:0:
256,192,96422,1,8,0:0:0:0:
256,192,96510,1,0,0:0:0:0:
256,192,96598,1,8,0:0:0:0:
256,192,96775,1,0,0:0:0:0:
256,192,96863,1,0,0:0:0:0:
256,192,96951,1,0,0:0:0:0:
256,192,97127,1,8,0:0:0:0:
256,192,97216,1,0,0:0:0:0:
256,192,97304,1,0,0:0:0:0:
256,192,97392,1,8,0:0:0:0:
256,192,97480,1,0,0:0:0:0:
256,192,97569,1,0,0:0:0:0:
256,192,97657,1,0,0:0:0:0:
256,192,97833,1,8,0:0:0:0:
256,192,98010,1,0,0:0:0:0:
256,192,98098,1,0,0:0:0:0:
256,192,98186,1,8,0:0:0:0:
256,192,98275,1,0,0:0:0:0:
256,192,98363,1,0,0:0:0:0:
256,192,98451,1,8,0:0:0:0:
256,192,98539,1,8,0:0:0:0:
256,192,98627,1,8,0:0:0:0:
256,192,98716,1,0,0:0:0:0:
256,192,98804,1,8,0:0:0:0:
256,192,98892,1,0,0:0:0:0:
256,192,99069,1,8,0:0:0:0:
256,192,99157,1,0,0:0:0:0:
256,192,99333,1,0,0:0:0:0:
256,192,99422,1,8,0:0:0:0:
256,192,99510,1,8,0:0:0:0:
256,192,99598,1,0,0:0:0:0:
256,192,99686,1,8,0:0:0:0:
256,192,99775,1,0,0:0:0:0:
256,192,99951,1,8,0:0:0:0:
256,192,100127,1,8,0:0:0:0:
256,192,100216,1,8,0:0:0:0:
256,192,100304,1,0,0:0:0:0:
256,192,100392,1,8,0:0:0:0:
256,192,100480,1,0,0:0:0:0:
256,192,100569,1,8,0:0:0:0:
256,192,100745,1,0,0:0:0:0:
256,192,100833,1,8,0:0:0:0:
256,192,100922,1,8,0:0:0:0:
256,192,101010,1,0,0:0:0:0:
256,192,101098,1,8,0:0:0:0:
256,192,101186,1,0,0:0:0:0:
256,192,101363,1,8,0:0:0:0:
256,192,101451,1,8,0:0:0:0:
256,192,101627,1,8,0:0:0:0:
256,192,101716,1,0,0:0:0:0:
256,192,101892,1,8,0:0:0:0:
256,192,101980,1,0,0:0:0:0:
256,192,102069,1,0,0:0:0:0:
256,192,102157,1,0,0:0:0:0:
256,192,102245,1,8,0:0:0:0:
256,192,102422,1,0,0:0:0:0:
256,192,102510,1,0,0:0:0:0:
256,192,102598,1,0,0:0:0:0:
256,192,102775,1,8,0:0:0:0:
256,192,102951,1,0,0:0:0:0:
256,192,103039,1,8,0:0:0:0:
256,192,103127,1,0,0:0:0:0:
256,192,103304,1,0,0:0:0:0:
256,192,103392,1,8,0:0:0:0:
256,192,103569,1,8,0:0:0:0:
256,192,103657,1,0,0:0:0:0:
256,192,103745,1,0,0:0:0:0:
256,192,103833,1,8,0:0:0:0:
256,192,103922,1,0,0:0:0:0:
256,192,104010,1,8,0:0:0:0:
256,192,104098,1,8,0:0:0:0:
256,192,104186,1,0,0:0:0:0:
256,192,104539,1,4,0:0:0:0:
256,192,104716,1,0,0:0:0:0:
256,192,104804,1,8,0:0:0:0:
256,192,104892,1,0,0:0:0:0:
256,192,104980,1,8,0:0:0:0:
256,192,105069,1,8,0:0:0:0:
256,192,105157,1,0,0:0:0:0:
256,192,105245,1,0,0:0:0:0:
256,192,105333,1,0,0:0:0:0:
256,192,105422,1,8,0:0:0:0:
256,192,105510,1,8,0:0:0:0:
256,192,105598,1,0,0:0:0:0:
256,192,105686,1,8,0:0:0:0:
256,192,105775,1,0,0:0:0:0:
256,192,105863,1,0,0:0:0:0:
256,192,105951,1,8,0:0:0:0:
256,192,106039,1,8,0:0:0:0:
256,192,106127,1,0,0:0:0:0:
256,192,106216,1,8,0:0:0:0:
256,192,106304,1,0,0:0:0:0:
256,192,106480,1,0,0:0:0:0:
256,192,106569,1,0,0:0:0:0:
256,192,106657,1,8,0:0:0:0:
256,192,106745,1,0,0:0:0:0:
256,192,106833,1,8,0:0:0:0:
256,192,106922,1,0,0:0:0:0:
256,192,107010,1,8,0:0:0:0:
256,192,107098,1,8,0:0:0:0:
256,192,107186,1,0,0:0:0:0:
256,192,107275,1,0,0:0:0:0:
256,192,107363,1,8,0:0:0:0:
256,192,107422,1,8,0:0:0:0:
256,192,107480,1,0,0:0:0:0:
256,192,107539,1,8,0:0:0:0:
256,192,107627,1,8,0:0:0:0:
256,192,107716,1,0,0:0:0:0:
256,192,107804,1,0,0:0:0:0:
256,192,107892,1,8,0:0:0:0:
256,192,107980,1,0,0:0:0:0:
256,192,108069,1,8,0:0:0:0:
256,192,108245,1,0,0:0:0:0:
256,192,108333,1,0,0:0:0:0:
256,192,108422,1,8,0:0:0:0:
256,192,108598,1,0,0:0:0:0:
256,192,108686,1,8,0:0:0:0:
256,192,108775,1,0,0:0:0:0:
256,192,108863,1,0,0:0:0:0:
256,192,109039,1,8,0:0:0:0:
256,192,109216,1,0,0:0:0:0:
256,192,109304,1,0,0:0:0:0:
256,192,109392,1,0,0:0:0:0:
256,192,109480,1,8,0:0:0:0:
256,192,109569,1,8,0:0:0:0:
256,192,109657,1,0,0:0:0:0:
256,192,109745,1,8,0:0:0:0:
256,192,109833,1,0,0:0:0:0:
256,192,109922,1,0,0:0:0:0:
256,192,110010,1,8,0:0:0:0:
256,192,110098,1,8,0:0:0:0:
256,192,110186,1,0,0:0:0:0:
256,192,110363,1,8,0:0:0:0:
256,192,110451,1,0,0:0:0:0:
256,192,110627,1,0,0:0:0:0:
256,192,110716,1,8,0:0:0:0:
256,192,110804,1,8,0:0:0:0:
256,192,110892,1,0,0:0:0:0:
256,192,110980,1,8,0:0:0:0:
256,192,111069,1,0,0:0:0:0:
256,192,111245,1,8,0:0:0:0:
256,192,111333,1,8,0:0:0:0:
256,192,111422,1,0,0:0:0:0:
256,192,111598,1,0,0:0:0:0:
256,192,111686,1,8,0:0:0:0:
256,192,111775,1,8,0:0:0:0:
256,192,111863,1,0,0:0:0:0:
256,192,112039,1,0,0:0:0:0:
256,192,112127,1,0,0:0:0:0:
256,192,112216,1,8,0:0:0:0:
256,192,112304,1,0,0:0:0:0:
256,192,112392,1,8,0:0:0:0:
256,192,112480,1,0,0:0:0:0:
256,192,112657,1,8,0:0:0:0:
256,192,112745,1,0,0:0:0:0:
256,192,112833,1,0,0:0:0:0:
256,192,112922,1,8,0:0:0:0:
256,192,113010,1,0,0:0:0:0:
256,192,113069,1,0,0:0:0:0:
256,192,113127,1,0,0:0:0:0:
256,192,113186,1,8,0:0:0:0:
256,192,113275,1,0,0:0:0:0:
256,192,113363,1,0,0:0:0:0:
256,192,113451,1,0,0:0:0:0:
256,192,113539,1,8,0:0:0:0:
256,192,113716,1,0,0:0:0:0:
256,192,113804,1,8,0:0:0:0:
256,192,113892,1,0,0:0:0:0:
256,192,114069,1,8,0:0:0:0:
256,192,114245,1,8,0:0:0:0:
256,192,114333,1,8,0:0:0:0:
256,192,114422,1,0,0:0:0:0:
256,192,114598,1,8,0:0:0:0:
256,192,114686,1,0,0:0:0:0:
256,192,114863,1,8,0:0:0:0:
256,192,115127,1,0,0:0:0:0:
256,192,115392,1,8,0:0:0:0:
256,192,115480,1,0,0:0:0:0:
256,192,115569,1,8,0:0:0:0:
256,192,115657,1,0,0:0:0:0:
256,192,115745,1,8,0:0:0:0:
256,192,115833,1,4,0:0:0:0:
256,192,116010,1,8,0:0:0:0:
256,192,116098,1,8,0:0:0:0:
256,192,116186,1,8,0:0:0:0:
256,192,116363,1,4,0:0:0:0:
256,192,116539,1,8,0:0:0:0:
256,192,116627,1,8,0:0:0:0:
256,192,116716,1,0,0:0:0:0:
256,192,116804,1,0,0:0:0:0:
256,192,116892,1,8,0:0:0:0:
256,192,116980,1,0,0:0:0:0:
256,192,117069,1,8,0:0:0:0:
256,192,117157,1,8,0:0:0:0:
256,192,117245,1,4,0:0:0:0:
256,192,117422,1,8,0:0:0:0:
256,192,117510,1,8,0:0:0:0:
256,192,117598,1,8,0:0:0:0:
256,192,117775,1,4,0:0:0:0:
256,192,117951,1,8,0:0:0:0:
256,192,118039,1,8,0:0:0:0:
256,192,118127,1,0,0:0:0:0:
256,192,118216,1,0,0:0:0:0:
256,192,118304,1,8,0:0:0:0:
256,192,118392,1,0,0:0:0:0:
256,192,118480,1,8,0:0:0:0:
256,192,118657,1,4,0:0:0:0:
256,192,118833,1,0,0:0:0:0:
256,192,118922,1,8,0:0:0:0:
256,192,119010,1,0,0:0:0:0:
256,192,119186,1,4,0:0:0:0:
256,192,119363,1,8,0:0:0:0:
256,192,119451,1,8,0:0:0:0:
256,192,119539,1,0,0:0:0:0:
256,192,119627,1,0,0:0:0:0:
256,192,119716,1,8,0:0:0:0:
256,192,119804,1,0,0:0:0:0:
256,192,119892,1,8,0:0:0:0:
256,192,119980,1,8,0:0:0:0:
256,192,120069,1,0,0:0:0:0:
256,192,120157,1,0,0:0:0:0:
256,192,120245,1,8,0:0:0:0:
256,192,120333,1,0,0:0:0:0:
256,192,120510,1,0,0:0:0:0:
256,192,120598,1,8,0:0:0:0:
256,192,120686,1,8,0:0:0:0:
256,192,120775,1,0,0:0:0:0:
256,192,120863,1,0,0:0:0:0:
256,192,120951,1,8,0:0:0:0:
256,192,121039,1,0,0:0:0:0:
256,192,121127,1,8,0:0:0:0:
256,192,121216,1,8,0:0:0:0:
256,192,121304,1,0,0:0:0:0:
256,192,121392,1,8,0:0:0:0:
256,192,121480,1,4,0:0:0:0:
256,192,121657,1,8,0:0:0:0:
256,192,121745,1,8,0:0:0:0:
256,192,121833,1,8,0:0:0:0:
256,192,122010,1,4,0:0:0:0:
256,192,122186,1,8,0:0:0:0:
256,192,122275,1,8,0:0:0:0:
256,192,122363,1,0,0:0:0:0:
256,192,122451,1,0,0:0:0:0:
256,192,122539,1,8,0:0:0:0:
256,192,122627,1,0,0:0:0:0:
256,192,122716,1,8,0:0:0:0:
256,192,122804,1,8,0:0:0:0:
256,192,122892,1,4,0:0:0:0:
256,192,123069,1,8,0:0:0:0:
256,192,123157,1,8,0:0:0:0:
256,192,123245,1,8,0:0:0:0:
256,192,123422,1,4,0:0:0:0:
256,192,123598,1,8,0:0:0:0:
256,192,123686,1,0,0:0:0:0:
256,192,123775,1,8,0:0:0:0:
256,192,123863,1,8,0:0:0:0:
256,192,123951,1,0,0:0:0:0:
256,192,124039,1,8,0:0:0:0:
256,192,124127,1,0,0:0:0:0:
256,192,124216,1,0,0:0:0:0:
256,192,124304,1,8,0:0:0:0:
256,192,124392,1,0,0:0:0:0:
256,192,124480,1,12,0:0:0:0:
256,192,124657,1,0,0:0:0:0:
256,192,124833,1,4,0:0:0:0:
256,192,125010,1,8,0:0:0:0:
256,192,125098,1,8,0:0:0:0:
256,192,125186,1,0,0:0:0:0:
256,192,125275,1,0,0:0:0:0:
256,192,125363,1,8,0:0:0:0:
256,192,125451,1,0,0:0:0:0:
256,192,125539,1,8,0:0:0:0:
256,192,125716,1,0,0:0:0:0:
256,192,125804,1,0,0:0:0:0:
256,192,125980,1,8,0:0:0:0:
256,192,126157,1,0,0:0:0:0:
256,192,126333,1,8,0:0:0:0:
256,192,126422,1,0,0:0:0:0:
256,192,126510,1,0,0:0:0:0:
256,192,126598,1,8,0:0:0:0:
256,192,126686,1,0,0:0:0:0:
256,192,126775,1,8,0:0:0:0:
256,192,126863,1,0,0:0:0:0:
256,192,126951,1,8,0:0:0:0:
256,192,127039,1,8,0:0:0:0:
256,192,127127,1,4,0:0:0:0:
256,192,127304,1,8,0:0:0:0:
256,192,127480,1,0,0:0:0:0:
256,192,127657,1,0,0:0:0:0:
256,192,127745,1,8,0:0:0:0:
256,192,127833,1,8,0:0:0:0:
256,192,128010,1,0,0:0:0:0:
256,192,128098,1,8,0:0:0:0:
256,192,128363,1,0,0:0:0:0:
256,192,128539,1,8,0:0:0:0:
256,192,128627,1,8,0:0:0:0:
256,192,128716,1,8,0:0:0:0:
256,192,128892,1,0,0:0:0:0:
256,192,129069,1,0,0:0:0:0:
256,192,129157,1,0,0:0:0:0:
256,192,129245,1,8,0:0:0:0:
256,192,129422,1,0,0:0:0:0:
256,192,129510,1,8,0:0:0:0:
256,192,129686,1,8,0:0:0:0:
256,192,129775,1,0,0:0:0:0:
256,192,129863,1,0,0:0:0:0:
256,192,129951,1,8,0:0:0:0:
256,192,130010,1,0,0:0:0:0:
256,192,130069,1,0,0:0:0:0:
256,192,130127,1,8,0:0:0:0:
256,192,130304,1,0,0:0:0:0:
256,192,130392,1,0,0:0:0:0:
256,192,130480,1,8,0:0:0:0:
256,192,130569,1,0,0:0:0:0:
256,192,130657,1,8,0:0:0:0:
256,192,130745,1,8,0:0:0:0:
256,192,130833,1,0,0:0:0:0:
256,192,130922,1,8,0:0:0:0:
256,192,131010,1,0,0:0:0:0:
256,192,131186,1,8,0:0:0:0:
256,192,131275,1,8,0:0:0:0:
256,192,131363,1,0,0:0:0:0:
256,192,131422,1,0,0:0:0:0:
256,192,131480,1,0,0:0:0:0:
256,192,131539,1,8,0:0:0:0:
256,192,131627,1,0,0:0:0:0:
256,192,131716,1,0,0:0:0:0:
256,192,131804,1,8,0:0:0:0:
256,192,131892,1,8,0:0:0:0:
256,192,131980,1,0,0:0:0:0:
256,192,132069,1,8,0:0:0:0:
256,192,132127,1,8,0:0:0:0:
256,192,132186,1,0,0:0:0:0:
256,192,132245,1,8,0:0:0:0:
256,192,132333,1,0,0:0:0:0:
256,192,132422,1,8,0:0:0:0:
256,192,132510,1,8,0:0:0:0:
256,192,132598,1,0,0:0:0:0:
256,192,132686,1,8,0:0:0:0:
256,192,132775,1,0,0:0:0:0:
256,192,132951,1,8,0:0:0:0:
256,192,133127,1,8,0:0:0:0:
256,192,133304,1,0,0:0:0:0:
256,192,133392,1,8,0:0:0:0:
256,192,133480,1,8,0:0:0:0:
256,192,133657,1,0,0:0:0:0:
256,192,133745,1,8,0:0:0:0:
256,192,133922,1,8,0:0:0:0:
256,192,134010,1,0,0:0:0:0:
256,192,134186,1,0,0:0:0:0:
256,192,134245,1,0,0:0:0:0:
256,192,134304,1,8,0:0:0:0:
256,192,134363,1,8,0:0:0:0:
256,192,134539,1,8,0:0:0:0:
256,192,134716,1,0,0:0:0:0:
256,192,135069,1,0,0:0:0:0:
256,192,135245,1,8,0:0:0:0:
256,192,135333,1,8,0:0:0:0:
256,192,135422,1,0,0:0:0:0:
256,192,135510,1,0,0:0:0:0:
256,192,135598,1,8,0:0:0:0:
256,192,135657,1,0,0:0:0:0:
256,192,135716,1,0,0:0:0:0:
256,192,135775,1,8,0:0:0:0:
256,192,135951,1,0,0:0:0:0:
256,192,136127,1,8,0:0:0:0:
256,192,136216,1,0,0:0:0:0:
256,192,136304,1,8,0:0:0:0:
256,192,136480,1,8,0:0:0:0:
256,192,136569,1,8,0:0:0:0:
256,192,136745,1,8,0:0:0:0:
256,192,136833,1,0,0:0:0:0:
256,192,136922,1,0,0:0:0:0:
256,192,137010,1,8,0:0:0:0:
256,192,137186,1,8,0:0:0:0:
256,192,137421,1,8,0:0:0:0:
256,192,137480,1,8,0:0:0:0:
256,192,137539,1,0,0:0:0:0:
256,192,137716,1,8,0:0:0:0:
256,192,137892,1,8,0:0:0:0:
256,192,138069,1,8,0:0:0:0:
256,192,138127,1,0,0:0:0:0:
256,192,138186,1,0,0:0:0:0:
256,192,138245,1,8,0:0:0:0:
256,192,138422,1,12,0:0:0:0:
256,192,138598,1,0,0:0:0:0:
256,192,138686,1,8,0:0:0:0:
256,192,138774,1,0,0:0:0:0:
256,192,138951,1,0,0:0:0:0:
256,192,139010,1,0,0:0:0:0:
256,192,139069,1,0,0:0:0:0:
256,192,139127,1,8,0:0:0:0:
256,192,139216,1,0,0:0:0:0:
256,192,139304,1,8,0:0:0:0:
256,192,139392,1,8,0:0:0:0:
256,192,139480,1,0,0:0:0:0:
256,192,139569,1,0,0:0:0:0:
256,192,139657,1,0,0:0:0:0:
256,192,139745,1,0,0:0:0:0:
256,192,139833,1,8,0:0:0:0:
256,192,140010,1,0,0:0:0:0:
256,192,140098,1,8,0:0:0:0:
256,192,140186,1,0,0:0:0:0:
256,192,140363,1,8,0:0:0:0:
256,192,140451,1,0,0:0:0:0:
256,192,140627,1,8,0:0:0:0:
256,192,140804,1,8,0:0:0:0:
256,192,140892,1,0,0:0:0:0:
256,192,140980,1,8,0:0:0:0:
256,192,141069,1,0,0:0:0:0:
256,192,141245,1,0,0:0:0:0:
256,192,141304,1,0,0:0:0:0:
256,192,141363,1,0,0:0:0:0:
256,192,141422,1,8,0:0:0:0:
256,192,141510,1,0,0:0:0:0:
256,192,141598,1,8,0:0:0:0:
256,192,141775,1,0,0:0:0:0:
256,192,141863,1,8,0:0:0:0:
256,192,142039,1,8,0:0:0:0:
256,192,142127,1,8,0:0:0:0:
256,192,142216,1,0,0:0:0:0:
256,192,142304,1,8,0:0:0:0:
256,192,142392,1,8,0:0:0:0:
256,192,142480,1,8,0:0:0:0:
256,192,142569,1,8,0:0:0:0:
256,192,142657,1,0,0:0:0:0:
256,192,142745,1,8,0:0:0:0:
256,192,142922,1,8,0:0:0:0:
256,192,143098,1,8,0:0:0:0:
256,192,143186,1,0,0:0:0:0:
256,192,143275,1,0,0:0:0:0:
256,192,143363,1,8,0:0:0:0:
256,192,143451,1,0,0:0:0:0:
256,192,143539,1,8,0:0:0:0:
256,192,143627,1,8,0:0:0:0:
256,192,143716,1,8,0:0:0:0:
256,192,143804,1,0,0:0:0:0:
256,192,143892,1,8,0:0:0:0:
256,192,143980,1,8,0:0:0:0:
256,192,144069,1,4,0:0:0:0:
256,192,144245,1,8,0:0:0:0:
256,192,144334,1,8,0:0:0:0:
256,192,144422,1,8,0:0:0:0:
256,192,144598,1,0,0:0:0:0:
256,192,144686,1,0,0:0:0:0:
256,192,144775,1,8,0:0:0:0:
256,192,144863,1,0,0:0:0:0:
256,192,144951,1,0,0:0:0:0:
256,192,145039,1,8,0:0:0:0:
256,192,145127,1,0,0:0:0:0:
256,192,145216,1,0,0:0:0:0:
256,192,145304,1,0,0:0:0:0:
256,192,145392,1,0,0:0:0:0:
256,192,145480,1,8,0:0:0:0:
256,192,145657,1,0,0:0:0:0:
256,192,145745,1,8,0:0:0:0:
256,192,145833,1,0,0:0:0:0:
256,192,146010,1,8,0:0:0:0:
256,192,146098,1,0,0:0:0:0:
256,192,146275,1,8,0:0:0:0:
256,192,146451,1,0,0:0:0:0:
256,192,146539,1,8,0:0:0:0:
256,192,146627,1,0,0:0:0:0:
256,192,146716,1,8,0:0:0:0:
256,192,146892,1,0,0:0:0:0:
256,192,146951,1,8,0:0:0:0:
256,192,147010,1,8,0:0:0:0:
256,192,147069,1,0,0:0:0:0:
256,192,147157,1,0,0:0:0:0:
256,192,147245,1,8,0:0:0:0:
256,192,147422,1,0,0:0:0:0:
256,192,147510,1,8,0:0:0:0:
256,192,147598,1,0,0:0:0:0:
256,192,147686,1,0,0:0:0:0:
256,192,147775,1,8,0:0:0:0:
256,192,147863,1,0,0:0:0:0:
256,192,147951,1,8,0:0:0:0:
256,192,148039,1,8,0:0:0:0:
256,192,148216,1,8,0:0:0:0:
256,192,148304,1,0,0:0:0:0:
256,192,148480,1,8,0:0:0:0:
256,192,148657,1,0,0:0:0:0:
256,192,148745,1,8,0:0:0:0:
256,192,148833,1,0,0:0:0:0:
256,192,148922,1,0,0:0:0:0:
256,192,149010,1,8,0:0:0:0:
256,192,149098,1,0,0:0:0:0:
256,192,149186,1,8,0:0:0:0:
256,192,149275,1,8,0:0:0:0:
256,192,149363,1,0,0:0:0:0:
256,192,149451,1,8,0:0:0:0:
256,192,149539,1,8,0:0:0:0:
256,192,149627,1,8,0:0:0:0:
