osu file format v14

[General]
AudioFilename: audio.mp3
AudioLeadIn: 0
PreviewTime: -1
Countdown: 0
SampleSet: None
StackLeniency: 0.7
Mode: 3
LetterboxInBreaks: 0
SpecialStyle: 0
WidescreenStoryboard: 1

[Editor]
DistanceSpacing: 1.3
BeatDivisor: 16
GridSize: 4
TimelineZoom: 1

[Metadata]
Title:japanese goblin
TitleUnicode:【東方3DPV風】砕月 (ココ&さつき が てんこもり's 作業妨害Remix)
Artist:D
ArtistUnicode:吉都 蒼太(裸足D) さん
Creator:Majiron
Version:technical goburin
Source:
Tags:japanese goburin
BeatmapID:4537615
BeatmapSetID:2153355

[Difficulty]
HPDrainRate:8
CircleSize:4
OverallDifficulty:9
ApproachRate:5
SliderMultiplier:3.59999990463257
SliderTickRate:2

[Events]
//Background and Video events
0,0,"j gobu.jpg",0,0
//Break Periods
//Storyboard Layer 0 (Background)
//Storyboard Layer 1 (Fail)
//Storyboard Layer 2 (Pass)
//Storyboard Layer 3 (Foreground)
//Storyboard Layer 4 (Overlay)
//Storyboard Sound Samples

[TimingPoints]
155,666.666666666667,4,2,0,100,1,0

[HitObjects]
448,192,1363,128,0,1946:0:0:0:0:
64,192,1363,128,0,1946:0:0:0:0:
192,192,1363,128,0,1946:0:0:0:0:
320,192,1363,128,0,1946:0:0:0:0:
320,192,2363,1,0,0:0:0:0:
64,192,2446,1,0,0:0:0:0:
192,192,2530,1,0,0:0:0:0:
448,192,2655,1,0,0:0:0:0:
320,192,2738,1,0,0:0:0:0:
192,192,2863,1,0,0:0:0:0:
448,192,2988,1,0,0:0:0:0:
320,192,3196,1,0,0:0:0:0:
448,192,3321,1,0,0:0:0:0:
64,192,3655,1,0,0:0:0:0:
192,192,3696,1,0,0:0:0:0:
320,192,3738,1,0,0:0:0:0:
64,192,3821,1,0,0:0:0:0:
192,192,3863,1,0,0:0:0:0:
448,192,3905,1,0,0:0:0:0:
320,192,3946,1,0,0:0:0:0:
64,192,3988,1,0,0:0:0:0:
192,192,4030,1,0,0:0:0:0:
320,192,4071,1,0,0:0:0:0:
448,192,4155,1,0,0:0:0:0:
64,192,4155,1,0,0:0:0:0:
192,192,4196,1,0,0:0:0:0:
448,192,4280,1,0,0:0:0:0:
320,192,4321,1,0,0:0:0:0:
64,192,4363,1,0,0:0:0:0:
192,192,4405,1,0,0:0:0:0:
320,192,4446,1,0,0:0:0:0:
448,192,4488,1,0,0:0:0:0:
64,192,4530,1,0,0:0:0:0:
192,192,4571,1,0,0:0:0:0:
448,192,4613,1,0,0:0:0:0:
320,192,4655,1,0,0:0:0:0:
64,192,4696,1,0,0:0:0:0:
192,192,4738,1,0,0:0:0:0:
320,192,4780,1,0,0:0:0:0:
448,192,4821,1,0,0:0:0:0:
64,192,4863,1,0,0:0:0:0:
192,192,4905,1,0,0:0:0:0:
448,192,4946,1,0,0:0:0:0:
320,192,4988,1,0,0:0:0:0:
64,192,5030,1,0,0:0:0:0:
192,192,5071,1,0,0:0:0:0:
320,192,5113,1,0,0:0:0:0:
448,192,5113,1,0,0:0:0:0:
192,192,5196,1,0,0:0:0:0:
448,192,5238,1,0,0:0:0:0:
320,192,5321,1,0,0:0:0:0:
192,192,5363,1,0,0:0:0:0:
448,192,5405,1,0,0:0:0:0:
320,192,5446,1,0,0:0:0:0:
448,192,5530,1,0,0:0:0:0:
320,192,5571,1,0,0:0:0:0:
64,192,5613,1,0,0:0:0:0:
192,192,5696,1,0,0:0:0:0:
320,192,5738,1,0,0:0:0:0:
448,192,5821,1,0,0:0:0:0:
64,192,5821,1,0,0:0:0:0:
192,192,5863,1,0,0:0:0:0:
448,192,5905,1,0,0:0:0:0:
320,192,5946,1,0,0:0:0:0:
64,192,5946,1,0,0:0:0:0:
192,192,5988,1,0,0:0:0:0:
448,192,6071,1,0,0:0:0:0:
320,192,6071,1,0,0:0:0:0:
64,192,6321,1,0,0:0:0:0:
192,192,6363,1,0,0:0:0:0:
448,192,6405,1,0,0:0:0:0:
320,192,6446,1,0,0:0:0:0:
64,192,6488,1,0,0:0:0:0:
192,192,6530,1,0,0:0:0:0:
320,192,6530,1,0,0:0:0:0:
448,192,6571,1,0,0:0:0:0:
64,192,6613,1,0,0:0:0:0:
192,192,6655,1,0,0:0:0:0:
448,192,6655,1,0,0:0:0:0:
320,192,6738,1,0,0:0:0:0:
64,192,6738,1,0,0:0:0:0:
192,192,6780,1,0,0:0:0:0:
320,192,6821,1,0,0:0:0:0:
448,192,6863,1,0,0:0:0:0:
64,192,6905,1,0,0:0:0:0:
192,192,6946,1,0,0:0:0:0:
448,192,6946,1,0,0:0:0:0:
64,192,7071,1,0,0:0:0:0:
192,192,7113,1,0,0:0:0:0:
320,192,7155,1,0,0:0:0:0:
448,192,7155,1,0,0:0:0:0:
64,192,7196,1,0,0:0:0:0:
192,192,7238,1,0,0:0:0:0:
448,192,7280,1,0,0:0:0:0:
320,192,7321,1,0,0:0:0:0:
64,192,7363,1,0,0:0:0:0:
192,192,7405,1,0,0:0:0:0:
320,192,7446,1,0,0:0:0:0:
448,192,7446,1,0,0:0:0:0:
64,192,7488,1,0,0:0:0:0:
192,192,7530,1,0,0:0:0:0:
448,192,7571,1,0,0:0:0:0:
64,192,7613,1,0,0:0:0:0:
320,192,7613,1,0,0:0:0:0:
192,192,7655,1,0,0:0:0:0:
320,192,7738,1,0,0:0:0:0:
64,192,7780,1,0,0:0:0:0:
192,192,7821,1,0,0:0:0:0:
448,192,7863,1,0,0:0:0:0:
320,192,7905,1,0,0:0:0:0:
64,192,7905,1,0,0:0:0:0:
192,192,7946,1,0,0:0:0:0:
320,192,8030,1,0,0:0:0:0:
64,192,8071,1,0,0:0:0:0:
192,192,8113,1,0,0:0:0:0:
448,192,8155,1,0,0:0:0:0:
320,192,8155,1,0,0:0:0:0:
64,192,8196,1,0,0:0:0:0:
192,192,8238,1,0,0:0:0:0:
448,192,8280,1,0,0:0:0:0:
64,192,8321,1,0,0:0:0:0:
320,192,8321,1,0,0:0:0:0:
192,192,8363,1,0,0:0:0:0:
320,192,8446,1,0,0:0:0:0:
64,192,8488,1,0,0:0:0:0:
192,192,8530,1,0,0:0:0:0:
320,192,8571,1,0,0:0:0:0:
64,192,8613,1,0,0:0:0:0:
192,192,8655,1,0,0:0:0:0:
320,192,8696,1,0,0:0:0:0:
64,192,8738,1,0,0:0:0:0:
192,192,8780,1,0,0:0:0:0:
448,192,8821,1,0,0:0:0:0:
320,192,8863,1,0,0:0:0:0:
64,192,8905,1,0,0:0:0:0:
192,192,8946,1,0,0:0:0:0:
320,192,8988,1,0,0:0:0:0:
448,192,8988,1,0,0:0:0:0:
64,192,9030,1,0,0:0:0:0:
192,192,9071,1,0,0:0:0:0:
448,192,9113,1,0,0:0:0:0:
320,192,9155,1,0,0:0:0:0:
64,192,9196,1,0,0:0:0:0:
192,192,9238,1,0,0:0:0:0:
320,192,9280,1,0,0:0:0:0:
448,192,9321,1,0,0:0:0:0:
64,192,9321,1,0,0:0:0:0:
192,192,9363,1,0,0:0:0:0:
448,192,9405,1,0,0:0:0:0:
320,192,9446,1,0,0:0:0:0:
64,192,9488,1,0,0:0:0:0:
192,192,9530,1,0,0:0:0:0:
320,192,9571,1,0,0:0:0:0:
448,192,9613,1,0,0:0:0:0:
64,192,9613,1,0,0:0:0:0:
192,192,9655,1,0,0:0:0:0:
448,192,9696,1,0,0:0:0:0:
320,192,9738,1,0,0:0:0:0:
64,192,9780,1,0,0:0:0:0:
448,192,9821,1,0,0:0:0:0:
192,192,9821,1,0,0:0:0:0:
320,192,9863,1,0,0:0:0:0:
448,192,9905,1,0,0:0:0:0:
64,192,9905,1,0,0:0:0:0:
192,192,9988,1,0,0:0:0:0:
320,192,9988,1,0,0:0:0:0:
448,192,10030,1,0,0:0:0:0:
320,192,10071,1,0,0:0:0:0:
64,192,10113,1,0,0:0:0:0:
192,192,10155,1,0,0:0:0:0:
448,192,10196,1,0,0:0:0:0:
320,192,10238,1,0,0:0:0:0:
64,192,10280,1,0,0:0:0:0:
192,192,10321,1,0,0:0:0:0:
320,192,10363,1,0,0:0:0:0:
448,192,10405,1,0,0:0:0:0:
64,192,10405,1,0,0:0:0:0:
192,192,10446,1,0,0:0:0:0:
448,192,10488,1,0,0:0:0:0:
320,192,10571,1,0,0:0:0:0:
64,192,10571,1,0,0:0:0:0:
192,192,10613,1,0,0:0:0:0:
320,192,10655,1,0,0:0:0:0:
448,192,10696,1,0,0:0:0:0:
64,192,10738,1,0,0:0:0:0:
192,192,10780,1,0,0:0:0:0:
448,192,10780,1,0,0:0:0:0:
320,192,10863,1,0,0:0:0:0:
64,192,10863,1,0,0:0:0:0:
192,192,10905,1,0,0:0:0:0:
320,192,10946,1,0,0:0:0:0:
448,192,10988,1,0,0:0:0:0:
64,192,11030,1,0,0:0:0:0:
192,192,11071,1,0,0:0:0:0:
448,192,11113,1,0,0:0:0:0:
320,192,11155,1,0,0:0:0:0:
64,192,11155,1,0,0:0:0:0:
192,192,11196,1,0,0:0:0:0:
320,192,11238,1,0,0:0:0:0:
448,192,11280,1,0,0:0:0:0:
64,192,11280,1,0,0:0:0:0:
192,192,11321,1,0,0:0:0:0:
448,192,11363,1,0,0:0:0:0:
320,192,11405,1,0,0:0:0:0:
64,192,11446,1,0,0:0:0:0:
192,192,11488,1,0,0:0:0:0:
320,192,11530,1,0,0:0:0:0:
64,192,11571,1,0,0:0:0:0:
192,192,11613,1,0,0:0:0:0:
448,192,11655,1,0,0:0:0:0:
320,192,11655,1,0,0:0:0:0:
64,192,11696,1,0,0:0:0:0:
192,192,11738,1,0,0:0:0:0:
320,192,11780,1,0,0:0:0:0:
448,192,11821,1,0,0:0:0:0:
64,192,11821,1,0,0:0:0:0:
192,192,11863,1,0,0:0:0:0:
448,192,11946,1,0,0:0:0:0:
320,192,11988,1,0,0:0:0:0:
64,192,12030,1,0,0:0:0:0:
192,192,12071,1,0,0:0:0:0:
320,192,12113,1,0,0:0:0:0:
448,192,12155,1,0,0:0:0:0:
64,192,12155,1,0,0:0:0:0:
192,192,12196,1,0,0:0:0:0:
448,192,12280,1,0,0:0:0:0:
64,192,12321,1,0,0:0:0:0:
192,192,12363,1,0,0:0:0:0:
448,192,12405,1,0,0:0:0:0:
320,192,12446,1,0,0:0:0:0:
192,192,12488,1,0,0:0:0:0:
448,192,12571,1,0,0:0:0:0:
320,192,12613,1,0,0:0:0:0:
192,192,12613,1,0,0:0:0:0:
448,192,12696,1,0,0:0:0:0:
320,192,12696,1,0,0:0:0:0:
192,192,12780,1,0,0:0:0:0:
448,192,12821,1,0,0:0:0:0:
320,192,12821,1,0,0:0:0:0:
64,192,12905,1,0,0:0:0:0:
320,192,12946,1,0,0:0:0:0:
64,192,13030,1,0,0:0:0:0:
192,192,13030,1,0,0:0:0:0:
320,192,13071,1,0,0:0:0:0:
448,192,13113,1,0,0:0:0:0:
64,192,13113,1,0,0:0:0:0:
192,192,13155,1,0,0:0:0:0:
448,192,13196,1,0,0:0:0:0:
320,192,13238,1,0,0:0:0:0:
64,192,13280,1,0,0:0:0:0:
192,192,13321,1,0,0:0:0:0:
320,192,13363,1,0,0:0:0:0:
448,192,13405,1,0,0:0:0:0:
64,192,13405,1,0,0:0:0:0:
192,192,13446,1,0,0:0:0:0:
448,192,13488,1,0,0:0:0:0:
320,192,13488,1,0,0:0:0:0:
64,192,13530,1,0,0:0:0:0:
192,192,13571,1,0,0:0:0:0:
320,192,13613,1,0,0:0:0:0:
192,192,13696,1,0,0:0:0:0:
320,192,13738,1,0,0:0:0:0:
192,192,13780,1,0,0:0:0:0:
448,192,13821,1,0,0:0:0:0:
64,192,13863,1,0,0:0:0:0:
320,192,13905,1,0,0:0:0:0:
448,192,13905,1,0,0:0:0:0:
64,192,13946,1,0,0:0:0:0:
192,192,13988,1,0,0:0:0:0:
320,192,13988,1,0,0:0:0:0:
64,192,14071,1,0,0:0:0:0:
448,192,14113,1,0,0:0:0:0:
192,192,14113,1,0,0:0:0:0:
320,192,14155,1,0,0:0:0:0:
64,192,14196,1,0,0:0:0:0:
448,192,14196,1,0,0:0:0:0:
192,192,14238,1,0,0:0:0:0:
320,192,14280,1,0,0:0:0:0:
448,192,14321,1,0,0:0:0:0:
320,192,14405,1,0,0:0:0:0:
64,192,14446,1,0,0:0:0:0:
448,192,14446,1,0,0:0:0:0:
192,192,14488,1,0,0:0:0:0:
64,192,14530,1,0,0:0:0:0:
320,192,14571,1,0,0:0:0:0:
192,192,14613,1,0,0:0:0:0:
448,192,14613,1,0,0:0:0:0:
64,192,14655,1,0,0:0:0:0:
320,192,14696,1,0,0:0:0:0:
192,192,14696,1,0,0:0:0:0:
448,192,14738,1,0,0:0:0:0:
320,192,14821,1,0,0:0:0:0:
64,192,14905,1,0,0:0:0:0:
320,192,14905,1,0,0:0:0:0:
192,192,14946,1,0,0:0:0:0:
448,192,14988,1,0,0:0:0:0:
64,192,15030,1,0,0:0:0:0:
192,192,15030,1,0,0:0:0:0:
448,192,15071,1,0,0:0:0:0:
320,192,15113,1,0,0:0:0:0:
64,192,15113,1,0,0:0:0:0:
192,192,15155,1,0,0:0:0:0:
448,192,15155,1,0,0:0:0:0:
320,192,15238,1,0,0:0:0:0:
64,192,15280,1,0,0:0:0:0:
192,192,15280,1,0,0:0:0:0:
448,192,15280,1,0,0:0:0:0:
448,192,15363,1,0,0:0:0:0:
320,192,15405,1,0,0:0:0:0:
64,192,15446,1,0,0:0:0:0:
192,192,15488,1,0,0:0:0:0:
320,192,15530,1,0,0:0:0:0:
64,192,15571,1,0,0:0:0:0:
448,192,15613,1,0,0:0:0:0:
192,192,15613,1,0,0:0:0:0:
448,192,15655,1,0,0:0:0:0:
320,192,15696,1,0,0:0:0:0:
64,192,15738,1,0,0:0:0:0:
192,192,15738,1,0,0:0:0:0:
448,192,15738,1,0,0:0:0:0:
320,192,15821,1,0,0:0:0:0:
64,192,15863,1,0,0:0:0:0:
192,192,15863,1,0,0:0:0:0:
448,192,15905,1,0,0:0:0:0:
320,192,15946,1,0,0:0:0:0:
64,192,15988,1,0,0:0:0:0:
192,192,16030,1,0,0:0:0:0:
448,192,16030,1,0,0:0:0:0:
320,192,16030,1,0,0:0:0:0:
64,192,16071,1,0,0:0:0:0:
192,192,16113,1,0,0:0:0:0:
320,192,16155,1,0,0:0:0:0:
64,192,16196,1,0,0:0:0:0:
192,192,16238,1,0,0:0:0:0:
320,192,16238,1,0,0:0:0:0:
448,192,16321,1,0,0:0:0:0:
64,192,16321,1,0,0:0:0:0:
192,192,16363,1,0,0:0:0:0:
320,192,16405,1,0,0:0:0:0:
64,192,16446,1,0,0:0:0:0:
192,192,16488,1,0,0:0:0:0:
320,192,16530,1,0,0:0:0:0:
448,192,16571,1,0,0:0:0:0:
64,192,16613,1,0,0:0:0:0:
192,192,16613,1,0,0:0:0:0:
448,192,16655,1,0,0:0:0:0:
320,192,16696,1,0,0:0:0:0:
64,192,16738,1,0,0:0:0:0:
192,192,16780,1,0,0:0:0:0:
320,192,16780,1,0,0:0:0:0:
448,192,16821,1,0,0:0:0:0:
64,192,16863,1,0,0:0:0:0:
192,192,16905,1,0,0:0:0:0:
448,192,16946,1,0,0:0:0:0:
320,192,16988,1,0,0:0:0:0:
64,192,17030,1,0,0:0:0:0:
192,192,17030,1,0,0:0:0:0:
320,192,17071,1,0,0:0:0:0:
448,192,17113,1,0,0:0:0:0:
64,192,17155,1,0,0:0:0:0:
192,192,17155,1,0,0:0:0:0:
448,192,17196,1,0,0:0:0:0:
320,192,17238,1,0,0:0:0:0:
64,192,17280,1,0,0:0:0:0:
192,192,17321,1,0,0:0:0:0:
320,192,17363,1,0,0:0:0:0:
64,192,17405,1,0,0:0:0:0:
448,192,17405,1,0,0:0:0:0:
192,192,17446,1,0,0:0:0:0:
448,192,17488,1,0,0:0:0:0:
64,192,17530,1,0,0:0:0:0:
320,192,17530,1,0,0:0:0:0:
192,192,17571,1,0,0:0:0:0:
448,192,17613,1,0,0:0:0:0:
64,192,17655,1,0,0:0:0:0:
192,192,17655,1,0,0:0:0:0:
320,192,17655,1,0,0:0:0:0:
448,192,17738,1,0,0:0:0:0:
320,192,17780,1,0,0:0:0:0:
448,192,17821,1,0,0:0:0:0:
64,192,17821,1,0,0:0:0:0:
192,192,17905,1,0,0:0:0:0:
320,192,17905,1,0,0:0:0:0:
64,192,17946,1,0,0:0:0:0:
192,192,17988,1,0,0:0:0:0:
320,192,18030,1,0,0:0:0:0:
448,192,18071,1,0,0:0:0:0:
320,192,18113,1,0,0:0:0:0:
64,192,18196,1,0,0:0:0:0:
448,192,18196,1,0,0:0:0:0:
192,192,18196,1,0,0:0:0:0:
64,192,18280,1,0,0:0:0:0:
448,192,18280,1,0,0:0:0:0:
192,192,18321,1,0,0:0:0:0:
320,192,18363,1,0,0:0:0:0:
64,192,18446,1,0,0:0:0:0:
320,192,18446,1,0,0:0:0:0:
192,192,18488,1,0,0:0:0:0:
448,192,18488,1,0,0:0:0:0:
64,192,18530,1,0,0:0:0:0:
448,192,18571,1,0,0:0:0:0:
192,192,18613,1,0,0:0:0:0:
320,192,18655,1,0,0:0:0:0:
64,192,18696,1,0,0:0:0:0:
448,192,18696,1,0,0:0:0:0:
192,192,18738,1,0,0:0:0:0:
64,192,18821,1,0,0:0:0:0:
448,192,18821,1,0,0:0:0:0:
192,192,18863,1,0,0:0:0:0:
320,192,18905,1,0,0:0:0:0:
448,192,18946,1,0,0:0:0:0:
64,192,18988,1,0,0:0:0:0:
320,192,18988,1,0,0:0:0:0:
192,192,19030,1,0,0:0:0:0:
448,192,19071,1,0,0:0:0:0:
64,192,19113,1,0,0:0:0:0:
320,192,19113,1,0,0:0:0:0:
192,192,19155,1,0,0:0:0:0:
448,192,19196,1,0,0:0:0:0:
64,192,19238,1,0,0:0:0:0:
320,192,19280,1,0,0:0:0:0:
192,192,19321,1,0,0:0:0:0:
448,192,19321,1,0,0:0:0:0:
64,192,19363,1,0,0:0:0:0:
320,192,19363,1,0,0:0:0:0:
192,192,19405,1,0,0:0:0:0:
448,192,19446,1,0,0:0:0:0:
64,192,19488,1,0,0:0:0:0:
320,192,19488,1,0,0:0:0:0:
192,192,19530,1,0,0:0:0:0:
448,192,19530,1,0,0:0:0:0:
64,192,19571,1,0,0:0:0:0:
192,192,19613,1,0,0:0:0:0:
320,192,19655,1,0,0:0:0:0:
64,192,19696,1,0,0:0:0:0:
448,192,19738,1,0,0:0:0:0:
192,192,19780,1,0,0:0:0:0:
320,192,19821,1,0,0:0:0:0:
64,192,19863,1,0,0:0:0:0:
448,192,19863,1,0,0:0:0:0:
192,192,19905,1,0,0:0:0:0:
320,192,19946,1,0,0:0:0:0:
64,192,19988,1,0,0:0:0:0:
448,192,19988,1,0,0:0:0:0:
192,192,20030,1,0,0:0:0:0:
448,192,20113,1,0,0:0:0:0:
64,192,20113,1,0,0:0:0:0:
192,192,20113,1,0,0:0:0:0:
64,192,20196,1,0,0:0:0:0:
448,192,20238,1,0,0:0:0:0:
192,192,20238,1,0,0:0:0:0:
320,192,20321,1,0,0:0:0:0:
64,192,20321,1,0,0:0:0:0:
448,192,20363,1,0,0:0:0:0:
192,192,20405,1,0,0:0:0:0:
320,192,20405,1,0,0:0:0:0:
448,192,20488,1,0,0:0:0:0:
64,192,20488,1,0,0:0:0:0:
192,192,20488,1,0,0:0:0:0:
320,192,20613,1,0,0:0:0:0:
64,192,20655,1,0,0:0:0:0:
192,192,20696,1,0,0:0:0:0:
320,192,20696,1,0,0:0:0:0:
64,192,20780,1,0,0:0:0:0:
192,192,20821,1,0,0:0:0:0:
320,192,20821,1,0,0:0:0:0:
64,192,20905,1,0,0:0:0:0:
192,192,20946,1,0,0:0:0:0:
320,192,20946,1,0,0:0:0:0:
448,192,20988,1,0,0:0:0:0:
64,192,21030,1,0,0:0:0:0:
192,192,21071,1,0,0:0:0:0:
320,192,21071,1,0,0:0:0:0:
448,192,21113,1,0,0:0:0:0:
64,192,21155,1,0,0:0:0:0:
192,192,21155,1,0,0:0:0:0:
448,192,21196,1,0,0:0:0:0:
320,192,21238,1,0,0:0:0:0:
64,192,21280,1,0,0:0:0:0:
192,192,21321,1,0,0:0:0:0:
320,192,21321,1,0,0:0:0:0:
448,192,21363,1,0,0:0:0:0:
64,192,21405,1,0,0:0:0:0:
192,192,21446,1,0,0:0:0:0:
448,192,21488,1,0,0:0:0:0:
320,192,21530,1,0,0:0:0:0:
64,192,21571,1,0,0:0:0:0:
192,192,21613,1,0,0:0:0:0:
320,192,21613,1,0,0:0:0:0:
448,192,21655,1,0,0:0:0:0:
64,192,21696,1,0,0:0:0:0:
192,192,21696,1,0,0:0:0:0:
448,192,21738,1,0,0:0:0:0:
64,192,21780,1,0,0:0:0:0:
320,192,21780,1,0,0:0:0:0:
192,192,21821,1,0,0:0:0:0:
320,192,21905,1,0,0:0:0:0:
64,192,21946,1,0,0:0:0:0:
192,192,21946,1,0,0:0:0:0:
320,192,22030,1,0,0:0:0:0:
64,192,22030,1,0,0:0:0:0:
192,192,22071,1,0,0:0:0:0:
320,192,22113,1,0,0:0:0:0:
64,192,22155,1,0,0:0:0:0:
192,192,22196,1,0,0:0:0:0:
448,192,22238,1,0,0:0:0:0:
320,192,22280,1,0,0:0:0:0:
64,192,22280,1,0,0:0:0:0:
192,192,22321,1,0,0:0:0:0:
320,192,22363,1,0,0:0:0:0:
448,192,22405,1,0,0:0:0:0:
64,192,22405,1,0,0:0:0:0:
192,192,22446,1,0,0:0:0:0:
448,192,22488,1,0,0:0:0:0:
320,192,22530,1,0,0:0:0:0:
64,192,22571,1,0,0:0:0:0:
192,192,22571,1,0,0:0:0:0:
320,192,22655,1,0,0:0:0:0:
448,192,22696,1,0,0:0:0:0:
64,192,22696,1,0,0:0:0:0:
192,192,22696,1,0,0:0:0:0:
448,192,22780,1,0,0:0:0:0:
64,192,22821,1,0,0:0:0:0:
192,192,22821,1,0,0:0:0:0:
448,192,22905,1,0,0:0:0:0:
320,192,22905,1,0,0:0:0:0:
64,192,22946,1,0,0:0:0:0:
192,192,22988,1,0,0:0:0:0:
448,192,23030,1,0,0:0:0:0:
64,192,23071,1,0,0:0:0:0:
320,192,23071,1,0,0:0:0:0:
192,192,23113,1,0,0:0:0:0:
320,192,23196,1,0,0:0:0:0:
64,192,23196,1,0,0:0:0:0:
192,192,23238,1,0,0:0:0:0:
448,192,23280,1,0,0:0:0:0:
320,192,23321,1,0,0:0:0:0:
64,192,23363,1,0,0:0:0:0:
192,192,23405,1,0,0:0:0:0:
448,192,23405,1,0,0:0:0:0:
320,192,23446,1,0,0:0:0:0:
64,192,23488,1,0,0:0:0:0:
192,192,23530,1,0,0:0:0:0:
448,192,23530,1,0,0:0:0:0:
320,192,23571,1,0,0:0:0:0:
64,192,23613,1,0,0:0:0:0:
192,192,23613,1,0,0:0:0:0:
448,192,23696,1,0,0:0:0:0:
320,192,23696,1,0,0:0:0:0:
192,192,23780,1,0,0:0:0:0:
320,192,23821,1,0,0:0:0:0:
448,192,23863,1,0,0:0:0:0:
192,192,23905,1,0,0:0:0:0:
320,192,23946,1,0,0:0:0:0:
448,192,23946,1,0,0:0:0:0:
192,192,24030,1,0,0:0:0:0:
64,192,24030,1,0,0:0:0:0:
320,192,24071,1,0,0:0:0:0:
448,192,24113,1,0,0:0:0:0:
64,192,24155,1,0,0:0:0:0:
192,192,24196,1,0,0:0:0:0:
320,192,24196,1,0,0:0:0:0:
448,192,24238,1,0,0:0:0:0:
64,192,24280,1,0,0:0:0:0:
192,192,24280,1,0,0:0:0:0:
448,192,24363,1,0,0:0:0:0:
64,192,24405,1,0,0:0:0:0:
192,192,24405,1,0,0:0:0:0:
448,192,24446,1,0,0:0:0:0:
320,192,24488,1,0,0:0:0:0:
64,192,24530,1,0,0:0:0:0:
192,192,24530,1,0,0:0:0:0:
448,192,24571,1,0,0:0:0:0:
64,192,24655,1,0,0:0:0:0:
320,192,24655,1,0,0:0:0:0:
192,192,24655,1,0,0:0:0:0:
448,192,24696,1,0,0:0:0:0:
64,192,24738,1,0,0:0:0:0:
192,192,24780,1,0,0:0:0:0:
320,192,24780,1,0,0:0:0:0:
448,192,24821,1,0,0:0:0:0:
320,192,24905,1,0,0:0:0:0:
192,192,24905,1,0,0:0:0:0:
448,192,24946,1,0,0:0:0:0:
64,192,24988,1,0,0:0:0:0:
320,192,25030,1,0,0:0:0:0:
448,192,25071,1,0,0:0:0:0:
64,192,25113,1,0,0:0:0:0:
192,192,25155,1,0,0:0:0:0:
320,192,25155,1,0,0:0:0:0:
448,192,25196,1,0,0:0:0:0:
64,192,25238,1,0,0:0:0:0:
192,192,25280,1,0,0:0:0:0:
320,192,25280,1,0,0:0:0:0:
448,192,25321,1,0,0:0:0:0:
64,192,25363,1,0,0:0:0:0:
192,192,25405,1,0,0:0:0:0:
320,192,25405,1,0,0:0:0:0:
448,192,25446,1,0,0:0:0:0:
320,192,25530,1,0,0:0:0:0:
448,192,25571,1,0,0:0:0:0:
320,192,25655,1,0,0:0:0:0:
64,192,25655,1,0,0:0:0:0:
192,192,25696,1,0,0:0:0:0:
448,192,25780,1,0,0:0:0:0:
320,192,25821,1,0,0:0:0:0:
64,192,25863,1,0,0:0:0:0:
192,192,25905,1,0,0:0:0:0:
320,192,25946,1,0,0:0:0:0:
448,192,25988,1,0,0:0:0:0:
64,192,25988,1,0,0:0:0:0:
192,192,26030,1,0,0:0:0:0:
448,192,26113,1,0,0:0:0:0:
320,192,26155,1,0,0:0:0:0:
64,192,26155,1,0,0:0:0:0:
192,192,26196,1,0,0:0:0:0:
448,192,26238,1,0,0:0:0:0:
320,192,26280,1,0,0:0:0:0:
64,192,26321,1,0,0:0:0:0:
320,192,26363,1,0,0:0:0:0:
448,192,26405,1,0,0:0:0:0:
64,192,26488,1,0,0:0:0:0:
448,192,26530,1,0,0:0:0:0:
192,192,26530,1,0,0:0:0:0:
320,192,26571,1,0,0:0:0:0:
64,192,26655,1,0,0:0:0:0:
448,192,26655,1,0,0:0:0:0:
192,192,26696,1,0,0:0:0:0:
320,192,26696,1,0,0:0:0:0:
448,192,26780,1,0,0:0:0:0:
64,192,26780,1,0,0:0:0:0:
192,192,26821,1,0,0:0:0:0:
320,192,26821,1,0,0:0:0:0:
448,192,26905,1,0,0:0:0:0:
64,192,26905,1,0,0:0:0:0:
320,192,26946,1,0,0:0:0:0:
192,192,26946,1,0,0:0:0:0:
448,192,26988,1,0,0:0:0:0:
64,192,27030,1,0,0:0:0:0:
192,192,27071,1,0,0:0:0:0:
448,192,27113,1,0,0:0:0:0:
64,192,27155,1,0,0:0:0:0:
320,192,27155,1,0,0:0:0:0:
192,192,27196,1,0,0:0:0:0:
448,192,27196,1,0,0:0:0:0:
64,192,27238,1,0,0:0:0:0:
320,192,27280,1,0,0:0:0:0:
192,192,27280,1,0,0:0:0:0:
448,192,27321,1,0,0:0:0:0:
64,192,27363,1,0,0:0:0:0:
192,192,27405,1,0,0:0:0:0:
448,192,27405,1,0,0:0:0:0:
64,192,27488,1,0,0:0:0:0:
192,192,27530,1,0,0:0:0:0:
448,192,27571,1,0,0:0:0:0:
64,192,27613,1,0,0:0:0:0:
320,192,27613,1,0,0:0:0:0:
192,192,27655,1,0,0:0:0:0:
320,192,27696,1,0,0:0:0:0:
448,192,27780,1,0,0:0:0:0:
64,192,27780,1,0,0:0:0:0:
192,192,27821,1,0,0:0:0:0:
448,192,27863,1,0,0:0:0:0:
320,192,27905,1,0,0:0:0:0:
64,192,27946,1,0,0:0:0:0:
192,192,27988,1,0,0:0:0:0:
320,192,28030,1,0,0:0:0:0:
448,192,28071,1,0,0:0:0:0:
64,192,28071,1,0,0:0:0:0:
192,192,28113,1,0,0:0:0:0:
448,192,28155,1,0,0:0:0:0:
320,192,28196,1,0,0:0:0:0:
64,192,28196,1,0,0:0:0:0:
192,192,28238,1,0,0:0:0:0:
320,192,28280,1,0,0:0:0:0:
448,192,28321,1,0,0:0:0:0:
64,192,28363,1,0,0:0:0:0:
192,192,28363,1,0,0:0:0:0:
448,192,28405,1,0,0:0:0:0:
320,192,28488,1,0,0:0:0:0:
64,192,28488,1,0,0:0:0:0:
192,192,28530,1,0,0:0:0:0:
320,192,28571,1,0,0:0:0:0:
448,192,28613,1,0,0:0:0:0:
64,192,28655,1,0,0:0:0:0:
192,192,28696,1,0,0:0:0:0:
448,192,28738,1,0,0:0:0:0:
320,192,28780,1,0,0:0:0:0:
64,192,28821,1,0,0:0:0:0:
192,192,28863,1,0,0:0:0:0:
320,192,28905,1,0,0:0:0:0:
448,192,28946,1,0,0:0:0:0:
64,192,28988,1,0,0:0:0:0:
192,192,29030,1,0,0:0:0:0:
320,192,29071,1,0,0:0:0:0:
448,192,29071,1,0,0:0:0:0:
64,192,29113,1,0,0:0:0:0:
192,192,29155,1,0,0:0:0:0:
320,192,29196,1,0,0:0:0:0:
64,192,29238,1,0,0:0:0:0:
192,192,29280,1,0,0:0:0:0:
320,192,29280,1,0,0:0:0:0:
64,192,29363,1,0,0:0:0:0:
192,192,29405,1,0,0:0:0:0:
448,192,29405,1,0,0:0:0:0:
320,192,29446,1,0,0:0:0:0:
64,192,29488,1,0,0:0:0:0:
192,192,29530,1,0,0:0:0:0:
448,192,29571,1,0,0:0:0:0:
320,192,29571,1,0,0:0:0:0:
64,192,29613,1,0,0:0:0:0:
192,192,29655,1,0,0:0:0:0:
320,192,29696,1,0,0:0:0:0:
192,192,29738,1,0,0:0:0:0:
320,192,29780,1,0,0:0:0:0:
192,192,29863,1,0,0:0:0:0:
320,192,29905,1,0,0:0:0:0:
192,192,29946,1,0,0:0:0:0:
448,192,30030,1,0,0:0:0:0:
64,192,30071,1,0,0:0:0:0:
320,192,30113,1,0,0:0:0:0:
192,192,30113,1,0,0:0:0:0:
448,192,30155,1,0,0:0:0:0:
64,192,30196,1,0,0:0:0:0:
320,192,30238,1,0,0:0:0:0:
192,192,30238,1,0,0:0:0:0:
448,192,30280,1,0,0:0:0:0:
320,192,30321,1,0,0:0:0:0:
192,192,30405,1,0,0:0:0:0:
448,192,30405,1,0,0:0:0:0:
320,192,30446,1,0,0:0:0:0:
320,192,30488,1,0,0:0:0:0:
192,192,30488,1,0,0:0:0:0:
448,192,30571,1,0,0:0:0:0:
64,192,30571,1,0,0:0:0:0:
320,192,30613,1,0,0:0:0:0:
192,192,30613,1,0,0:0:0:0:
448,192,30696,1,0,0:0:0:0:
64,192,30696,1,0,0:0:0:0:
320,192,30738,1,0,0:0:0:0:
192,192,30738,1,0,0:0:0:0:
448,192,30821,1,0,0:0:0:0:
64,192,30821,1,0,0:0:0:0:
192,192,30863,1,0,0:0:0:0:
320,192,30905,1,0,0:0:0:0:
192,192,30988,1,0,0:0:0:0:
320,192,30988,1,0,0:0:0:0:
448,192,31071,1,0,0:0:0:0:
64,192,31071,1,0,0:0:0:0:
192,192,31113,1,0,0:0:0:0:
320,192,31113,1,0,0:0:0:0:
448,192,31196,1,0,0:0:0:0:
64,192,31196,1,0,0:0:0:0:
192,192,31238,1,0,0:0:0:0:
320,192,31280,1,0,0:0:0:0:
448,192,31321,1,0,0:0:0:0:
320,192,31363,1,0,0:0:0:0:
448,192,31405,1,0,0:0:0:0:
192,192,31446,1,0,0:0:0:0:
320,192,31446,1,0,0:0:0:0:
448,192,31530,1,0,0:0:0:0:
192,192,31571,1,0,0:0:0:0:
320,192,31571,1,0,0:0:0:0:
192,192,31655,1,0,0:0:0:0:
448,192,31655,1,0,0:0:0:0:
320,192,31738,1,0,0:0:0:0:
64,192,31780,1,0,0:0:0:0:
448,192,31780,1,0,0:0:0:0:
192,192,31821,1,0,0:0:0:0:
320,192,31863,1,0,0:0:0:0:
64,192,31905,1,0,0:0:0:0:
448,192,31905,1,0,0:0:0:0:
192,192,31946,1,0,0:0:0:0:
320,192,31946,1,0,0:0:0:0:
64,192,32030,1,0,0:0:0:0:
448,192,32030,1,0,0:0:0:0:
192,192,32071,1,0,0:0:0:0:
320,192,32071,1,0,0:0:0:0:
448,192,32113,1,0,0:0:0:0:
192,192,32155,1,0,0:0:0:0:
320,192,32196,1,0,0:0:0:0:
448,192,32238,1,0,0:0:0:0:
64,192,32280,1,0,0:0:0:0:
192,192,32280,1,0,0:0:0:0:
320,192,32280,1,0,0:0:0:0:
448,192,32321,1,0,0:0:0:0:
320,192,32405,1,0,0:0:0:0:
192,192,32446,1,0,0:0:0:0:
448,192,32488,1,0,0:0:0:0:
64,192,32488,1,0,0:0:0:0:
192,192,32530,1,0,0:0:0:0:
320,192,32530,1,0,0:0:0:0:
448,192,32571,1,0,0:0:0:0:
64,192,32613,1,0,0:0:0:0:
320,192,32655,1,0,0:0:0:0:
192,192,32655,1,0,0:0:0:0:
448,192,32696,1,0,0:0:0:0:
64,192,32738,1,0,0:0:0:0:
192,192,32780,1,0,0:0:0:0:
320,192,32780,1,0,0:0:0:0:
448,192,32821,1,0,0:0:0:0:
64,192,32821,1,0,0:0:0:0:
192,192,32905,1,0,0:0:0:0:
320,192,32905,1,0,0:0:0:0:
448,192,32988,1,0,0:0:0:0:
64,192,32988,1,0,0:0:0:0:
192,192,33030,1,0,0:0:0:0:
320,192,33030,1,0,0:0:0:0:
448,192,33113,1,0,0:0:0:0:
64,192,33113,1,0,0:0:0:0:
192,192,33155,1,0,0:0:0:0:
448,192,33196,1,0,0:0:0:0:
64,192,33238,1,0,0:0:0:0:
320,192,33238,1,0,0:0:0:0:
192,192,33280,1,0,0:0:0:0:
448,192,33321,1,0,0:0:0:0:
64,192,33405,1,0,0:0:0:0:
192,192,33405,1,0,0:0:0:0:
320,192,33488,1,0,0:0:0:0:
64,192,33530,1,0,0:0:0:0:
192,192,33571,1,0,0:0:0:0:
320,192,33571,1,0,0:0:0:0:
448,192,33613,1,0,0:0:0:0:
64,192,33655,1,0,0:0:0:0:
192,192,33696,1,0,0:0:0:0:
320,192,33696,1,0,0:0:0:0:
64,192,33780,1,0,0:0:0:0:
448,192,33780,1,0,0:0:0:0:
192,192,33821,1,0,0:0:0:0:
320,192,33821,1,0,0:0:0:0:
64,192,33905,1,0,0:0:0:0:
192,192,33946,1,0,0:0:0:0:
320,192,33946,1,0,0:0:0:0:
64,192,33988,1,0,0:0:0:0:
192,192,34030,1,0,0:0:0:0:
320,192,34030,1,0,0:0:0:0:
64,192,34113,1,0,0:0:0:0:
448,192,34155,1,0,0:0:0:0:
192,192,34155,1,0,0:0:0:0:
320,192,34238,1,0,0:0:0:0:
64,192,34238,1,0,0:0:0:0:
448,192,34280,1,0,0:0:0:0:
192,192,34280,1,0,0:0:0:0:
320,192,34321,1,0,0:0:0:0:
448,192,34363,1,0,0:0:0:0:
64,192,34363,1,0,0:0:0:0:
192,192,34405,1,0,0:0:0:0:
320,192,34446,1,0,0:0:0:0:
448,192,34488,1,0,0:0:0:0:
320,192,34571,1,0,0:0:0:0:
448,192,34613,1,0,0:0:0:0:
64,192,34613,1,0,0:0:0:0:
192,192,34696,1,0,0:0:0:0:
320,192,34696,1,0,0:0:0:0:
448,192,34738,1,0,0:0:0:0:
64,192,34738,1,0,0:0:0:0:
192,192,34780,1,0,0:0:0:0:
320,192,34821,1,0,0:0:0:0:
448,192,34863,1,0,0:0:0:0:
192,192,34905,1,0,0:0:0:0:
320,192,34905,1,0,0:0:0:0:
448,192,34988,1,0,0:0:0:0:
64,192,35030,1,0,0:0:0:0:
192,192,35030,1,0,0:0:0:0:
320,192,35071,1,0,0:0:0:0:
448,192,35113,1,0,0:0:0:0:
64,192,35113,1,0,0:0:0:0:
192,192,35196,1,0,0:0:0:0:
320,192,35196,1,0,0:0:0:0:
448,192,35238,1,0,0:0:0:0:
64,192,35238,1,0,0:0:0:0:
320,192,35280,1,0,0:0:0:0:
448,192,35363,1,0,0:0:0:0:
64,192,35363,1,0,0:0:0:0:
192,192,35405,1,0,0:0:0:0:
320,192,35405,1,0,0:0:0:0:
448,192,35488,1,0,0:0:0:0:
64,192,35488,1,0,0:0:0:0:
192,192,35530,1,0,0:0:0:0:
320,192,35530,1,0,0:0:0:0:
64,192,35655,1,0,0:0:0:0:
192,192,35738,1,0,0:0:0:0:
320,192,35821,1,0,0:0:0:0:
448,192,35905,1,0,0:0:0:0:
320,192,36030,1,0,0:0:0:0:
192,192,36155,1,0,0:0:0:0:
448,192,36196,1,0,0:0:0:0:
320,192,36321,1,0,0:0:0:0:
192,192,36405,1,0,0:0:0:0:
448,192,36488,1,0,0:0:0:0:
320,192,36571,1,0,0:0:0:0:
192,192,36696,1,0,0:0:0:0:
448,192,36780,1,0,0:0:0:0:
320,192,36863,1,0,0:0:0:0:
192,192,36946,1,0,0:0:0:0:
448,192,37030,1,0,0:0:0:0:
320,192,37113,1,0,0:0:0:0:
192,192,37196,1,0,0:0:0:0:
448,192,37280,1,0,0:0:0:0:
320,192,37363,1,0,0:0:0:0:
64,192,37446,1,0,0:0:0:0:
192,192,37488,1,0,0:0:0:0:
320,192,37530,1,0,0:0:0:0:
64,192,37613,1,0,0:0:0:0:
192,192,37655,1,0,0:0:0:0:
320,192,37696,1,0,0:0:0:0:
448,192,37821,1,0,0:0:0:0:
320,192,37946,1,0,0:0:0:0:
320,192,38155,1,0,0:0:0:0:
320,192,38363,1,0,0:0:0:0:
64,192,38405,1,0,0:0:0:0:
192,192,38446,1,0,0:0:0:0:
320,192,38488,1,0,0:0:0:0:
64,192,38530,1,0,0:0:0:0:
192,192,38571,1,0,0:0:0:0:
448,192,38613,1,0,0:0:0:0:
320,192,38655,1,0,0:0:0:0:
64,192,38696,1,0,0:0:0:0:
192,192,38738,1,0,0:0:0:0:
320,192,38780,1,0,0:0:0:0:
448,192,38821,1,0,0:0:0:0:
64,192,38863,1,0,0:0:0:0:
192,192,38905,1,0,0:0:0:0:
448,192,38946,1,0,0:0:0:0:
320,192,38988,1,0,0:0:0:0:
64,192,39030,1,0,0:0:0:0:
192,192,39071,1,0,0:0:0:0:
320,192,39113,1,0,0:0:0:0:
448,192,39155,1,0,0:0:0:0:
64,192,39196,1,0,0:0:0:0:
192,192,39238,1,0,0:0:0:0:
448,192,39280,1,0,0:0:0:0:
320,192,39321,1,0,0:0:0:0:
64,192,39363,1,0,0:0:0:0:
192,192,39405,1,0,0:0:0:0:
320,192,39446,1,0,0:0:0:0:
448,192,39488,1,0,0:0:0:0:
64,192,39488,1,0,0:0:0:0:
192,192,39530,1,0,0:0:0:0:
448,192,39613,1,0,0:0:0:0:
320,192,39655,1,0,0:0:0:0:
64,192,39655,1,0,0:0:0:0:
192,192,39696,1,0,0:0:0:0:
448,192,39738,1,0,0:0:0:0:
320,192,39821,1,0,0:0:0:0:
64,192,39821,1,0,0:0:0:0:
448,192,39863,1,0,0:0:0:0:
192,192,39863,1,0,0:0:0:0:
320,192,39946,1,0,0:0:0:0:
64,192,39988,1,0,0:0:0:0:
192,192,40030,1,0,0:0:0:0:
320,192,40071,1,0,0:0:0:0:
64,192,40155,1,0,0:0:0:0:
192,192,40155,1,0,0:0:0:0:
320,192,40238,1,0,0:0:0:0:
64,192,40280,1,0,0:0:0:0:
192,192,40321,1,0,0:0:0:0:
320,192,40363,1,0,0:0:0:0:
64,192,40405,1,0,0:0:0:0:
192,192,40446,1,0,0:0:0:0:
448,192,40488,1,0,0:0:0:0:
320,192,40571,1,0,0:0:0:0:
64,192,40613,1,0,0:0:0:0:
192,192,40613,1,0,0:0:0:0:
320,192,40696,1,0,0:0:0:0:
448,192,40738,1,0,0:0:0:0:
64,192,40738,1,0,0:0:0:0:
192,192,40780,1,0,0:0:0:0:
448,192,40821,1,0,0:0:0:0:
320,192,40905,1,0,0:0:0:0:
64,192,40905,1,0,0:0:0:0:
192,192,40946,1,0,0:0:0:0:
448,192,40988,1,0,0:0:0:0:
320,192,41071,1,0,0:0:0:0:
448,192,41113,1,0,0:0:0:0:
320,192,41196,1,0,0:0:0:0:
448,192,41238,1,0,0:0:0:0:
64,192,41238,1,0,0:0:0:0:
192,192,41280,1,0,0:0:0:0:
64,192,41363,1,0,0:0:0:0:
192,192,41405,1,0,0:0:0:0:
448,192,41405,1,0,0:0:0:0:
320,192,41488,1,0,0:0:0:0:
448,192,41571,1,0,0:0:0:0:
320,192,41613,1,0,0:0:0:0:
64,192,41613,1,0,0:0:0:0:
192,192,41655,1,0,0:0:0:0:
64,192,41696,1,0,0:0:0:0:
448,192,41738,1,0,0:0:0:0:
192,192,41738,1,0,0:0:0:0:
320,192,41821,1,0,0:0:0:0:
448,192,41863,1,0,0:0:0:0:
320,192,41905,1,0,0:0:0:0:
64,192,41946,1,0,0:0:0:0:
192,192,41988,1,0,0:0:0:0:
448,192,42071,1,0,0:0:0:0:
64,192,42113,1,0,0:0:0:0:
320,192,42113,1,0,0:0:0:0:
64,192,42321,1,0,0:0:0:0:
192,192,42405,1,0,0:0:0:0:
320,192,42488,1,0,0:0:0:0:
448,192,42571,1,0,0:0:0:0:
320,192,42613,1,0,0:0:0:0:
64,192,42696,1,0,0:0:0:0:
192,192,42780,1,0,0:0:0:0:
320,192,42821,1,0,0:0:0:0:
448,192,42905,1,0,0:0:0:0:
64,192,42946,1,0,0:0:0:0:
192,192,42988,1,0,0:0:0:0:
448,192,43071,128,0,43696:0:0:0:0:
320,192,43071,128,0,43696:0:0:0:0:
192,192,43071,128,0,43696:0:0:0:0:
64,192,43113,128,0,43696:0:0:0:0:
192,192,44363,1,0,0:0:0:0:
320,192,44488,1,0,0:0:0:0:
448,192,44655,1,0,0:0:0:0:
320,192,44780,1,0,0:0:0:0:
192,192,44988,1,0,0:0:0:0:
320,192,44988,1,0,0:0:0:0:
64,192,44988,1,0,0:0:0:0:
448,192,44988,1,0,0:0:0:0:
64,192,45113,1,0,0:0:0:0:
192,192,45113,1,0,0:0:0:0:
320,192,45280,1,0,0:0:0:0:
448,192,45280,1,0,0:0:0:0:
64,192,45280,1,0,0:0:0:0:
192,192,45280,1,0,0:0:0:0:
320,192,45446,1,0,0:0:0:0:
448,192,45446,1,0,0:0:0:0:
192,192,45613,1,0,0:0:0:0:
64,192,45613,1,0,0:0:0:0:
320,192,45655,1,0,0:0:0:0:
448,192,45655,1,0,0:0:0:0:
64,192,45780,1,0,0:0:0:0:
192,192,45780,1,0,0:0:0:0:
448,192,45946,1,0,0:0:0:0:
320,192,45946,1,0,0:0:0:0:
192,192,45946,1,0,0:0:0:0:
64,192,45946,1,0,0:0:0:0:
320,192,46113,1,0,0:0:0:0:
448,192,46113,1,0,0:0:0:0:
320,192,46321,1,0,0:0:0:0:
448,192,46321,1,0,0:0:0:0:
192,192,46321,1,0,0:0:0:0:
64,192,46321,1,0,0:0:0:0:
64,192,46488,1,0,0:0:0:0:
192,192,46488,1,0,0:0:0:0:
64,192,46655,1,0,0:0:0:0:
448,192,46655,1,0,0:0:0:0:
192,192,46655,1,0,0:0:0:0:
320,192,46655,1,0,0:0:0:0:
320,192,46821,1,0,0:0:0:0:
448,192,46821,1,0,0:0:0:0:
192,192,46988,1,0,0:0:0:0:
320,192,46988,1,0,0:0:0:0:
448,192,46988,1,0,0:0:0:0:
64,192,46988,1,0,0:0:0:0:
64,192,47155,1,0,0:0:0:0:
192,192,47155,1,0,0:0:0:0:
64,192,47321,1,0,0:0:0:0:
320,192,47321,1,0,0:0:0:0:
448,192,47321,1,0,0:0:0:0:
192,192,47321,1,0,0:0:0:0:
320,192,47488,1,0,0:0:0:0:
448,192,47488,1,0,0:0:0:0:
64,192,47655,1,0,0:0:0:0:
192,192,47655,1,0,0:0:0:0:
320,192,47655,1,0,0:0:0:0:
448,192,47655,1,0,0:0:0:0:
64,192,47821,1,0,0:0:0:0:
192,192,47821,1,0,0:0:0:0:
192,192,47946,1,0,0:0:0:0:
320,192,47946,1,0,0:0:0:0:
448,192,47946,1,0,0:0:0:0:
64,192,47946,1,0,0:0:0:0:
320,192,48155,1,0,0:0:0:0:
448,192,48155,1,0,0:0:0:0:
64,192,48321,1,0,0:0:0:0:
192,192,48321,1,0,0:0:0:0:
320,192,48321,1,0,0:0:0:0:
448,192,48321,1,0,0:0:0:0:
64,192,48446,1,0,0:0:0:0:
192,192,48446,1,0,0:0:0:0:
320,192,48613,1,0,0:0:0:0:
448,192,48613,1,0,0:0:0:0:
192,192,48821,1,0,0:0:0:0:
448,192,48988,1,0,0:0:0:0:
320,192,49155,1,0,0:0:0:0:
64,192,49321,1,0,0:0:0:0:
448,192,49488,1,0,0:0:0:0:
320,192,49655,128,0,49988:0:0:0:0:
192,192,50030,1,0,0:0:0:0:
448,192,50196,1,0,0:0:0:0:
320,192,50363,1,0,0:0:0:0:
64,192,50530,1,0,0:0:0:0:
192,192,50613,1,0,0:0:0:0:
320,192,50696,1,0,0:0:0:0:
448,192,50863,1,0,0:0:0:0:
320,192,51030,1,0,0:0:0:0:
64,192,51196,1,0,0:0:0:0:
192,192,51280,1,0,0:0:0:0:
320,192,51363,1,0,0:0:0:0:
448,192,51530,1,0,0:0:0:0:
320,192,51655,1,0,0:0:0:0:
64,192,51863,1,0,0:0:0:0:
192,192,51905,1,0,0:0:0:0:
320,192,51988,1,0,0:0:0:0:
448,192,52155,1,0,0:0:0:0:
320,192,52321,1,0,0:0:0:0:
64,192,52488,1,0,0:0:0:0:
192,192,52571,1,0,0:0:0:0:
320,192,52655,1,0,0:0:0:0:
448,192,52821,1,0,0:0:0:0:
320,192,52988,1,0,0:0:0:0:
64,192,53155,1,0,0:0:0:0:
192,192,53238,1,0,0:0:0:0:
320,192,53321,1,0,0:0:0:0:
448,192,53488,1,0,0:0:0:0:
320,192,53655,1,0,0:0:0:0:
64,192,53821,1,0,0:0:0:0:
192,192,53905,1,0,0:0:0:0:
320,192,53988,1,0,0:0:0:0:
448,192,54155,1,0,0:0:0:0:
320,192,54321,1,0,0:0:0:0:
448,192,54488,1,0,0:0:0:0:
192,192,54571,1,0,0:0:0:0:
320,192,54655,1,0,0:0:0:0:
320,192,54863,1,0,0:0:0:0:
448,192,54863,1,0,0:0:0:0:
64,192,54905,1,0,0:0:0:0:
192,192,54905,1,0,0:0:0:0:
448,192,55030,1,0,0:0:0:0:
320,192,55030,1,0,0:0:0:0:
64,192,55071,1,0,0:0:0:0:
320,192,55155,1,0,0:0:0:0:
192,192,55238,1,0,0:0:0:0:
448,192,55321,1,0,0:0:0:0:
64,192,55405,1,0,0:0:0:0:
320,192,55488,1,0,0:0:0:0:
320,192,55696,1,0,0:0:0:0:
64,192,55738,1,0,0:0:0:0:
192,192,55780,1,0,0:0:0:0:
320,192,55821,1,0,0:0:0:0:
64,192,55905,1,0,0:0:0:0:
192,192,55946,1,0,0:0:0:0:
448,192,55988,1,0,0:0:0:0:
320,192,56155,1,0,0:0:0:0:
448,192,56321,1,0,0:0:0:0:
192,192,56446,1,0,0:0:0:0:
448,192,56488,1,0,0:0:0:0:
320,192,56530,1,0,0:0:0:0:
64,192,56571,1,0,0:0:0:0:
192,192,56613,1,0,0:0:0:0:
448,192,56655,1,0,0:0:0:0:
448,192,56821,1,0,0:0:0:0:
64,192,56863,1,0,0:0:0:0:
320,192,56905,1,0,0:0:0:0:
192,192,56905,1,0,0:0:0:0:
192,192,56946,1,0,0:0:0:0:
64,192,56988,1,0,0:0:0:0:
448,192,56988,1,0,0:0:0:0:
448,192,57155,1,0,0:0:0:0:
64,192,57196,1,0,0:0:0:0:
320,192,57238,1,0,0:0:0:0:
192,192,57238,1,0,0:0:0:0:
64,192,57280,1,0,0:0:0:0:
448,192,57280,1,0,0:0:0:0:
192,192,57321,1,0,0:0:0:0:
320,192,57530,1,0,0:0:0:0:
192,192,57655,1,0,0:0:0:0:
320,192,57780,1,0,0:0:0:0:
192,192,57946,1,0,0:0:0:0:
320,192,57988,1,0,0:0:0:0:
320,192,58155,1,0,0:0:0:0:
448,192,58321,1,0,0:0:0:0:
320,192,58363,1,0,0:0:0:0:
320,192,58530,1,0,0:0:0:0:
64,192,58571,1,0,0:0:0:0:
192,192,58613,1,0,0:0:0:0:
320,192,58696,1,0,0:0:0:0:
448,192,58863,1,0,0:0:0:0:
320,192,58905,1,0,0:0:0:0:
64,192,58905,1,0,0:0:0:0:
192,192,58946,1,0,0:0:0:0:
448,192,58988,1,0,0:0:0:0:
448,192,59155,1,0,0:0:0:0:
320,192,59238,1,0,0:0:0:0:
64,192,59238,1,0,0:0:0:0:
192,192,59280,1,0,0:0:0:0:
448,192,59280,1,0,0:0:0:0:
320,192,59363,1,0,0:0:0:0:
64,192,59405,1,0,0:0:0:0:
448,192,59405,1,0,0:0:0:0:
192,192,59446,1,0,0:0:0:0:
320,192,59488,1,0,0:0:0:0:
64,192,59530,1,0,0:0:0:0:
448,192,59530,1,0,0:0:0:0:
192,192,59571,1,0,0:0:0:0:
320,192,59655,1,0,0:0:0:0:
320,192,59780,1,0,0:0:0:0:
192,192,59863,1,0,0:0:0:0:
448,192,59905,1,0,0:0:0:0:
192,192,59946,1,0,0:0:0:0:
320,192,60113,1,0,0:0:0:0:
64,192,60155,1,0,0:0:0:0:
320,192,60238,1,0,0:0:0:0:
192,192,60280,1,0,0:0:0:0:
320,192,60488,1,0,0:0:0:0:
64,192,60530,1,0,0:0:0:0:
192,192,60571,1,0,0:0:0:0:
320,192,60655,1,0,0:0:0:0:
320,192,60738,1,0,0:0:0:0:
320,192,60821,1,0,0:0:0:0:
64,192,60863,1,0,0:0:0:0:
192,192,60863,1,0,0:0:0:0:
448,192,60988,1,0,0:0:0:0:
320,192,61155,1,0,0:0:0:0:
64,192,61196,1,0,0:0:0:0:
192,192,61238,1,0,0:0:0:0:
320,192,61321,1,0,0:0:0:0:
448,192,61488,1,0,0:0:0:0:
320,192,61530,1,0,0:0:0:0:
64,192,61571,1,0,0:0:0:0:
192,192,61613,1,0,0:0:0:0:
320,192,61655,1,0,0:0:0:0:
448,192,61655,1,0,0:0:0:0:
448,192,61821,1,0,0:0:0:0:
320,192,61863,1,0,0:0:0:0:
64,192,61905,1,0,0:0:0:0:
192,192,61946,1,0,0:0:0:0:
448,192,61988,1,0,0:0:0:0:
320,192,61988,1,0,0:0:0:0:
448,192,62155,1,0,0:0:0:0:
448,192,62238,1,0,0:0:0:0:
64,192,62280,1,0,0:0:0:0:
64,192,62321,1,0,0:0:0:0:
320,192,62363,1,0,0:0:0:0:
320,192,62446,1,0,0:0:0:0:
192,192,62488,1,0,0:0:0:0:
192,192,62571,1,0,0:0:0:0:
448,192,62655,1,0,0:0:0:0:
448,192,62696,1,0,0:0:0:0:
64,192,62780,1,0,0:0:0:0:
64,192,62863,1,0,0:0:0:0:
320,192,62988,1,0,0:0:0:0:
448,192,63155,1,0,0:0:0:0:
320,192,63196,1,0,0:0:0:0:
64,192,63238,1,0,0:0:0:0:
192,192,63280,1,0,0:0:0:0:
448,192,63321,1,0,0:0:0:0:
320,192,63321,1,0,0:0:0:0:
320,192,63530,1,0,0:0:0:0:
64,192,63571,1,0,0:0:0:0:
192,192,63613,1,0,0:0:0:0:
320,192,63696,1,0,0:0:0:0:
320,192,63863,1,0,0:0:0:0:
320,192,63905,1,0,0:0:0:0:
192,192,64030,1,0,0:0:0:0:
192,192,64071,1,0,0:0:0:0:
448,192,64155,1,0,0:0:0:0:
448,192,64238,1,0,0:0:0:0:
64,192,64321,1,0,0:0:0:0:
64,192,64405,1,0,0:0:0:0:
320,192,64488,1,0,0:0:0:0:
320,192,64571,1,0,0:0:0:0:
192,192,64655,1,0,0:0:0:0:
192,192,64738,1,0,0:0:0:0:
448,192,64821,1,0,0:0:0:0:
64,192,64905,1,0,0:0:0:0:
192,192,64946,1,0,0:0:0:0:
320,192,64988,1,0,0:0:0:0:
320,192,65155,1,0,0:0:0:0:
64,192,65238,1,0,0:0:0:0:
320,192,65321,1,0,0:0:0:0:
192,192,65405,1,0,0:0:0:0:
448,192,65488,1,0,0:0:0:0:
64,192,65571,1,0,0:0:0:0:
320,192,65655,1,0,0:0:0:0:
64,192,65738,1,0,0:0:0:0:
192,192,65780,1,0,0:0:0:0:
448,192,65821,1,0,0:0:0:0:
64,192,65863,1,0,0:0:0:0:
192,192,65946,1,0,0:0:0:0:
320,192,65988,1,0,0:0:0:0:
320,192,66155,1,0,0:0:0:0:
320,192,66363,1,0,0:0:0:0:
64,192,66405,1,0,0:0:0:0:
192,192,66446,1,0,0:0:0:0:
320,192,66530,1,0,0:0:0:0:
64,192,66571,1,0,0:0:0:0:
192,192,66613,1,0,0:0:0:0:
448,192,66655,1,0,0:0:0:0:
320,192,66863,1,0,0:0:0:0:
64,192,66905,1,0,0:0:0:0:
192,192,66946,1,0,0:0:0:0:
448,192,66988,1,0,0:0:0:0:
320,192,67155,1,0,0:0:0:0:
192,192,67238,1,0,0:0:0:0:
448,192,67321,1,0,0:0:0:0:
320,192,67530,1,0,0:0:0:0:
64,192,67571,1,0,0:0:0:0:
192,192,67613,1,0,0:0:0:0:
448,192,67655,1,0,0:0:0:0:
320,192,67738,1,0,0:0:0:0:
192,192,67821,1,0,0:0:0:0:
192,192,67905,1,0,0:0:0:0:
448,192,67988,1,0,0:0:0:0:
320,192,68071,1,0,0:0:0:0:
192,192,68155,1,0,0:0:0:0:
192,192,68238,1,0,0:0:0:0:
448,192,68321,1,0,0:0:0:0:
64,192,68405,1,0,0:0:0:0:
192,192,68446,1,0,0:0:0:0:
320,192,68488,1,0,0:0:0:0:
64,192,68571,1,0,0:0:0:0:
192,192,68613,1,0,0:0:0:0:
320,192,68655,1,0,0:0:0:0:
64,192,68696,1,0,0:0:0:0:
192,192,68780,1,0,0:0:0:0:
320,192,68821,1,0,0:0:0:0:
64,192,68905,1,0,0:0:0:0:
192,192,68946,1,0,0:0:0:0:
448,192,68988,1,0,0:0:0:0:
320,192,69030,1,0,0:0:0:0:
64,192,69071,1,0,0:0:0:0:
192,192,69113,1,0,0:0:0:0:
320,192,69155,1,0,0:0:0:0:
448,192,69196,1,0,0:0:0:0:
64,192,69238,1,0,0:0:0:0:
192,192,69280,1,0,0:0:0:0:
448,192,69321,1,0,0:0:0:0:
320,192,69321,1,0,0:0:0:0:
64,192,69405,1,0,0:0:0:0:
192,192,69446,1,0,0:0:0:0:
320,192,69488,1,0,0:0:0:0:
64,192,69530,1,0,0:0:0:0:
320,192,69571,1,0,0:0:0:0:
64,192,69613,1,0,0:0:0:0:
192,192,69655,1,0,0:0:0:0:
320,192,69696,1,0,0:0:0:0:
64,192,69738,1,0,0:0:0:0:
192,192,69780,1,0,0:0:0:0:
448,192,69821,1,0,0:0:0:0:
320,192,69863,1,0,0:0:0:0:
64,192,69905,1,0,0:0:0:0:
192,192,69946,1,0,0:0:0:0:
320,192,69988,1,0,0:0:0:0:
448,192,70030,1,0,0:0:0:0:
64,192,70071,1,0,0:0:0:0:
192,192,70113,1,0,0:0:0:0:
448,192,70155,1,0,0:0:0:0:
320,192,70196,1,0,0:0:0:0:
64,192,70238,1,0,0:0:0:0:
192,192,70280,1,0,0:0:0:0:
320,192,70321,1,0,0:0:0:0:
448,192,70321,1,0,0:0:0:0:
64,192,70405,1,0,0:0:0:0:
192,192,70446,1,0,0:0:0:0:
448,192,70488,1,0,0:0:0:0:
320,192,70530,1,0,0:0:0:0:
64,192,70571,1,0,0:0:0:0:
192,192,70613,1,0,0:0:0:0:
320,192,70655,1,0,0:0:0:0:
448,192,70696,1,0,0:0:0:0:
64,192,70738,1,0,0:0:0:0:
192,192,70780,1,0,0:0:0:0:
448,192,70821,1,0,0:0:0:0:
320,192,70863,1,0,0:0:0:0:
64,192,70863,1,0,0:0:0:0:
192,192,70905,1,0,0:0:0:0:
448,192,70988,1,0,0:0:0:0:
320,192,70988,1,0,0:0:0:0:
448,192,71113,1,0,0:0:0:0:
320,192,71155,1,0,0:0:0:0:
64,192,71196,1,0,0:0:0:0:
192,192,71238,1,0,0:0:0:0:
448,192,71238,1,0,0:0:0:0:
320,192,71280,1,0,0:0:0:0:
64,192,71280,1,0,0:0:0:0:
192,192,71321,1,0,0:0:0:0:
448,192,71446,1,0,0:0:0:0:
320,192,71488,1,0,0:0:0:0:
64,192,71530,1,0,0:0:0:0:
192,192,71571,1,0,0:0:0:0:
448,192,71571,1,0,0:0:0:0:
64,192,71613,1,0,0:0:0:0:
320,192,71613,1,0,0:0:0:0:
192,192,71655,1,0,0:0:0:0:
320,192,71780,1,0,0:0:0:0:
192,192,71821,1,0,0:0:0:0:
320,192,71863,1,0,0:0:0:0:
64,192,71905,1,0,0:0:0:0:
192,192,71905,1,0,0:0:0:0:
448,192,71988,1,0,0:0:0:0:
320,192,71988,1,0,0:0:0:0:
448,192,72155,1,0,0:0:0:0:
64,192,72196,1,0,0:0:0:0:
320,192,72196,1,0,0:0:0:0:
192,192,72238,1,0,0:0:0:0:
448,192,72238,1,0,0:0:0:0:
64,192,72280,1,0,0:0:0:0:
320,192,72321,1,0,0:0:0:0:
192,192,72321,1,0,0:0:0:0:
448,192,72488,1,0,0:0:0:0:
320,192,72530,1,0,0:0:0:0:
64,192,72530,1,0,0:0:0:0:
192,192,72571,1,0,0:0:0:0:
320,192,72655,1,0,0:0:0:0:
320,192,72821,1,0,0:0:0:0:
64,192,72905,1,0,0:0:0:0:
192,192,72946,1,0,0:0:0:0:
320,192,72988,1,0,0:0:0:0:
320,192,73071,1,0,0:0:0:0:
192,192,73155,1,0,0:0:0:0:
192,192,73238,1,0,0:0:0:0:
448,192,73321,1,0,0:0:0:0:
320,192,73405,1,0,0:0:0:0:
64,192,73488,1,0,0:0:0:0:
192,192,73571,1,0,0:0:0:0:
448,192,73655,1,0,0:0:0:0:
320,192,73696,1,0,0:0:0:0:
64,192,73738,1,0,0:0:0:0:
192,192,73780,1,0,0:0:0:0:
448,192,73821,1,0,0:0:0:0:
320,192,73821,1,0,0:0:0:0:
64,192,73905,1,0,0:0:0:0:
448,192,73988,1,0,0:0:0:0:
320,192,74030,1,0,0:0:0:0:
64,192,74071,1,0,0:0:0:0:
192,192,74113,1,0,0:0:0:0:
320,192,74155,1,0,0:0:0:0:
448,192,74155,1,0,0:0:0:0:
64,192,74196,1,0,0:0:0:0:
192,192,74238,1,0,0:0:0:0:
448,192,74280,1,0,0:0:0:0:
64,192,74363,1,0,0:0:0:0:
192,192,74405,1,0,0:0:0:0:
320,192,74488,1,0,0:0:0:0:
448,192,74488,1,0,0:0:0:0:
64,192,74530,1,0,0:0:0:0:
192,192,74571,1,0,0:0:0:0:
320,192,74613,1,0,0:0:0:0:
448,192,74613,1,0,0:0:0:0:
64,192,74696,1,0,0:0:0:0:
192,192,74696,1,0,0:0:0:0:
320,192,74738,1,0,0:0:0:0:
64,192,74780,1,0,0:0:0:0:
192,192,74821,1,0,0:0:0:0:
320,192,74863,1,0,0:0:0:0:
448,192,74863,1,0,0:0:0:0:
64,192,74905,1,0,0:0:0:0:
192,192,74946,1,0,0:0:0:0:
448,192,74988,1,0,0:0:0:0:
64,192,75030,1,0,0:0:0:0:
192,192,75071,1,0,0:0:0:0:
448,192,75155,1,0,0:0:0:0:
320,192,75155,1,0,0:0:0:0:
64,192,75196,1,0,0:0:0:0:
192,192,75238,1,0,0:0:0:0:
448,192,75280,1,0,0:0:0:0:
64,192,75363,1,0,0:0:0:0:
192,192,75405,1,0,0:0:0:0:
448,192,75446,1,0,0:0:0:0:
320,192,75488,1,0,0:0:0:0:
64,192,75488,1,0,0:0:0:0:
192,192,75571,1,0,0:0:0:0:
448,192,75613,1,0,0:0:0:0:
320,192,75655,1,0,0:0:0:0:
320,192,75780,1,0,0:0:0:0:
192,192,75863,1,0,0:0:0:0:
320,192,75863,1,0,0:0:0:0:
192,192,75946,1,0,0:0:0:0:
448,192,76030,1,0,0:0:0:0:
64,192,76071,1,0,0:0:0:0:
320,192,76196,1,0,0:0:0:0:
64,192,76238,1,0,0:0:0:0:
192,192,76280,1,0,0:0:0:0:
320,192,76363,1,0,0:0:0:0:
448,192,76363,1,0,0:0:0:0:
64,192,76363,1,0,0:0:0:0:
192,192,76405,1,0,0:0:0:0:
320,192,76446,1,0,0:0:0:0:
448,192,76446,1,0,0:0:0:0:
64,192,76488,1,0,0:0:0:0:
192,192,76530,1,0,0:0:0:0:
320,192,76530,1,0,0:0:0:0:
448,192,76530,1,0,0:0:0:0:
64,192,76613,1,0,0:0:0:0:
192,192,76613,1,0,0:0:0:0:
320,192,76655,1,0,0:0:0:0:
448,192,76655,1,0,0:0:0:0:
64,192,76696,1,0,0:0:0:0:
192,192,76696,1,0,0:0:0:0:
320,192,76738,1,0,0:0:0:0:
64,192,76821,1,0,0:0:0:0:
192,192,76821,1,0,0:0:0:0:
448,192,76821,1,0,0:0:0:0:
320,192,76821,1,0,0:0:0:0:
320,192,76905,1,0,0:0:0:0:
192,192,76905,1,0,0:0:0:0:
64,192,76905,1,0,0:0:0:0:
448,192,76905,1,0,0:0:0:0:
64,192,76988,1,0,0:0:0:0:
192,192,76988,1,0,0:0:0:0:
320,192,77030,1,0,0:0:0:0:
448,192,77030,1,0,0:0:0:0:
320,192,77155,1,0,0:0:0:0:
64,192,77238,1,0,0:0:0:0:
192,192,77280,1,0,0:0:0:0:
320,192,77363,1,0,0:0:0:0:
448,192,77530,1,0,0:0:0:0:
64,192,77571,1,0,0:0:0:0:
192,192,77613,1,0,0:0:0:0:
448,192,77696,1,0,0:0:0:0:
320,192,77863,1,0,0:0:0:0:
192,192,77946,1,0,0:0:0:0:
192,192,77988,1,0,0:0:0:0:
320,192,78030,1,0,0:0:0:0:
192,192,78071,1,0,0:0:0:0:
320,192,78196,1,0,0:0:0:0:
192,192,78280,1,0,0:0:0:0:
448,192,78363,1,0,0:0:0:0:
448,192,78446,1,0,0:0:0:0:
192,192,78488,1,0,0:0:0:0:
64,192,78530,1,0,0:0:0:0:
192,192,78613,1,0,0:0:0:0:
320,192,78655,1,0,0:0:0:0:
64,192,78780,1,0,0:0:0:0:
192,192,78821,1,0,0:0:0:0:
320,192,78821,1,0,0:0:0:0:
64,192,78905,1,0,0:0:0:0:
192,192,78946,1,0,0:0:0:0:
448,192,78988,1,0,0:0:0:0:
64,192,79071,1,0,0:0:0:0:
192,192,79113,1,0,0:0:0:0:
64,192,79238,1,0,0:0:0:0:
192,192,79280,1,0,0:0:0:0:
448,192,79321,1,0,0:0:0:0:
64,192,79363,1,0,0:0:0:0:
320,192,79405,1,0,0:0:0:0:
192,192,79405,1,0,0:0:0:0:
320,192,79488,1,0,0:0:0:0:
448,192,79488,1,0,0:0:0:0:
64,192,79488,1,0,0:0:0:0:
192,192,79530,1,0,0:0:0:0:
448,192,79613,1,0,0:0:0:0:
320,192,79655,1,0,0:0:0:0:
64,192,79655,1,0,0:0:0:0:
192,192,79738,1,0,0:0:0:0:
320,192,79738,1,0,0:0:0:0:
448,192,79780,1,0,0:0:0:0:
64,192,79780,1,0,0:0:0:0:
192,192,79821,1,0,0:0:0:0:
320,192,79905,1,0,0:0:0:0:
64,192,79905,1,0,0:0:0:0:
192,192,79946,1,0,0:0:0:0:
320,192,79988,1,0,0:0:0:0:
64,192,80030,1,0,0:0:0:0:
448,192,80071,1,0,0:0:0:0:
192,192,80071,1,0,0:0:0:0:
64,192,80113,1,0,0:0:0:0:
320,192,80155,1,0,0:0:0:0:
192,192,80155,1,0,0:0:0:0:
64,192,80238,1,0,0:0:0:0:
192,192,80280,1,0,0:0:0:0:
448,192,80321,1,0,0:0:0:0:
64,192,80321,1,0,0:0:0:0:
192,192,80405,1,0,0:0:0:0:
320,192,80405,1,0,0:0:0:0:
64,192,80446,1,0,0:0:0:0:
192,192,80488,1,0,0:0:0:0:
64,192,80571,1,0,0:0:0:0:
192,192,80613,1,0,0:0:0:0:
64,192,80655,1,0,0:0:0:0:
192,192,80696,1,0,0:0:0:0:
448,192,80696,1,0,0:0:0:0:
64,192,80780,1,0,0:0:0:0:
320,192,80780,1,0,0:0:0:0:
448,192,80780,1,0,0:0:0:0:
448,192,80863,1,0,0:0:0:0:
64,192,80863,1,0,0:0:0:0:
192,192,80905,1,0,0:0:0:0:
448,192,80946,1,0,0:0:0:0:
320,192,80988,1,0,0:0:0:0:
64,192,81030,1,0,0:0:0:0:
192,192,81071,1,0,0:0:0:0:
448,192,81113,1,0,0:0:0:0:
64,192,81155,1,0,0:0:0:0:
320,192,81155,1,0,0:0:0:0:
192,192,81196,1,0,0:0:0:0:
448,192,81196,1,0,0:0:0:0:
320,192,81238,1,0,0:0:0:0:
448,192,81321,1,0,0:0:0:0:
64,192,81321,1,0,0:0:0:0:
320,192,81363,1,0,0:0:0:0:
192,192,81363,1,0,0:0:0:0:
448,192,81405,1,0,0:0:0:0:
64,192,81446,1,0,0:0:0:0:
320,192,81488,1,0,0:0:0:0:
192,192,81488,1,0,0:0:0:0:
448,192,81530,1,0,0:0:0:0:
64,192,81530,1,0,0:0:0:0:
320,192,81571,1,0,0:0:0:0:
192,192,81613,1,0,0:0:0:0:
448,192,81655,1,0,0:0:0:0:
64,192,81655,1,0,0:0:0:0:
320,192,81696,1,0,0:0:0:0:
192,192,81696,1,0,0:0:0:0:
448,192,81738,1,0,0:0:0:0:
64,192,81780,1,0,0:0:0:0:
320,192,81780,1,0,0:0:0:0:
192,192,81821,1,0,0:0:0:0:
64,192,81863,1,0,0:0:0:0:
448,192,81905,1,0,0:0:0:0:
320,192,81946,1,0,0:0:0:0:
64,192,81946,1,0,0:0:0:0:
192,192,82030,1,0,0:0:0:0:
320,192,82071,1,0,0:0:0:0:
64,192,82113,1,0,0:0:0:0:
448,192,82113,1,0,0:0:0:0:
192,192,82155,1,0,0:0:0:0:
448,192,82196,1,0,0:0:0:0:
320,192,82196,1,0,0:0:0:0:
64,192,82238,1,0,0:0:0:0:
192,192,82280,1,0,0:0:0:0:
320,192,82280,1,0,0:0:0:0:
64,192,82321,1,0,0:0:0:0:
448,192,82363,1,0,0:0:0:0:
192,192,82405,1,0,0:0:0:0:
448,192,82446,1,0,0:0:0:0:
320,192,82446,1,0,0:0:0:0:
64,192,82488,1,0,0:0:0:0:
192,192,82488,1,0,0:0:0:0:
448,192,82530,1,0,0:0:0:0:
320,192,82571,1,0,0:0:0:0:
64,192,82613,1,0,0:0:0:0:
192,192,82655,1,0,0:0:0:0:
64,192,82738,1,0,0:0:0:0:
448,192,82738,1,0,0:0:0:0:
192,192,82738,1,0,0:0:0:0:
448,192,82821,1,0,0:0:0:0:
320,192,82821,1,0,0:0:0:0:
64,192,82863,1,0,0:0:0:0:
192,192,82905,1,0,0:0:0:0:
320,192,82988,1,0,0:0:0:0:
448,192,83155,1,0,0:0:0:0:
320,192,83155,1,0,0:0:0:0:
192,192,83238,1,0,0:0:0:0:
192,192,83280,1,0,0:0:0:0:
320,192,83321,1,0,0:0:0:0:
320,192,83488,1,0,0:0:0:0:
64,192,83530,1,0,0:0:0:0:
192,192,83613,1,0,0:0:0:0:
320,192,83655,1,0,0:0:0:0:
320,192,83863,1,0,0:0:0:0:
64,192,83905,1,0,0:0:0:0:
192,192,83946,1,0,0:0:0:0:
320,192,84030,1,0,0:0:0:0:
448,192,84196,1,0,0:0:0:0:
64,192,84238,1,0,0:0:0:0:
192,192,84280,1,0,0:0:0:0:
320,192,84321,1,0,0:0:0:0:
64,192,84405,1,0,0:0:0:0:
192,192,84446,1,0,0:0:0:0:
448,192,84488,1,0,0:0:0:0:
64,192,84530,1,0,0:0:0:0:
320,192,84571,1,0,0:0:0:0:
192,192,84571,1,0,0:0:0:0:
448,192,84655,1,0,0:0:0:0:
320,192,84696,1,0,0:0:0:0:
64,192,84738,1,0,0:0:0:0:
192,192,84780,1,0,0:0:0:0:
448,192,84821,1,0,0:0:0:0:
320,192,84821,1,0,0:0:0:0:
64,192,84863,1,0,0:0:0:0:
192,192,84905,1,0,0:0:0:0:
448,192,84988,1,0,0:0:0:0:
320,192,85155,1,0,0:0:0:0:
192,192,85238,1,0,0:0:0:0:
320,192,85321,1,0,0:0:0:0:
448,192,85488,1,0,0:0:0:0:
320,192,85655,1,0,0:0:0:0:
64,192,85821,1,0,0:0:0:0:
192,192,85905,1,0,0:0:0:0:
448,192,85988,1,0,0:0:0:0:
320,192,86196,1,0,0:0:0:0:
320,192,86363,1,0,0:0:0:0:
192,192,86446,1,0,0:0:0:0:
192,192,86530,1,0,0:0:0:0:
448,192,86613,1,0,0:0:0:0:
64,192,86696,1,0,0:0:0:0:
64,192,86780,1,0,0:0:0:0:
320,192,86863,1,0,0:0:0:0:
64,192,87030,1,0,0:0:0:0:
192,192,87030,1,0,0:0:0:0:
320,192,87030,1,0,0:0:0:0:
448,192,87030,1,0,0:0:0:0:
64,192,87071,1,0,0:0:0:0:
192,192,87071,1,0,0:0:0:0:
320,192,87113,1,0,0:0:0:0:
448,192,87113,1,0,0:0:0:0:
64,192,87155,1,0,0:0:0:0:
192,192,87155,1,0,0:0:0:0:
320,192,87155,1,0,0:0:0:0:
448,192,87155,1,0,0:0:0:0:
64,192,87238,1,0,0:0:0:0:
192,192,87238,1,0,0:0:0:0:
320,192,87238,1,0,0:0:0:0:
448,192,87238,1,0,0:0:0:0:
192,192,87321,1,0,0:0:0:0:
64,192,87321,1,0,0:0:0:0:
320,192,87363,1,0,0:0:0:0:
448,192,87363,1,0,0:0:0:0:
64,192,87405,1,0,0:0:0:0:
192,192,87405,1,0,0:0:0:0:
320,192,87446,1,0,0:0:0:0:
448,192,87446,1,0,0:0:0:0:
192,192,87488,1,0,0:0:0:0:
64,192,87488,1,0,0:0:0:0:
320,192,87530,1,0,0:0:0:0:
448,192,87530,1,0,0:0:0:0:
64,192,87571,1,0,0:0:0:0:
192,192,87571,1,0,0:0:0:0:
320,192,87613,1,0,0:0:0:0:
448,192,87613,1,0,0:0:0:0:
64,192,87696,1,0,0:0:0:0:
192,192,87696,1,0,0:0:0:0:
320,192,87696,1,0,0:0:0:0:
448,192,87696,1,0,0:0:0:0:
320,192,88655,1,0,0:0:0:0:
192,192,88821,1,0,0:0:0:0:
64,192,89155,1,0,0:0:0:0:
320,192,89321,1,0,0:0:0:0:
192,192,89488,1,0,0:0:0:0:
448,192,89655,1,0,0:0:0:0:
320,192,89821,1,0,0:0:0:0:
64,192,89988,1,0,0:0:0:0:
448,192,90155,1,0,0:0:0:0:
64,192,90321,128,0,90988:0:0:0:0:
320,192,90863,1,0,0:0:0:0:
448,192,91030,128,0,91405:0:0:0:0:
192,192,91321,1,0,0:0:0:0:
320,192,91488,1,0,0:0:0:0:
64,192,91655,128,0,92196:0:0:0:0:
448,192,91821,1,0,0:0:0:0:
320,192,91988,1,0,0:0:0:0:
448,192,92196,1,0,0:0:0:0:
320,192,92321,128,0,92946:0:0:0:0:
192,192,92530,1,0,0:0:0:0:
448,192,92655,1,0,0:0:0:0:
64,192,92821,1,0,0:0:0:0:
64,192,92988,128,0,93613:0:0:0:0:
320,192,93321,1,0,0:0:0:0:
448,192,93488,1,0,0:0:0:0:
320,192,93655,128,0,94155:0:0:0:0:
192,192,93988,1,0,0:0:0:0:
448,192,94155,1,0,0:0:0:0:
192,192,94321,128,0,94946:0:0:0:0:
320,192,94488,1,0,0:0:0:0:
448,192,94655,1,0,0:0:0:0:
320,192,94821,1,0,0:0:0:0:
448,192,94988,1,0,0:0:0:0:
64,192,95155,128,0,95696:0:0:0:0:
320,192,95321,1,0,0:0:0:0:
320,192,95488,1,0,0:0:0:0:
320,192,95655,128,0,95988:0:0:0:0:
64,192,95988,128,0,96363:0:0:0:0:
320,192,96155,1,0,0:0:0:0:
448,192,96321,128,0,96905:0:0:0:0:
320,192,96488,128,0,96905:0:0:0:0:
192,192,96655,128,0,97071:0:0:0:0:
64,192,96821,1,0,0:0:0:0:
320,192,97030,128,0,97363:0:0:0:0:
64,192,97196,128,0,97696:0:0:0:0:
192,192,97363,128,0,97696:0:0:0:0:
320,192,97530,1,0,0:0:0:0:
448,192,97655,1,0,0:0:0:0:
192,192,97863,1,0,0:0:0:0:
320,192,97988,1,0,0:0:0:0:
192,192,98196,1,0,0:0:0:0:
64,192,98196,1,0,0:0:0:0:
320,192,98321,128,0,98696:0:0:0:0:
448,192,98363,128,0,98863:0:0:0:0:
64,192,98530,128,0,99155:0:0:0:0:
192,192,98696,128,0,99155:0:0:0:0:
320,192,98821,1,0,0:0:0:0:
448,192,98988,128,0,99488:0:0:0:0:
320,192,99155,1,0,0:0:0:0:
64,192,99321,128,0,99905:0:0:0:0:
192,192,99488,128,0,99905:0:0:0:0:
320,192,99655,1,0,0:0:0:0:
448,192,99821,128,0,100363:0:0:0:0:
320,192,99988,128,0,100363:0:0:0:0:
192,192,100155,128,0,100613:0:0:0:0:
64,192,100321,1,0,0:0:0:0:
320,192,100488,128,0,100905:0:0:0:0:
448,192,100821,128,0,101530:0:0:0:0:
320,192,101155,128,0,101530:0:0:0:0:
64,192,101488,128,0,101863:0:0:0:0:
320,192,101821,128,0,102196:0:0:0:0:
192,192,102196,1,0,0:0:0:0:
320,192,102488,1,0,0:0:0:0:
64,192,102655,1,0,0:0:0:0:
320,192,102821,1,0,0:0:0:0:
192,192,102988,1,0,0:0:0:0:
448,192,103155,1,0,0:0:0:0:
64,192,103321,1,0,0:0:0:0:
320,192,103488,1,0,0:0:0:0:
192,192,103655,1,0,0:0:0:0:
448,192,103863,1,0,0:0:0:0:
64,192,104030,1,0,0:0:0:0:
320,192,104196,1,0,0:0:0:0:
192,192,104363,1,0,0:0:0:0:
448,192,104530,1,0,0:0:0:0:
64,192,104655,1,0,0:0:0:0:
320,192,104821,1,0,0:0:0:0:
192,192,104988,1,0,0:0:0:0:
448,192,105155,128,0,105821:0:0:0:0:
320,192,105321,128,0,105738:0:0:0:0:
64,192,105488,128,0,106238:0:0:0:0:
192,192,105696,128,0,106238:0:0:0:0:
320,192,105821,1,0,0:0:0:0:
448,192,105988,128,0,106613:0:0:0:0:
320,192,106155,128,0,106488:0:0:0:0:
64,192,106321,128,0,106905:0:0:0:0:
192,192,106488,128,0,106905:0:0:0:0:
320,192,106655,1,0,0:0:0:0:
448,192,106821,128,0,107321:0:0:0:0:
320,192,107030,1,0,0:0:0:0:
64,192,107155,128,0,107655:0:0:0:0:
192,192,107321,128,0,107655:0:0:0:0:
320,192,107488,128,0,107946:0:0:0:0:
448,192,107655,1,0,0:0:0:0:
64,192,107821,128,0,108280:0:0:0:0:
192,192,108030,1,0,0:0:0:0:
320,192,108196,1,0,0:0:0:0:
320,192,108321,1,0,0:0:0:0:
192,192,108405,1,0,0:0:0:0:
320,192,108488,1,0,0:0:0:0:
192,192,108571,1,0,0:0:0:0:
320,192,108696,1,0,0:0:0:0:
192,192,108738,1,0,0:0:0:0:
320,192,108863,1,0,0:0:0:0:
192,192,108905,1,0,0:0:0:0:
448,192,108988,1,0,0:0:0:0:
320,192,108988,1,0,0:0:0:0:
448,192,109155,1,0,0:0:0:0:
320,192,109155,1,0,0:0:0:0:
64,192,109238,1,0,0:0:0:0:
192,192,109280,1,0,0:0:0:0:
320,192,109321,1,0,0:0:0:0:
320,192,109488,1,0,0:0:0:0:
64,192,109571,1,0,0:0:0:0:
192,192,109613,1,0,0:0:0:0:
448,192,109655,1,0,0:0:0:0:
320,192,109655,1,0,0:0:0:0:
64,192,109696,1,0,0:0:0:0:
192,192,109738,1,0,0:0:0:0:
320,192,109780,1,0,0:0:0:0:
64,192,109821,1,0,0:0:0:0:
448,192,109863,1,0,0:0:0:0:
192,192,109863,1,0,0:0:0:0:
448,192,109946,1,0,0:0:0:0:
320,192,109988,1,0,0:0:0:0:
64,192,109988,1,0,0:0:0:0:
192,192,110030,1,0,0:0:0:0:
320,192,110113,1,0,0:0:0:0:
448,192,110113,1,0,0:0:0:0:
64,192,110155,1,0,0:0:0:0:
192,192,110196,1,0,0:0:0:0:
448,192,110238,1,0,0:0:0:0:
320,192,110280,1,0,0:0:0:0:
64,192,110321,1,0,0:0:0:0:
192,192,110363,1,0,0:0:0:0:
448,192,110405,1,0,0:0:0:0:
320,192,110446,1,0,0:0:0:0:
64,192,110488,1,0,0:0:0:0:
448,192,110488,1,0,0:0:0:0:
192,192,110530,1,0,0:0:0:0:
448,192,110613,1,0,0:0:0:0:
320,192,110655,1,0,0:0:0:0:
64,192,110655,1,0,0:0:0:0:
192,192,110696,1,0,0:0:0:0:
320,192,110780,1,0,0:0:0:0:
448,192,110821,1,0,0:0:0:0:
64,192,110821,1,0,0:0:0:0:
192,192,110863,1,0,0:0:0:0:
448,192,110905,1,0,0:0:0:0:
320,192,110946,1,0,0:0:0:0:
64,192,110988,1,0,0:0:0:0:
192,192,111030,1,0,0:0:0:0:
320,192,111071,1,0,0:0:0:0:
448,192,111071,1,0,0:0:0:0:
64,192,111113,1,0,0:0:0:0:
192,192,111155,1,0,0:0:0:0:
448,192,111196,1,0,0:0:0:0:
320,192,111238,1,0,0:0:0:0:
64,192,111238,1,0,0:0:0:0:
192,192,111280,1,0,0:0:0:0:
320,192,111321,1,0,0:0:0:0:
64,192,111363,1,0,0:0:0:0:
192,192,111405,1,0,0:0:0:0:
320,192,111446,1,0,0:0:0:0:
64,192,111488,1,0,0:0:0:0:
192,192,111530,1,0,0:0:0:0:
320,192,111571,1,0,0:0:0:0:
64,192,111613,1,0,0:0:0:0:
192,192,111655,1,0,0:0:0:0:
448,192,111655,1,0,0:0:0:0:
320,192,111696,1,0,0:0:0:0:
64,192,111738,1,0,0:0:0:0:
192,192,111780,1,0,0:0:0:0:
448,192,111780,1,0,0:0:0:0:
320,192,111863,1,0,0:0:0:0:
64,192,111863,1,0,0:0:0:0:
448,192,111905,1,0,0:0:0:0:
192,192,111905,1,0,0:0:0:0:
320,192,111988,1,0,0:0:0:0:
448,192,112030,1,0,0:0:0:0:
64,192,112071,1,0,0:0:0:0:
320,192,112071,1,0,0:0:0:0:
192,192,112113,1,0,0:0:0:0:
448,192,112155,1,0,0:0:0:0:
64,192,112196,1,0,0:0:0:0:
320,192,112196,1,0,0:0:0:0:
192,192,112238,1,0,0:0:0:0:
320,192,112321,1,0,0:0:0:0:
448,192,112363,1,0,0:0:0:0:
64,192,112363,1,0,0:0:0:0:
192,192,112405,1,0,0:0:0:0:
320,192,112446,1,0,0:0:0:0:
448,192,112488,1,0,0:0:0:0:
64,192,112488,1,0,0:0:0:0:
192,192,112530,1,0,0:0:0:0:
320,192,112571,1,0,0:0:0:0:
448,192,112613,1,0,0:0:0:0:
64,192,112613,1,0,0:0:0:0:
192,192,112655,1,0,0:0:0:0:
320,192,112696,1,0,0:0:0:0:
448,192,112738,1,0,0:0:0:0:
64,192,112780,1,0,0:0:0:0:
192,192,112780,1,0,0:0:0:0:
448,192,112863,1,0,0:0:0:0:
64,192,112905,1,0,0:0:0:0:
320,192,112905,1,0,0:0:0:0:
192,192,112946,1,0,0:0:0:0:
320,192,112988,1,0,0:0:0:0:
64,192,113030,1,0,0:0:0:0:
448,192,113071,1,0,0:0:0:0:
192,192,113071,1,0,0:0:0:0:
448,192,113155,1,0,0:0:0:0:
320,192,113196,1,0,0:0:0:0:
64,192,113238,1,0,0:0:0:0:
192,192,113280,1,0,0:0:0:0:
320,192,113321,1,0,0:0:0:0:
448,192,113363,1,0,0:0:0:0:
64,192,113363,1,0,0:0:0:0:
192,192,113405,1,0,0:0:0:0:
320,192,113446,1,0,0:0:0:0:
448,192,113488,1,0,0:0:0:0:
64,192,113488,1,0,0:0:0:0:
192,192,113530,1,0,0:0:0:0:
320,192,113571,1,0,0:0:0:0:
448,192,113613,1,0,0:0:0:0:
64,192,113613,1,0,0:0:0:0:
192,192,113655,1,0,0:0:0:0:
320,192,113696,1,0,0:0:0:0:
448,192,113696,1,0,0:0:0:0:
64,192,113738,1,0,0:0:0:0:
192,192,113780,1,0,0:0:0:0:
448,192,113821,1,0,0:0:0:0:
64,192,113863,1,0,0:0:0:0:
320,192,113863,1,0,0:0:0:0:
192,192,113905,1,0,0:0:0:0:
320,192,113946,1,0,0:0:0:0:
448,192,113988,1,0,0:0:0:0:
64,192,113988,1,0,0:0:0:0:
192,192,114030,1,0,0:0:0:0:
448,192,114071,1,0,0:0:0:0:
64,192,114113,1,0,0:0:0:0:
320,192,114113,1,0,0:0:0:0:
192,192,114155,1,0,0:0:0:0:
320,192,114196,1,0,0:0:0:0:
448,192,114238,1,0,0:0:0:0:
64,192,114238,1,0,0:0:0:0:
192,192,114280,1,0,0:0:0:0:
448,192,114321,1,0,0:0:0:0:
320,192,114321,1,0,0:0:0:0:
64,192,114363,1,0,0:0:0:0:
192,192,114405,1,0,0:0:0:0:
448,192,114446,1,0,0:0:0:0:
320,192,114446,1,0,0:0:0:0:
64,192,114488,1,0,0:0:0:0:
192,192,114530,1,0,0:0:0:0:
448,192,114571,1,0,0:0:0:0:
64,192,114613,1,0,0:0:0:0:
320,192,114655,1,0,0:0:0:0:
192,192,114655,1,0,0:0:0:0:
448,192,114696,1,0,0:0:0:0:
320,192,114780,1,0,0:0:0:0:
64,192,114780,1,0,0:0:0:0:
192,192,114821,1,0,0:0:0:0:
448,192,114821,1,0,0:0:0:0:
320,192,114905,1,0,0:0:0:0:
448,192,114946,1,0,0:0:0:0:
64,192,114988,1,0,0:0:0:0:
320,192,114988,1,0,0:0:0:0:
192,192,115030,1,0,0:0:0:0:
448,192,115071,1,0,0:0:0:0:
64,192,115113,1,0,0:0:0:0:
320,192,115113,1,0,0:0:0:0:
192,192,115155,1,0,0:0:0:0:
448,192,115196,1,0,0:0:0:0:
64,192,115238,1,0,0:0:0:0:
320,192,115238,1,0,0:0:0:0:
192,192,115321,1,0,0:0:0:0:
320,192,115363,1,0,0:0:0:0:
192,192,115405,1,0,0:0:0:0:
320,192,115446,1,0,0:0:0:0:
192,192,115530,1,0,0:0:0:0:
320,192,115571,1,0,0:0:0:0:
64,192,115613,1,0,0:0:0:0:
448,192,115655,1,0,0:0:0:0:
64,192,115696,1,0,0:0:0:0:
320,192,115738,1,0,0:0:0:0:
192,192,115738,1,0,0:0:0:0:
448,192,115780,1,0,0:0:0:0:
64,192,115821,1,0,0:0:0:0:
320,192,115863,1,0,0:0:0:0:
192,192,115863,1,0,0:0:0:0:
448,192,115905,1,0,0:0:0:0:
64,192,115946,1,0,0:0:0:0:
320,192,115988,1,0,0:0:0:0:
192,192,115988,1,0,0:0:0:0:
448,192,116030,1,0,0:0:0:0:
320,192,116071,1,0,0:0:0:0:
64,192,116071,1,0,0:0:0:0:
448,192,116113,1,0,0:0:0:0:
192,192,116113,1,0,0:0:0:0:
448,192,116196,1,0,0:0:0:0:
320,192,116238,1,0,0:0:0:0:
64,192,116280,1,0,0:0:0:0:
192,192,116321,1,0,0:0:0:0:
320,192,116363,1,0,0:0:0:0:
448,192,116405,1,0,0:0:0:0:
64,192,116405,1,0,0:0:0:0:
192,192,116488,1,0,0:0:0:0:
448,192,116530,1,0,0:0:0:0:
320,192,116571,1,0,0:0:0:0:
64,192,116571,1,0,0:0:0:0:
192,192,116613,1,0,0:0:0:0:
320,192,116655,1,0,0:0:0:0:
448,192,116696,1,0,0:0:0:0:
64,192,116738,1,0,0:0:0:0:
192,192,116780,1,0,0:0:0:0:
448,192,116821,1,0,0:0:0:0:
64,192,116863,1,0,0:0:0:0:
320,192,116863,1,0,0:0:0:0:
192,192,116905,1,0,0:0:0:0:
320,192,116988,1,0,0:0:0:0:
448,192,116988,1,0,0:0:0:0:
64,192,117030,1,0,0:0:0:0:
192,192,117071,1,0,0:0:0:0:
448,192,117113,1,0,0:0:0:0:
320,192,117196,1,0,0:0:0:0:
64,192,117196,1,0,0:0:0:0:
192,192,117238,1,0,0:0:0:0:
320,192,117280,1,0,0:0:0:0:
448,192,117321,1,0,0:0:0:0:
64,192,117363,1,0,0:0:0:0:
192,192,117405,1,0,0:0:0:0:
448,192,117446,1,0,0:0:0:0:
320,192,117488,1,0,0:0:0:0:
64,192,117530,1,0,0:0:0:0:
192,192,117571,1,0,0:0:0:0:
320,192,117613,1,0,0:0:0:0:
448,192,117655,1,0,0:0:0:0:
64,192,117696,1,0,0:0:0:0:
192,192,117738,1,0,0:0:0:0:
448,192,117780,1,0,0:0:0:0:
320,192,117821,1,0,0:0:0:0:
64,192,117863,1,0,0:0:0:0:
192,192,117905,1,0,0:0:0:0:
320,192,117946,1,0,0:0:0:0:
448,192,117988,1,0,0:0:0:0:
64,192,118030,1,0,0:0:0:0:
192,192,118071,1,0,0:0:0:0:
448,192,118113,1,0,0:0:0:0:
320,192,118155,1,0,0:0:0:0:
64,192,118196,1,0,0:0:0:0:
192,192,118238,1,0,0:0:0:0:
320,192,118280,1,0,0:0:0:0:
448,192,118321,1,0,0:0:0:0:
64,192,118363,1,0,0:0:0:0:
192,192,118405,1,0,0:0:0:0:
448,192,118446,1,0,0:0:0:0:
320,192,118488,1,0,0:0:0:0:
64,192,118530,1,0,0:0:0:0:
192,192,118571,1,0,0:0:0:0:
320,192,118613,1,0,0:0:0:0:
448,192,118655,1,0,0:0:0:0:
64,192,118696,1,0,0:0:0:0:
192,192,118738,1,0,0:0:0:0:
448,192,118780,1,0,0:0:0:0:
320,192,118821,1,0,0:0:0:0:
64,192,118821,1,0,0:0:0:0:
192,192,118863,1,0,0:0:0:0:
320,192,118946,1,0,0:0:0:0:
64,192,119030,1,0,0:0:0:0:
192,192,119030,1,0,0:0:0:0:
320,192,119155,1,0,0:0:0:0:
64,192,119196,1,0,0:0:0:0:
192,192,119238,1,0,0:0:0:0:
320,192,119280,1,0,0:0:0:0:
64,192,119321,1,0,0:0:0:0:
192,192,119363,1,0,0:0:0:0:
448,192,119363,1,0,0:0:0:0:
320,192,119405,1,0,0:0:0:0:
64,192,119446,1,0,0:0:0:0:
192,192,119488,1,0,0:0:0:0:
448,192,119488,1,0,0:0:0:0:
320,192,119530,1,0,0:0:0:0:
64,192,119571,1,0,0:0:0:0:
448,192,119613,1,0,0:0:0:0:
192,192,119613,1,0,0:0:0:0:
320,192,119655,1,0,0:0:0:0:
448,192,119821,1,0,0:0:0:0:
448,192,119946,1,0,0:0:0:0:
320,192,120030,1,0,0:0:0:0:
64,192,120030,1,0,0:0:0:0:
192,192,120071,1,0,0:0:0:0:
448,192,120113,1,0,0:0:0:0:
320,192,120155,1,0,0:0:0:0:
64,192,120196,1,0,0:0:0:0:
192,192,120238,1,0,0:0:0:0:
448,192,120280,1,0,0:0:0:0:
320,192,120321,1,0,0:0:0:0:
64,192,120363,1,0,0:0:0:0:
192,192,120405,1,0,0:0:0:0:
448,192,120446,1,0,0:0:0:0:
320,192,120488,1,0,0:0:0:0:
64,192,120530,1,0,0:0:0:0:
192,192,120571,1,0,0:0:0:0:
448,192,120571,1,0,0:0:0:0:
320,192,120655,1,0,0:0:0:0:
448,192,120696,1,0,0:0:0:0:
320,192,120738,1,0,0:0:0:0:
448,192,120821,1,0,0:0:0:0:
192,192,120863,1,0,0:0:0:0:
320,192,120863,1,0,0:0:0:0:
448,192,120946,1,0,0:0:0:0:
64,192,120946,1,0,0:0:0:0:
192,192,120988,1,0,0:0:0:0:
448,192,121071,1,0,0:0:0:0:
320,192,121113,1,0,0:0:0:0:
64,192,121155,1,0,0:0:0:0:
192,192,121196,1,0,0:0:0:0:
448,192,121238,1,0,0:0:0:0:
64,192,121321,1,0,0:0:0:0:
320,192,121321,1,0,0:0:0:0:
192,192,121321,1,0,0:0:0:0:
320,192,121405,1,0,0:0:0:0:
448,192,121446,1,0,0:0:0:0:
64,192,121446,1,0,0:0:0:0:
192,192,121488,1,0,0:0:0:0:
448,192,121530,1,0,0:0:0:0:
320,192,121613,1,0,0:0:0:0:
64,192,121613,1,0,0:0:0:0:
192,192,121655,1,0,0:0:0:0:
320,192,121696,1,0,0:0:0:0:
64,192,121738,1,0,0:0:0:0:
448,192,121780,1,0,0:0:0:0:
192,192,121821,1,0,0:0:0:0:
448,192,121863,1,0,0:0:0:0:
64,192,121905,1,0,0:0:0:0:
320,192,121905,1,0,0:0:0:0:
192,192,121988,1,0,0:0:0:0:
448,192,121988,1,0,0:0:0:0:
320,192,122030,1,0,0:0:0:0:
64,192,122071,1,0,0:0:0:0:
448,192,122113,1,0,0:0:0:0:
192,192,122113,1,0,0:0:0:0:
320,192,122155,1,0,0:0:0:0:
64,192,122196,1,0,0:0:0:0:
192,192,122238,1,0,0:0:0:0:
448,192,122280,1,0,0:0:0:0:
320,192,122321,1,0,0:0:0:0:
64,192,122363,1,0,0:0:0:0:
192,192,122405,1,0,0:0:0:0:
320,192,122446,1,0,0:0:0:0:
64,192,122488,1,0,0:0:0:0:
192,192,122530,1,0,0:0:0:0:
320,192,122613,1,0,0:0:0:0:
64,192,122613,1,0,0:0:0:0:
192,192,122655,1,0,0:0:0:0:
448,192,122696,1,0,0:0:0:0:
320,192,122780,1,0,0:0:0:0:
64,192,122780,1,0,0:0:0:0:
192,192,122821,1,0,0:0:0:0:
320,192,122863,1,0,0:0:0:0:
448,192,122905,1,0,0:0:0:0:
64,192,122905,1,0,0:0:0:0:
192,192,122988,1,0,0:0:0:0:
448,192,122988,1,0,0:0:0:0:
320,192,123030,1,0,0:0:0:0:
64,192,123071,1,0,0:0:0:0:
192,192,123113,1,0,0:0:0:0:
320,192,123155,1,0,0:0:0:0:
448,192,123196,1,0,0:0:0:0:
64,192,123238,1,0,0:0:0:0:
192,192,123280,1,0,0:0:0:0:
448,192,123321,1,0,0:0:0:0:
320,192,123321,1,0,0:0:0:0:
64,192,123363,1,0,0:0:0:0:
192,192,123405,1,0,0:0:0:0:
320,192,123446,1,0,0:0:0:0:
64,192,123530,1,0,0:0:0:0:
192,192,123530,1,0,0:0:0:0:
320,192,123613,1,0,0:0:0:0:
64,192,123655,1,0,0:0:0:0:
192,192,123696,1,0,0:0:0:0:
320,192,123738,1,0,0:0:0:0:
64,192,123780,1,0,0:0:0:0:
192,192,123821,1,0,0:0:0:0:
320,192,123905,1,0,0:0:0:0:
64,192,123946,1,0,0:0:0:0:
192,192,123988,1,0,0:0:0:0:
320,192,124030,1,0,0:0:0:0:
64,192,124113,1,0,0:0:0:0:
192,192,124113,1,0,0:0:0:0:
320,192,124196,1,0,0:0:0:0:
64,192,124238,1,0,0:0:0:0:
192,192,124238,1,0,0:0:0:0:
320,192,124321,1,0,0:0:0:0:
192,192,124405,1,0,0:0:0:0:
320,192,124488,1,0,0:0:0:0:
64,192,124488,1,0,0:0:0:0:
192,192,124530,1,0,0:0:0:0:
320,192,124613,1,0,0:0:0:0:
64,192,124655,1,0,0:0:0:0:
192,192,124655,1,0,0:0:0:0:
320,192,124738,1,0,0:0:0:0:
64,192,124780,1,0,0:0:0:0:
192,192,124821,1,0,0:0:0:0:
320,192,124863,1,0,0:0:0:0:
64,192,124905,1,0,0:0:0:0:
192,192,124946,1,0,0:0:0:0:
448,192,124988,1,0,0:0:0:0:
320,192,125030,1,0,0:0:0:0:
64,192,125030,1,0,0:0:0:0:
192,192,125071,1,0,0:0:0:0:
320,192,125113,1,0,0:0:0:0:
448,192,125155,1,0,0:0:0:0:
64,192,125196,1,0,0:0:0:0:
192,192,125196,1,0,0:0:0:0:
448,192,125238,1,0,0:0:0:0:
320,192,125280,1,0,0:0:0:0:
64,192,125321,1,0,0:0:0:0:
192,192,125363,1,0,0:0:0:0:
320,192,125405,1,0,0:0:0:0:
448,192,125446,1,0,0:0:0:0:
64,192,125488,1,0,0:0:0:0:
192,192,125488,1,0,0:0:0:0:
448,192,125530,1,0,0:0:0:0:
320,192,125571,1,0,0:0:0:0:
64,192,125613,1,0,0:0:0:0:
192,192,125613,1,0,0:0:0:0:
320,192,125696,1,0,0:0:0:0:
64,192,125738,1,0,0:0:0:0:
448,192,125738,1,0,0:0:0:0:
192,192,125780,1,0,0:0:0:0:
320,192,125821,1,0,0:0:0:0:
64,192,125863,1,0,0:0:0:0:
448,192,125863,1,0,0:0:0:0:
192,192,125905,1,0,0:0:0:0:
320,192,125905,1,0,0:0:0:0:
448,192,125946,1,0,0:0:0:0:
64,192,126071,1,0,0:0:0:0:
192,192,126113,1,0,0:0:0:0:
448,192,126155,1,0,0:0:0:0:
64,192,126238,1,0,0:0:0:0:
320,192,126321,1,0,0:0:0:0:
64,192,126405,1,0,0:0:0:0:
192,192,126405,1,0,0:0:0:0:
320,192,126488,1,0,0:0:0:0:
64,192,126530,1,0,0:0:0:0:
192,192,126571,1,0,0:0:0:0:
448,192,126613,1,0,0:0:0:0:
320,192,126655,1,0,0:0:0:0:
64,192,126696,1,0,0:0:0:0:
192,192,126738,1,0,0:0:0:0:
320,192,126780,1,0,0:0:0:0:
448,192,126821,1,0,0:0:0:0:
64,192,126821,1,0,0:0:0:0:
192,192,126863,1,0,0:0:0:0:
448,192,126905,1,0,0:0:0:0:
320,192,126988,1,0,0:0:0:0:
64,192,126988,1,0,0:0:0:0:
192,192,127030,1,0,0:0:0:0:
320,192,127071,1,0,0:0:0:0:
448,192,127113,1,0,0:0:0:0:
64,192,127113,1,0,0:0:0:0:
192,192,127155,1,0,0:0:0:0:
448,192,127238,1,0,0:0:0:0:
320,192,127280,1,0,0:0:0:0:
64,192,127280,1,0,0:0:0:0:
192,192,127321,1,0,0:0:0:0:
320,192,127363,1,0,0:0:0:0:
448,192,127405,1,0,0:0:0:0:
64,192,127446,1,0,0:0:0:0:
192,192,127488,1,0,0:0:0:0:
320,192,127530,1,0,0:0:0:0:
448,192,127530,1,0,0:0:0:0:
64,192,127571,1,0,0:0:0:0:
192,192,127613,1,0,0:0:0:0:
448,192,127696,1,0,0:0:0:0:
320,192,127696,1,0,0:0:0:0:
64,192,127696,1,0,0:0:0:0:
192,192,127738,1,0,0:0:0:0:
448,192,127821,1,0,0:0:0:0:
64,192,127821,1,0,0:0:0:0:
320,192,127863,1,0,0:0:0:0:
192,192,127863,1,0,0:0:0:0:
64,192,127988,1,0,0:0:0:0:
448,192,127988,1,0,0:0:0:0:
64,192,128071,1,0,0:0:0:0:
192,192,128071,1,0,0:0:0:0:
320,192,128155,1,0,0:0:0:0:
64,192,128196,1,0,0:0:0:0:
192,192,128238,1,0,0:0:0:0:
64,192,128321,1,0,0:0:0:0:
320,192,128363,1,0,0:0:0:0:
192,192,128363,1,0,0:0:0:0:
64,192,128446,1,0,0:0:0:0:
192,192,128488,1,0,0:0:0:0:
320,192,128530,1,0,0:0:0:0:
64,192,128571,1,0,0:0:0:0:
192,192,128613,1,0,0:0:0:0:
320,192,128696,1,0,0:0:0:0:
64,192,128696,1,0,0:0:0:0:
192,192,128738,1,0,0:0:0:0:
64,192,128821,1,0,0:0:0:0:
192,192,128863,1,0,0:0:0:0:
320,192,128863,1,0,0:0:0:0:
64,192,128946,1,0,0:0:0:0:
192,192,128946,1,0,0:0:0:0:
448,192,128988,1,0,0:0:0:0:
320,192,129030,1,0,0:0:0:0:
64,192,129071,1,0,0:0:0:0:
192,192,129113,1,0,0:0:0:0:
320,192,129155,1,0,0:0:0:0:
448,192,129196,1,0,0:0:0:0:
64,192,129196,1,0,0:0:0:0:
192,192,129238,1,0,0:0:0:0:
448,192,129280,1,0,0:0:0:0:
320,192,129321,1,0,0:0:0:0:
64,192,129363,1,0,0:0:0:0:
192,192,129405,1,0,0:0:0:0:
320,192,129446,1,0,0:0:0:0:
448,192,129488,1,0,0:0:0:0:
64,192,129488,1,0,0:0:0:0:
192,192,129530,1,0,0:0:0:0:
448,192,129613,1,0,0:0:0:0:
64,192,129655,1,0,0:0:0:0:
320,192,129655,1,0,0:0:0:0:
192,192,129696,1,0,0:0:0:0:
320,192,129738,1,0,0:0:0:0:
64,192,129780,1,0,0:0:0:0:
448,192,129780,1,0,0:0:0:0:
192,192,129821,1,0,0:0:0:0:
448,192,129905,1,0,0:0:0:0:
320,192,129946,1,0,0:0:0:0:
64,192,129946,1,0,0:0:0:0:
192,192,129988,1,0,0:0:0:0:
448,192,130030,1,0,0:0:0:0:
320,192,130071,1,0,0:0:0:0:
64,192,130071,1,0,0:0:0:0:
192,192,130113,1,0,0:0:0:0:
448,192,130155,1,0,0:0:0:0:
320,192,130238,1,0,0:0:0:0:
192,192,130238,1,0,0:0:0:0:
64,192,130238,1,0,0:0:0:0:
448,192,130280,1,0,0:0:0:0:
64,192,130321,1,0,0:0:0:0:
320,192,130363,1,0,0:0:0:0:
192,192,130363,1,0,0:0:0:0:
64,192,130446,1,0,0:0:0:0:
192,192,130488,1,0,0:0:0:0:
320,192,130488,1,0,0:0:0:0:
64,192,130530,1,0,0:0:0:0:
192,192,130571,1,0,0:0:0:0:
64,192,130655,1,0,0:0:0:0:
320,192,130655,1,0,0:0:0:0:
192,192,130696,1,0,0:0:0:0:
320,192,130780,1,0,0:0:0:0:
192,192,130821,1,0,0:0:0:0:
320,192,130863,1,0,0:0:0:0:
64,192,130905,1,0,0:0:0:0:
192,192,130946,1,0,0:0:0:0:
448,192,130988,1,0,0:0:0:0:
64,192,131030,1,0,0:0:0:0:
192,192,131030,1,0,0:0:0:0:
448,192,131071,1,0,0:0:0:0:
64,192,131113,1,0,0:0:0:0:
192,192,131113,1,0,0:0:0:0:
192,192,131238,1,0,0:0:0:0:
64,192,131238,1,0,0:0:0:0:
192,192,131321,1,0,0:0:0:0:
64,192,131321,1,0,0:0:0:0:
320,192,131363,1,0,0:0:0:0:
64,192,131446,1,0,0:0:0:0:
320,192,131488,1,0,0:0:0:0:
192,192,131488,1,0,0:0:0:0:
64,192,131530,1,0,0:0:0:0:
192,192,131571,1,0,0:0:0:0:
448,192,131613,1,0,0:0:0:0:
320,192,131655,1,0,0:0:0:0:
64,192,131696,1,0,0:0:0:0:
192,192,131738,1,0,0:0:0:0:
320,192,131780,1,0,0:0:0:0:
448,192,131821,1,0,0:0:0:0:
64,192,131821,1,0,0:0:0:0:
192,192,131863,1,0,0:0:0:0:
448,192,131946,1,0,0:0:0:0:
320,192,131988,1,0,0:0:0:0:
64,192,131988,1,0,0:0:0:0:
192,192,132071,1,0,0:0:0:0:
448,192,132071,1,0,0:0:0:0:
320,192,132113,1,0,0:0:0:0:
64,192,132113,1,0,0:0:0:0:
192,192,132155,1,0,0:0:0:0:
320,192,132238,1,0,0:0:0:0:
64,192,132238,1,0,0:0:0:0:
192,192,132280,1,0,0:0:0:0:
320,192,132321,1,0,0:0:0:0:
64,192,132363,1,0,0:0:0:0:
192,192,132405,1,0,0:0:0:0:
448,192,132446,1,0,0:0:0:0:
64,192,132530,1,0,0:0:0:0:
320,192,132530,1,0,0:0:0:0:
192,192,132571,1,0,0:0:0:0:
320,192,132613,1,0,0:0:0:0:
448,192,132655,1,0,0:0:0:0:
64,192,132696,1,0,0:0:0:0:
192,192,132738,1,0,0:0:0:0:
448,192,132780,1,0,0:0:0:0:
320,192,132821,1,0,0:0:0:0:
64,192,132821,1,0,0:0:0:0:
192,192,132863,1,0,0:0:0:0:
448,192,132946,1,0,0:0:0:0:
320,192,132946,1,0,0:0:0:0:
192,192,133030,1,0,0:0:0:0:
64,192,133030,1,0,0:0:0:0:
448,192,133113,1,0,0:0:0:0:
64,192,133155,1,0,0:0:0:0:
448,192,133238,1,0,0:0:0:0:
64,192,133280,1,0,0:0:0:0:
320,192,133363,1,0,0:0:0:0:
64,192,133405,1,0,0:0:0:0:
192,192,133446,1,0,0:0:0:0:
448,192,133488,1,0,0:0:0:0:
320,192,133530,1,0,0:0:0:0:
64,192,133530,1,0,0:0:0:0:
192,192,133613,1,0,0:0:0:0:
320,192,133655,1,0,0:0:0:0:
448,192,133696,1,0,0:0:0:0:
64,192,133696,1,0,0:0:0:0:
192,192,133738,1,0,0:0:0:0:
448,192,133780,1,0,0:0:0:0:
320,192,133821,1,0,0:0:0:0:
64,192,133863,1,0,0:0:0:0:
320,192,133946,1,0,0:0:0:0:
320,192,134030,1,0,0:0:0:0:
192,192,134113,1,0,0:0:0:0:
192,192,134196,1,0,0:0:0:0:
448,192,134196,1,0,0:0:0:0:
320,192,134238,1,0,0:0:0:0:
64,192,134321,1,0,0:0:0:0:
448,192,134321,1,0,0:0:0:0:
192,192,134363,1,0,0:0:0:0:
320,192,134363,1,0,0:0:0:0:
448,192,134405,1,0,0:0:0:0:
64,192,134446,1,0,0:0:0:0:
192,192,134488,1,0,0:0:0:0:
320,192,134488,1,0,0:0:0:0:
320,192,134613,1,0,0:0:0:0:
192,192,134613,1,0,0:0:0:0:
448,192,134696,1,0,0:0:0:0:
64,192,134696,1,0,0:0:0:0:
320,192,134738,1,0,0:0:0:0:
192,192,134780,1,0,0:0:0:0:
448,192,134821,1,0,0:0:0:0:
64,192,134863,1,0,0:0:0:0:
320,192,134863,1,0,0:0:0:0:
192,192,134863,1,0,0:0:0:0:
448,192,134946,1,0,0:0:0:0:
64,192,134946,1,0,0:0:0:0:
320,192,134988,1,0,0:0:0:0:
192,192,134988,1,0,0:0:0:0:
448,192,135071,1,0,0:0:0:0:
320,192,135113,1,0,0:0:0:0:
192,192,135113,1,0,0:0:0:0:
448,192,135155,1,0,0:0:0:0:
64,192,135196,1,0,0:0:0:0:
320,192,135238,1,0,0:0:0:0:
192,192,135238,1,0,0:0:0:0:
448,192,135280,1,0,0:0:0:0:
320,192,135321,1,0,0:0:0:0:
64,192,135363,1,0,0:0:0:0:
192,192,135405,1,0,0:0:0:0:
320,192,135446,1,0,0:0:0:0:
448,192,135446,1,0,0:0:0:0:
64,192,135488,1,0,0:0:0:0:
64,192,135571,1,0,0:0:0:0:
320,192,135655,1,0,0:0:0:0:
64,192,135696,1,0,0:0:0:0:
320,192,135738,1,0,0:0:0:0:
64,192,135780,1,0,0:0:0:0:
448,192,135863,1,0,0:0:0:0:
192,192,135905,1,0,0:0:0:0:
448,192,135946,1,0,0:0:0:0:
192,192,135988,1,0,0:0:0:0:
320,192,136071,1,0,0:0:0:0:
64,192,136113,1,0,0:0:0:0:
448,192,136155,1,0,0:0:0:0:
192,192,136196,1,0,0:0:0:0:
320,192,136238,1,0,0:0:0:0:
64,192,136238,1,0,0:0:0:0:
448,192,136280,1,0,0:0:0:0:
192,192,136321,1,0,0:0:0:0:
320,192,136321,1,0,0:0:0:0:
64,192,136405,1,0,0:0:0:0:
448,192,136405,1,0,0:0:0:0:
192,192,136446,1,0,0:0:0:0:
320,192,136446,1,0,0:0:0:0:
64,192,136488,1,0,0:0:0:0:
448,192,136488,1,0,0:0:0:0:
192,192,136571,1,0,0:0:0:0:
320,192,136613,1,0,0:0:0:0:
64,192,136655,1,0,0:0:0:0:
192,192,136696,1,0,0:0:0:0:
320,192,136738,1,0,0:0:0:0:
64,192,136780,1,0,0:0:0:0:
448,192,136780,1,0,0:0:0:0:
192,192,136821,1,0,0:0:0:0:
320,192,136863,1,0,0:0:0:0:
64,192,136905,1,0,0:0:0:0:
448,192,136946,1,0,0:0:0:0:
192,192,136946,1,0,0:0:0:0:
320,192,136988,1,0,0:0:0:0:
448,192,137030,1,0,0:0:0:0:
64,192,137071,1,0,0:0:0:0:
320,192,137113,1,0,0:0:0:0:
192,192,137113,1,0,0:0:0:0:
448,192,137155,1,0,0:0:0:0:
64,192,137196,1,0,0:0:0:0:
320,192,137196,1,0,0:0:0:0:
192,192,137238,1,0,0:0:0:0:
448,192,137280,1,0,0:0:0:0:
64,192,137321,1,0,0:0:0:0:
320,192,137321,1,0,0:0:0:0:
192,192,137363,1,0,0:0:0:0:
320,192,137446,1,0,0:0:0:0:
64,192,137488,1,0,0:0:0:0:
192,192,137530,1,0,0:0:0:0:
320,192,137571,1,0,0:0:0:0:
64,192,137613,1,0,0:0:0:0:
192,192,137655,1,0,0:0:0:0:
64,192,137738,1,0,0:0:0:0:
192,192,137780,1,0,0:0:0:0:
448,192,137780,1,0,0:0:0:0:
320,192,137863,1,0,0:0:0:0:
64,192,137905,1,0,0:0:0:0:
448,192,137905,1,0,0:0:0:0:
192,192,137988,1,0,0:0:0:0:
320,192,137988,1,0,0:0:0:0:
448,192,138030,1,0,0:0:0:0:
64,192,138030,1,0,0:0:0:0:
192,192,138071,1,0,0:0:0:0:
320,192,138071,1,0,0:0:0:0:
448,192,138155,1,0,0:0:0:0:
64,192,138155,1,0,0:0:0:0:
320,192,138196,1,0,0:0:0:0:
448,192,138238,1,0,0:0:0:0:
64,192,138280,1,0,0:0:0:0:
320,192,138321,1,0,0:0:0:0:
192,192,138321,1,0,0:0:0:0:
448,192,138363,1,0,0:0:0:0:
64,192,138405,1,0,0:0:0:0:
320,192,138446,1,0,0:0:0:0:
192,192,138446,1,0,0:0:0:0:
64,192,138530,1,0,0:0:0:0:
320,192,138530,1,0,0:0:0:0:
192,192,138571,1,0,0:0:0:0:
320,192,138655,1,0,0:0:0:0:
64,192,138655,1,0,0:0:0:0:
192,192,138738,1,0,0:0:0:0:
448,192,138738,1,0,0:0:0:0:
320,192,138780,1,0,0:0:0:0:
64,192,138780,1,0,0:0:0:0:
192,192,138821,1,0,0:0:0:0:
448,192,138863,1,0,0:0:0:0:
64,192,138905,1,0,0:0:0:0:
320,192,138905,1,0,0:0:0:0:
192,192,138946,1,0,0:0:0:0:
448,192,138946,1,0,0:0:0:0:
320,192,139030,1,0,0:0:0:0:
64,192,139030,1,0,0:0:0:0:
448,192,139071,1,0,0:0:0:0:
192,192,139071,1,0,0:0:0:0:
320,192,139113,1,0,0:0:0:0:
64,192,139155,1,0,0:0:0:0:
192,192,139196,1,0,0:0:0:0:
320,192,139238,1,0,0:0:0:0:
64,192,139280,1,0,0:0:0:0:
448,192,139280,1,0,0:0:0:0:
192,192,139321,1,0,0:0:0:0:
320,192,139363,1,0,0:0:0:0:
64,192,139405,1,0,0:0:0:0:
448,192,139405,1,0,0:0:0:0:
192,192,139488,1,0,0:0:0:0:
320,192,139488,1,0,0:0:0:0:
448,192,139530,1,0,0:0:0:0:
64,192,139571,1,0,0:0:0:0:
192,192,139613,1,0,0:0:0:0:
320,192,139613,1,0,0:0:0:0:
448,192,139696,1,0,0:0:0:0:
64,192,139696,1,0,0:0:0:0:
192,192,139738,1,0,0:0:0:0:
320,192,139738,1,0,0:0:0:0:
448,192,139780,1,0,0:0:0:0:
64,192,139821,1,0,0:0:0:0:
192,192,139863,1,0,0:0:0:0:
320,192,139863,1,0,0:0:0:0:
64,192,139905,1,0,0:0:0:0:
448,192,139905,1,0,0:0:0:0:
192,192,139946,1,0,0:0:0:0:
448,192,140030,1,0,0:0:0:0:
64,192,140030,1,0,0:0:0:0:
192,192,140071,1,0,0:0:0:0:
448,192,140071,1,0,0:0:0:0:
64,192,140113,1,0,0:0:0:0:
320,192,140113,1,0,0:0:0:0:
192,192,140155,1,0,0:0:0:0:
64,192,140238,1,0,0:0:0:0:
448,192,140238,1,0,0:0:0:0:
192,192,140280,1,0,0:0:0:0:
64,192,140321,1,0,0:0:0:0:
192,192,140363,1,0,0:0:0:0:
448,192,140405,1,0,0:0:0:0:
320,192,140446,1,0,0:0:0:0:
64,192,140446,1,0,0:0:0:0:
192,192,140488,1,0,0:0:0:0:
448,192,140530,1,0,0:0:0:0:
64,192,140571,1,0,0:0:0:0:
448,192,140613,1,0,0:0:0:0:
192,192,140613,1,0,0:0:0:0:
320,192,140655,1,0,0:0:0:0:
64,192,140696,1,0,0:0:0:0:
448,192,140696,1,0,0:0:0:0:
192,192,140780,1,0,0:0:0:0:
320,192,140780,1,0,0:0:0:0:
64,192,140821,1,0,0:0:0:0:
448,192,140821,1,0,0:0:0:0:
192,192,140863,1,0,0:0:0:0:
320,192,140905,1,0,0:0:0:0:
64,192,140946,1,0,0:0:0:0:
192,192,140946,1,0,0:0:0:0:
448,192,140988,1,0,0:0:0:0:
320,192,140988,1,0,0:0:0:0:
64,192,141071,1,0,0:0:0:0:
192,192,141113,1,0,0:0:0:0:
320,192,141155,1,0,0:0:0:0:
64,192,141196,1,0,0:0:0:0:
192,192,141238,1,0,0:0:0:0:
320,192,141321,1,0,0:0:0:0:
64,192,141321,1,0,0:0:0:0:
192,192,141363,1,0,0:0:0:0:
448,192,141363,1,0,0:0:0:0:
320,192,141446,1,0,0:0:0:0:
64,192,141446,1,0,0:0:0:0:
448,192,141488,1,0,0:0:0:0:
192,192,141488,1,0,0:0:0:0:
320,192,141571,1,0,0:0:0:0:
64,192,141613,1,0,0:0:0:0:
448,192,141613,1,0,0:0:0:0:
192,192,141613,1,0,0:0:0:0:
320,192,141655,1,0,0:0:0:0:
64,192,141738,1,0,0:0:0:0:
192,192,141780,1,0,0:0:0:0:
320,192,141821,1,0,0:0:0:0:
64,192,141863,1,0,0:0:0:0:
192,192,141905,1,0,0:0:0:0:
320,192,141946,1,0,0:0:0:0:
64,192,141988,1,0,0:0:0:0:
192,192,142030,1,0,0:0:0:0:
320,192,142071,1,0,0:0:0:0:
64,192,142113,1,0,0:0:0:0:
192,192,142155,1,0,0:0:0:0:
320,192,142196,1,0,0:0:0:0:
64,192,142238,1,0,0:0:0:0:
192,192,142280,1,0,0:0:0:0:
448,192,142280,1,0,0:0:0:0:
320,192,142321,1,0,0:0:0:0:
64,192,142363,1,0,0:0:0:0:
192,192,142405,1,0,0:0:0:0:
448,192,142405,1,0,0:0:0:0:
320,192,142446,1,0,0:0:0:0:
448,192,142488,1,0,0:0:0:0:
320,192,142571,1,0,0:0:0:0:
64,192,142571,1,0,0:0:0:0:
192,192,142655,1,0,0:0:0:0:
320,192,142696,1,0,0:0:0:0:
64,192,142738,1,0,0:0:0:0:
192,192,142780,1,0,0:0:0:0:
320,192,142780,1,0,0:0:0:0:
64,192,142863,1,0,0:0:0:0:
448,192,142863,1,0,0:0:0:0:
320,192,142946,1,0,0:0:0:0:
448,192,142988,1,0,0:0:0:0:
320,192,143071,1,0,0:0:0:0:
448,192,143113,1,0,0:0:0:0:
64,192,143113,1,0,0:0:0:0:
192,192,143155,1,0,0:0:0:0:
448,192,143238,1,0,0:0:0:0:
320,192,143238,1,0,0:0:0:0:
64,192,143238,1,0,0:0:0:0:
192,192,143280,1,0,0:0:0:0:
320,192,143321,1,0,0:0:0:0:
448,192,143363,1,0,0:0:0:0:
192,192,143405,1,0,0:0:0:0:
448,192,143446,1,0,0:0:0:0:
192,192,143488,1,0,0:0:0:0:
320,192,143530,1,0,0:0:0:0:
448,192,143571,1,0,0:0:0:0:
320,192,143613,1,0,0:0:0:0:
192,192,143655,1,0,0:0:0:0:
448,192,143696,1,0,0:0:0:0:
320,192,143738,1,0,0:0:0:0:
192,192,143780,1,0,0:0:0:0:
448,192,143821,1,0,0:0:0:0:
320,192,143863,1,0,0:0:0:0:
192,192,143863,1,0,0:0:0:0:
448,192,143905,1,0,0:0:0:0:
320,192,143946,1,0,0:0:0:0:
64,192,143988,1,0,0:0:0:0:
192,192,144071,1,0,0:0:0:0:
320,192,144071,1,0,0:0:0:0:
64,192,144155,1,0,0:0:0:0:
192,192,144155,1,0,0:0:0:0:
320,192,144196,1,0,0:0:0:0:
64,192,144238,1,0,0:0:0:0:
192,192,144280,1,0,0:0:0:0:
448,192,144280,1,0,0:0:0:0:
320,192,144363,1,0,0:0:0:0:
64,192,144363,1,0,0:0:0:0:
448,192,144405,1,0,0:0:0:0:
192,192,144446,1,0,0:0:0:0:
320,192,144488,1,0,0:0:0:0:
64,192,144488,1,0,0:0:0:0:
448,192,144530,1,0,0:0:0:0:
192,192,144571,1,0,0:0:0:0:
320,192,144571,1,0,0:0:0:0:
448,192,144655,1,0,0:0:0:0:
320,192,144696,1,0,0:0:0:0:
64,192,144696,1,0,0:0:0:0:
192,192,144738,1,0,0:0:0:0:
448,192,144738,1,0,0:0:0:0:
320,192,144821,1,0,0:0:0:0:
64,192,144821,1,0,0:0:0:0:
192,192,144863,1,0,0:0:0:0:
320,192,144946,1,0,0:0:0:0:
64,192,144946,1,0,0:0:0:0:
192,192,145030,1,0,0:0:0:0:
320,192,145071,1,0,0:0:0:0:
64,192,145113,1,0,0:0:0:0:
192,192,145155,1,0,0:0:0:0:
320,192,145155,1,0,0:0:0:0:
64,192,145238,1,0,0:0:0:0:
192,192,145280,1,0,0:0:0:0:
448,192,145321,1,0,0:0:0:0:
320,192,145363,1,0,0:0:0:0:
64,192,145363,1,0,0:0:0:0:
192,192,145405,1,0,0:0:0:0:
448,192,145405,1,0,0:0:0:0:
320,192,145488,1,0,0:0:0:0:
64,192,145488,1,0,0:0:0:0:
192,192,145530,1,0,0:0:0:0:
448,192,145530,1,0,0:0:0:0:
320,192,145571,1,0,0:0:0:0:
64,192,145613,1,0,0:0:0:0:
448,192,145655,1,0,0:0:0:0:
192,192,145696,1,0,0:0:0:0:
320,192,145696,1,0,0:0:0:0:
64,192,145780,1,0,0:0:0:0:
448,192,145780,1,0,0:0:0:0:
192,192,145821,1,0,0:0:0:0:
320,192,145821,1,0,0:0:0:0:
64,192,145863,1,0,0:0:0:0:
448,192,145905,1,0,0:0:0:0:
192,192,145946,1,0,0:0:0:0:
320,192,145946,1,0,0:0:0:0:
64,192,145988,1,0,0:0:0:0:
448,192,146030,1,0,0:0:0:0:
192,192,146030,1,0,0:0:0:0:
320,192,146071,1,0,0:0:0:0:
448,192,146113,1,0,0:0:0:0:
192,192,146155,1,0,0:0:0:0:
320,192,146196,1,0,0:0:0:0:
64,192,146196,1,0,0:0:0:0:
448,192,146238,1,0,0:0:0:0:
192,192,146238,1,0,0:0:0:0:
64,192,146321,1,0,0:0:0:0:
320,192,146363,1,0,0:0:0:0:
64,192,146405,1,0,0:0:0:0:
192,192,146488,1,0,0:0:0:0:
320,192,146488,1,0,0:0:0:0:
64,192,146530,1,0,0:0:0:0:
192,192,146571,1,0,0:0:0:0:
448,192,146613,1,0,0:0:0:0:
64,192,146655,1,0,0:0:0:0:
192,192,146696,1,0,0:0:0:0:
64,192,146780,1,0,0:0:0:0:
192,192,146821,1,0,0:0:0:0:
320,192,146821,1,0,0:0:0:0:
64,192,146863,1,0,0:0:0:0:
192,192,146905,1,0,0:0:0:0:
64,192,146988,1,0,0:0:0:0:
448,192,146988,1,0,0:0:0:0:
192,192,147030,1,0,0:0:0:0:
64,192,147113,1,0,0:0:0:0:
320,192,147155,1,0,0:0:0:0:
192,192,147280,1,0,0:0:0:0:
448,192,147321,1,0,0:0:0:0:
192,192,147405,1,0,0:0:0:0:
448,192,147446,1,0,0:0:0:0:
320,192,147530,1,0,0:0:0:0:
192,192,147530,1,0,0:0:0:0:
64,192,147613,1,0,0:0:0:0:
448,192,147613,1,0,0:0:0:0:
192,192,147696,1,0,0:0:0:0:
320,192,147696,1,0,0:0:0:0:
448,192,147738,1,0,0:0:0:0:
64,192,147780,1,0,0:0:0:0:
320,192,147821,1,0,0:0:0:0:
192,192,147863,1,0,0:0:0:0:
448,192,147863,1,0,0:0:0:0:
320,192,147946,1,0,0:0:0:0:
64,192,147946,1,0,0:0:0:0:
448,192,147988,1,0,0:0:0:0:
192,192,147988,1,0,0:0:0:0:
320,192,148030,1,0,0:0:0:0:
64,192,148071,1,0,0:0:0:0:
448,192,148113,1,0,0:0:0:0:
192,192,148113,1,0,0:0:0:0:
320,192,148155,1,0,0:0:0:0:
64,192,148238,1,0,0:0:0:0:
192,192,148238,1,0,0:0:0:0:
320,192,148280,1,0,0:0:0:0:
192,192,148363,1,0,0:0:0:0:
320,192,148405,1,0,0:0:0:0:
192,192,148446,1,0,0:0:0:0:
320,192,148488,1,0,0:0:0:0:
192,192,148530,1,0,0:0:0:0:
320,192,148571,1,0,0:0:0:0:
192,192,148613,1,0,0:0:0:0:
320,192,148655,1,0,0:0:0:0:
192,192,148738,1,0,0:0:0:0:
320,192,148780,1,0,0:0:0:0:
192,192,148821,1,0,0:0:0:0:
320,192,148863,1,0,0:0:0:0:
192,192,148905,1,0,0:0:0:0:
448,192,148988,1,0,0:0:0:0:
64,192,149030,1,0,0:0:0:0:
320,192,149071,1,0,0:0:0:0:
192,192,149071,1,0,0:0:0:0:
448,192,149113,1,0,0:0:0:0:
64,192,149155,1,0,0:0:0:0:
320,192,149196,1,0,0:0:0:0:
192,192,149196,1,0,0:0:0:0:
448,192,149238,1,0,0:0:0:0:
64,192,149280,1,0,0:0:0:0:
320,192,149321,1,0,0:0:0:0:
192,192,149321,1,0,0:0:0:0:
448,192,149363,1,0,0:0:0:0:
64,192,149405,1,0,0:0:0:0:
192,192,149446,1,0,0:0:0:0:
320,192,149446,1,0,0:0:0:0:
64,192,149530,1,0,0:0:0:0:
192,192,149530,1,0,0:0:0:0:
320,192,149613,1,0,0:0:0:0:
64,192,149613,1,0,0:0:0:0:
192,192,149655,1,0,0:0:0:0:
320,192,149738,1,0,0:0:0:0:
64,192,149738,1,0,0:0:0:0:
192,192,149780,1,0,0:0:0:0:
320,192,149821,1,0,0:0:0:0:
64,192,149863,1,0,0:0:0:0:
192,192,149905,1,0,0:0:0:0:
448,192,149946,1,0,0:0:0:0:
64,192,149988,1,0,0:0:0:0:
320,192,150030,1,0,0:0:0:0:
192,192,150030,1,0,0:0:0:0:
448,192,150071,1,0,0:0:0:0:
64,192,150113,1,0,0:0:0:0:
192,192,150155,1,0,0:0:0:0:
320,192,150155,1,0,0:0:0:0:
448,192,150196,1,0,0:0:0:0:
64,192,150196,1,0,0:0:0:0:
192,192,150238,1,0,0:0:0:0:
320,192,150280,1,0,0:0:0:0:
64,192,150321,1,0,0:0:0:0:
192,192,150363,1,0,0:0:0:0:
320,192,150363,1,0,0:0:0:0:
448,192,150446,1,0,0:0:0:0:
64,192,150446,1,0,0:0:0:0:
192,192,150488,1,0,0:0:0:0:
320,192,150530,1,0,0:0:0:0:
448,192,150571,1,0,0:0:0:0:
64,192,150571,1,0,0:0:0:0:
320,192,150613,1,0,0:0:0:0:
192,192,150655,1,0,0:0:0:0:
448,192,150696,1,0,0:0:0:0:
320,192,150738,1,0,0:0:0:0:
64,192,150780,1,0,0:0:0:0:
192,192,150821,1,0,0:0:0:0:
64,192,150946,1,0,0:0:0:0:
192,192,150946,1,0,0:0:0:0:
320,192,151030,1,0,0:0:0:0:
64,192,151071,1,0,0:0:0:0:
192,192,151071,1,0,0:0:0:0:
320,192,151113,1,0,0:0:0:0:
192,192,151155,1,0,0:0:0:0:
64,192,151155,1,0,0:0:0:0:
320,192,151196,1,0,0:0:0:0:
64,192,151280,1,0,0:0:0:0:
192,192,151280,1,0,0:0:0:0:
320,192,151280,1,0,0:0:0:0:
64,192,151363,1,0,0:0:0:0:
192,192,151363,1,0,0:0:0:0:
320,192,151405,1,0,0:0:0:0:
64,192,151446,1,0,0:0:0:0:
192,192,151446,1,0,0:0:0:0:
320,192,151488,1,0,0:0:0:0:
192,192,151571,1,0,0:0:0:0:
64,192,151571,1,0,0:0:0:0:
320,192,151571,1,0,0:0:0:0:
192,192,151655,1,0,0:0:0:0:
64,192,151655,1,0,0:0:0:0:
320,192,152363,1,0,0:0:0:0:
192,192,152488,1,0,0:0:0:0:
448,192,152655,1,0,0:0:0:0:
64,192,152821,1,0,0:0:0:0:
320,192,152988,1,0,0:0:0:0:
64,192,153321,1,0,0:0:0:0:
192,192,153321,1,0,0:0:0:0:
64,192,153488,1,0,0:0:0:0:
192,192,153488,1,0,0:0:0:0:
320,192,153655,1,0,0:0:0:0:
192,192,153946,1,0,0:0:0:0:
64,192,153946,1,0,0:0:0:0:
448,192,154363,1,0,0:0:0:0:
320,192,154530,1,0,0:0:0:0:
192,192,154655,1,0,0:0:0:0:
192,192,154821,1,0,0:0:0:0:
320,192,155030,1,0,0:0:0:0:
448,192,155196,1,0,0:0:0:0:
64,192,155321,1,0,0:0:0:0:
192,192,155488,1,0,0:0:0:0:
320,192,155655,1,0,0:0:0:0:
448,192,155988,1,0,0:0:0:0:
64,192,156155,1,0,0:0:0:0:
192,192,156321,1,0,0:0:0:0:
320,192,156488,1,0,0:0:0:0:
448,192,156655,1,0,0:0:0:0:
64,192,156863,1,0,0:0:0:0:
64,192,157030,128,0,157863:0:0:0:0:
320,192,157238,128,0,157613:0:0:0:0:
448,192,157363,128,0,157863:0:0:0:0:
192,192,157530,128,0,157863:0:0:0:0:
320,192,157696,1,0,0:0:0:0:
192,192,158030,1,0,0:0:0:0:
320,192,158196,1,0,0:0:0:0:
64,192,158321,128,0,158655:0:0:0:0:
320,192,158655,1,0,0:0:0:0:
192,192,158821,1,0,0:0:0:0:
320,192,158988,128,0,159321:0:0:0:0:
192,192,159321,1,0,0:0:0:0:
320,192,159488,1,0,0:0:0:0:
64,192,159655,1,0,0:0:0:0:
320,192,159821,1,0,0:0:0:0:
192,192,159988,1,0,0:0:0:0:
448,192,160155,1,0,0:0:0:0:
320,192,160321,1,0,0:0:0:0:
192,192,160488,1,0,0:0:0:0:
320,192,160655,1,0,0:0:0:0:
64,192,160863,1,0,0:0:0:0:
448,192,161030,1,0,0:0:0:0:
320,192,161155,1,0,0:0:0:0:
192,192,161321,1,0,0:0:0:0:
320,192,161488,1,0,0:0:0:0:
192,192,161655,1,0,0:0:0:0:
320,192,161821,1,0,0:0:0:0:
192,192,161988,1,0,0:0:0:0:
320,192,162155,1,0,0:0:0:0:
192,192,162321,1,0,0:0:0:0:
320,192,162530,1,0,0:0:0:0:
320,192,162613,1,0,0:0:0:0:
192,192,162696,1,0,0:0:0:0:
320,192,162863,1,0,0:0:0:0:
320,192,162946,1,0,0:0:0:0:
192,192,163030,1,0,0:0:0:0:
320,192,163196,1,0,0:0:0:0:
320,192,163238,1,0,0:0:0:0:
192,192,163321,1,0,0:0:0:0:
320,192,163488,1,0,0:0:0:0:
64,192,163655,1,0,0:0:0:0:
192,192,163821,1,0,0:0:0:0:
192,192,163905,1,0,0:0:0:0:
448,192,163988,1,0,0:0:0:0:
320,192,164155,1,0,0:0:0:0:
192,192,164321,1,0,0:0:0:0:
448,192,164488,1,0,0:0:0:0:
448,192,164571,1,0,0:0:0:0:
320,192,164613,1,0,0:0:0:0:
448,192,164821,1,0,0:0:0:0:
320,192,164863,1,0,0:0:0:0:
64,192,164905,1,0,0:0:0:0:
192,192,164946,1,0,0:0:0:0:
448,192,164988,1,0,0:0:0:0:
320,192,165030,1,0,0:0:0:0:
320,192,165155,1,0,0:0:0:0:
64,192,165238,1,0,0:0:0:0:
192,192,165280,1,0,0:0:0:0:
320,192,165321,1,0,0:0:0:0:
64,192,165363,1,0,0:0:0:0:
192,192,165405,1,0,0:0:0:0:
448,192,165446,1,0,0:0:0:0:
320,192,165488,1,0,0:0:0:0:
64,192,165530,1,0,0:0:0:0:
192,192,165571,1,0,0:0:0:0:
320,192,165613,1,0,0:0:0:0:
448,192,165821,1,0,0:0:0:0:
320,192,165905,1,0,0:0:0:0:
64,192,165905,1,0,0:0:0:0:
448,192,165946,1,0,0:0:0:0:
192,192,165946,1,0,0:0:0:0:
320,192,166030,1,0,0:0:0:0:
448,192,166071,1,0,0:0:0:0:
320,192,166113,1,0,0:0:0:0:
64,192,166155,1,0,0:0:0:0:
448,192,166155,1,0,0:0:0:0:
192,192,166196,1,0,0:0:0:0:
320,192,166238,1,0,0:0:0:0:
64,192,166280,1,0,0:0:0:0:
448,192,166321,1,0,0:0:0:0:
192,192,166321,1,0,0:0:0:0:
320,192,166363,1,0,0:0:0:0:
64,192,166571,1,0,0:0:0:0:
192,192,166613,1,0,0:0:0:0:
320,192,166655,1,0,0:0:0:0:
64,192,166696,1,0,0:0:0:0:
192,192,166738,1,0,0:0:0:0:
320,192,166780,1,0,0:0:0:0:
64,192,166821,1,0,0:0:0:0:
192,192,166863,1,0,0:0:0:0:
320,192,166905,1,0,0:0:0:0:
64,192,166905,1,0,0:0:0:0:
192,192,166946,1,0,0:0:0:0:
320,192,166988,1,0,0:0:0:0:
448,192,167196,1,0,0:0:0:0:
320,192,167238,1,0,0:0:0:0:
64,192,167238,1,0,0:0:0:0:
192,192,167280,1,0,0:0:0:0:
448,192,167321,1,0,0:0:0:0:
320,192,167530,1,0,0:0:0:0:
64,192,167571,1,0,0:0:0:0:
192,192,167613,1,0,0:0:0:0:
320,192,167655,1,0,0:0:0:0:
320,192,167821,1,0,0:0:0:0:
192,192,167988,1,0,0:0:0:0:
448,192,168155,1,0,0:0:0:0:
320,192,168321,1,0,0:0:0:0:
64,192,168405,1,0,0:0:0:0:
192,192,168488,1,0,0:0:0:0:
448,192,168571,1,0,0:0:0:0:
320,192,168696,1,0,0:0:0:0:
64,192,168780,1,0,0:0:0:0:
192,192,168863,1,0,0:0:0:0:
448,192,168905,1,0,0:0:0:0:
320,192,169030,1,0,0:0:0:0:
448,192,169196,1,0,0:0:0:0:
320,192,169238,1,0,0:0:0:0:
64,192,169280,1,0,0:0:0:0:
192,192,169321,1,0,0:0:0:0:
448,192,169363,1,0,0:0:0:0:
320,192,169363,1,0,0:0:0:0:
448,192,169530,1,0,0:0:0:0:
448,192,169655,1,0,0:0:0:0:
320,192,169696,1,0,0:0:0:0:
64,192,169738,1,0,0:0:0:0:
192,192,169780,1,0,0:0:0:0:
448,192,169780,1,0,0:0:0:0:
320,192,169821,1,0,0:0:0:0:
64,192,169863,1,0,0:0:0:0:
448,192,169905,1,0,0:0:0:0:
192,192,169905,1,0,0:0:0:0:
320,192,169946,1,0,0:0:0:0:
64,192,169988,1,0,0:0:0:0:
192,192,169988,1,0,0:0:0:0:
320,192,170155,1,0,0:0:0:0:
64,192,170196,1,0,0:0:0:0:
192,192,170238,1,0,0:0:0:0:
320,192,170280,1,0,0:0:0:0:
64,192,170321,1,0,0:0:0:0:
192,192,170363,1,0,0:0:0:0:
320,192,170405,1,0,0:0:0:0:
64,192,170446,1,0,0:0:0:0:
192,192,170488,1,0,0:0:0:0:
448,192,170530,1,0,0:0:0:0:
320,192,170571,1,0,0:0:0:0:
64,192,170571,1,0,0:0:0:0:
192,192,170655,1,0,0:0:0:0:
320,192,170655,1,0,0:0:0:0:
448,192,170696,1,0,0:0:0:0:
64,192,170738,1,0,0:0:0:0:
192,192,170780,1,0,0:0:0:0:
448,192,170821,1,0,0:0:0:0:
320,192,170821,1,0,0:0:0:0:
64,192,170863,1,0,0:0:0:0:
192,192,170863,1,0,0:0:0:0:
320,192,170905,1,0,0:0:0:0:
448,192,170946,1,0,0:0:0:0:
64,192,170946,1,0,0:0:0:0:
192,192,170988,1,0,0:0:0:0:
448,192,171030,1,0,0:0:0:0:
448,192,171196,1,0,0:0:0:0:
320,192,171196,1,0,0:0:0:0:
64,192,171238,1,0,0:0:0:0:
192,192,171238,1,0,0:0:0:0:
320,192,171321,1,0,0:0:0:0:
448,192,171321,1,0,0:0:0:0:
64,192,171363,1,0,0:0:0:0:
192,192,171363,1,0,0:0:0:0:
320,192,171446,1,0,0:0:0:0:
448,192,171446,1,0,0:0:0:0:
64,192,171655,1,0,0:0:0:0:
192,192,171696,1,0,0:0:0:0:
320,192,171738,1,0,0:0:0:0:
448,192,171780,1,0,0:0:0:0:
192,192,171780,1,0,0:0:0:0:
320,192,171821,1,0,0:0:0:0:
64,192,171863,1,0,0:0:0:0:
320,192,171946,1,0,0:0:0:0:
192,192,171946,1,0,0:0:0:0:
448,192,171988,1,0,0:0:0:0:
64,192,171988,1,0,0:0:0:0:
192,192,172030,1,0,0:0:0:0:
448,192,172071,1,0,0:0:0:0:
320,192,172113,1,0,0:0:0:0:
64,192,172113,1,0,0:0:0:0:
192,192,172155,1,0,0:0:0:0:
448,192,172196,1,0,0:0:0:0:
320,192,172196,1,0,0:0:0:0:
64,192,172196,1,0,0:0:0:0:
192,192,172280,1,0,0:0:0:0:
320,192,172280,1,0,0:0:0:0:
64,192,172321,1,0,0:0:0:0:
448,192,172321,1,0,0:0:0:0:
192,192,172363,1,0,0:0:0:0:
320,192,172405,1,0,0:0:0:0:
448,192,172446,1,0,0:0:0:0:
64,192,172446,1,0,0:0:0:0:
192,192,172488,1,0,0:0:0:0:
320,192,172530,1,0,0:0:0:0:
448,192,172571,1,0,0:0:0:0:
64,192,172571,1,0,0:0:0:0:
192,192,172613,1,0,0:0:0:0:
320,192,172613,1,0,0:0:0:0:
448,192,172821,1,0,0:0:0:0:
320,192,172821,1,0,0:0:0:0:
64,192,172863,1,0,0:0:0:0:
192,192,172905,1,0,0:0:0:0:
320,192,172988,1,0,0:0:0:0:
64,192,172988,1,0,0:0:0:0:
192,192,173030,1,0,0:0:0:0:
320,192,173071,1,0,0:0:0:0:
64,192,173113,1,0,0:0:0:0:
192,192,173155,1,0,0:0:0:0:
448,192,173196,1,0,0:0:0:0:
64,192,173196,1,0,0:0:0:0:
192,192,173280,1,0,0:0:0:0:
320,192,173280,1,0,0:0:0:0:
448,192,173321,1,0,0:0:0:0:
64,192,173321,1,0,0:0:0:0:
192,192,173363,1,0,0:0:0:0:
320,192,173405,1,0,0:0:0:0:
64,192,173446,1,0,0:0:0:0:
448,192,173446,1,0,0:0:0:0:
192,192,173488,1,0,0:0:0:0:
320,192,173488,1,0,0:0:0:0:
64,192,173530,1,0,0:0:0:0:
448,192,173530,1,0,0:0:0:0:
192,192,173571,1,0,0:0:0:0:
320,192,173613,1,0,0:0:0:0:
448,192,173613,1,0,0:0:0:0:
64,192,173655,1,0,0:0:0:0:
192,192,173696,1,0,0:0:0:0:
448,192,173780,1,0,0:0:0:0:
320,192,173780,1,0,0:0:0:0:
64,192,173780,1,0,0:0:0:0:
448,192,173863,1,0,0:0:0:0:
320,192,173905,1,0,0:0:0:0:
64,192,173905,1,0,0:0:0:0:
64,192,174280,1,0,0:0:0:0:
192,192,174363,1,0,0:0:0:0:
320,192,174363,1,0,0:0:0:0:
448,192,174405,1,0,0:0:0:0:
192,192,174446,1,0,0:0:0:0:
320,192,174446,1,0,0:0:0:0:
64,192,174530,1,0,0:0:0:0:
192,192,174571,1,0,0:0:0:0:
320,192,174571,1,0,0:0:0:0:
448,192,174613,1,0,0:0:0:0:
64,192,174655,1,0,0:0:0:0:
192,192,174655,1,0,0:0:0:0:
320,192,174696,1,0,0:0:0:0:
64,192,174738,1,0,0:0:0:0:
320,192,174780,1,0,0:0:0:0:
192,192,174780,1,0,0:0:0:0:
448,192,174821,1,0,0:0:0:0:
64,192,174863,1,0,0:0:0:0:
192,192,174905,1,0,0:0:0:0:
320,192,174905,1,0,0:0:0:0:
64,192,174946,1,0,0:0:0:0:
448,192,174988,1,0,0:0:0:0:
192,192,174988,1,0,0:0:0:0:
320,192,175071,1,0,0:0:0:0:
64,192,175071,1,0,0:0:0:0:
192,192,175113,1,0,0:0:0:0:
448,192,175113,1,0,0:0:0:0:
64,192,175196,1,0,0:0:0:0:
448,192,175196,1,0,0:0:0:0:
192,192,175238,1,0,0:0:0:0:
320,192,175238,1,0,0:0:0:0:
64,192,175280,1,0,0:0:0:0:
448,192,175280,1,0,0:0:0:0:
192,192,175363,1,0,0:0:0:0:
320,192,175363,1,0,0:0:0:0:
64,192,175405,1,0,0:0:0:0:
448,192,175405,1,0,0:0:0:0:
192,192,175446,1,0,0:0:0:0:
64,192,175530,1,0,0:0:0:0:
448,192,175530,1,0,0:0:0:0:
192,192,175571,1,0,0:0:0:0:
320,192,175613,1,0,0:0:0:0:
64,192,175655,1,0,0:0:0:0:
448,192,175655,1,0,0:0:0:0:
192,192,175655,1,0,0:0:0:0:
64,192,175738,1,0,0:0:0:0:
192,192,175780,1,0,0:0:0:0:
448,192,175821,1,0,0:0:0:0:
64,192,175821,1,0,0:0:0:0:
192,192,175863,1,0,0:0:0:0:
320,192,175905,1,0,0:0:0:0:
64,192,175905,1,0,0:0:0:0:
192,192,175946,1,0,0:0:0:0:
320,192,175988,1,0,0:0:0:0:
64,192,176030,1,0,0:0:0:0:
448,192,176030,1,0,0:0:0:0:
192,192,176071,1,0,0:0:0:0:
64,192,176155,1,0,0:0:0:0:
320,192,176155,1,0,0:0:0:0:
192,192,176196,1,0,0:0:0:0:
448,192,176196,1,0,0:0:0:0:
64,192,176238,1,0,0:0:0:0:
320,192,176280,1,0,0:0:0:0:
192,192,176280,1,0,0:0:0:0:
448,192,176321,1,0,0:0:0:0:
64,192,176363,1,0,0:0:0:0:
320,192,176363,1,0,0:0:0:0:
192,192,176405,1,0,0:0:0:0:
320,192,176446,1,0,0:0:0:0:
64,192,176488,1,0,0:0:0:0:
448,192,176488,1,0,0:0:0:0:
192,192,176530,1,0,0:0:0:0:
320,192,176530,1,0,0:0:0:0:
64,192,176571,1,0,0:0:0:0:
448,192,176613,1,0,0:0:0:0:
192,192,176613,1,0,0:0:0:0:
320,192,176655,1,0,0:0:0:0:
64,192,176696,1,0,0:0:0:0:
448,192,176738,1,0,0:0:0:0:
192,192,176738,1,0,0:0:0:0:
320,192,176780,1,0,0:0:0:0:
448,192,176821,1,0,0:0:0:0:
64,192,176821,1,0,0:0:0:0:
192,192,176905,1,0,0:0:0:0:
320,192,176905,1,0,0:0:0:0:
448,192,176946,1,0,0:0:0:0:
64,192,176988,1,0,0:0:0:0:
320,192,176988,1,0,0:0:0:0:
192,192,177030,1,0,0:0:0:0:
448,192,177030,1,0,0:0:0:0:
320,192,177113,1,0,0:0:0:0:
64,192,177113,1,0,0:0:0:0:
192,192,177155,1,0,0:0:0:0:
448,192,177196,1,0,0:0:0:0:
64,192,177238,1,0,0:0:0:0:
320,192,177238,1,0,0:0:0:0:
192,192,177280,1,0,0:0:0:0:
448,192,177321,1,0,0:0:0:0:
64,192,177321,1,0,0:0:0:0:
320,192,177363,1,0,0:0:0:0:
192,192,177405,1,0,0:0:0:0:
448,192,177405,1,0,0:0:0:0:
64,192,177446,1,0,0:0:0:0:
320,192,177488,1,0,0:0:0:0:
192,192,177488,1,0,0:0:0:0:
448,192,177530,1,0,0:0:0:0:
64,192,177571,1,0,0:0:0:0:
320,192,177571,1,0,0:0:0:0:
192,192,177613,1,0,0:0:0:0:
448,192,177613,1,0,0:0:0:0:
64,192,177655,1,0,0:0:0:0:
192,192,177696,1,0,0:0:0:0:
320,192,177696,1,0,0:0:0:0:
64,192,177780,1,0,0:0:0:0:
448,192,177780,1,0,0:0:0:0:
192,192,177821,1,0,0:0:0:0:
320,192,177821,1,0,0:0:0:0:
64,192,177863,1,0,0:0:0:0:
448,192,177863,1,0,0:0:0:0:
192,192,177905,1,0,0:0:0:0:
64,192,177988,1,0,0:0:0:0:
192,192,178030,1,0,0:0:0:0:
448,192,178030,1,0,0:0:0:0:
64,192,178071,1,0,0:0:0:0:
320,192,178113,1,0,0:0:0:0:
192,192,178113,1,0,0:0:0:0:
448,192,178155,1,0,0:0:0:0:
64,192,178196,1,0,0:0:0:0:
192,192,178238,1,0,0:0:0:0:
320,192,178280,1,0,0:0:0:0:
64,192,178280,1,0,0:0:0:0:
448,192,178321,1,0,0:0:0:0:
192,192,178321,1,0,0:0:0:0:
320,192,178363,1,0,0:0:0:0:
64,192,178405,1,0,0:0:0:0:
448,192,178405,1,0,0:0:0:0:
192,192,178446,1,0,0:0:0:0:
320,192,178488,1,0,0:0:0:0:
64,192,178488,1,0,0:0:0:0:
448,192,178530,1,0,0:0:0:0:
192,192,178571,1,0,0:0:0:0:
320,192,178571,1,0,0:0:0:0:
64,192,178613,1,0,0:0:0:0:
448,192,178613,1,0,0:0:0:0:
192,192,178655,1,0,0:0:0:0:
320,192,178655,1,0,0:0:0:0:
448,192,178738,1,0,0:0:0:0:
64,192,178738,1,0,0:0:0:0:
192,192,178780,1,0,0:0:0:0:
448,192,178821,1,0,0:0:0:0:
64,192,178821,1,0,0:0:0:0:
192,192,178863,1,0,0:0:0:0:
320,192,178863,1,0,0:0:0:0:
64,192,178905,1,0,0:0:0:0:
448,192,178905,1,0,0:0:0:0:
192,192,178988,1,0,0:0:0:0:
320,192,178988,1,0,0:0:0:0:
448,192,179030,1,0,0:0:0:0:
64,192,179030,1,0,0:0:0:0:
320,192,179071,1,0,0:0:0:0:
192,192,179071,1,0,0:0:0:0:
448,192,179113,1,0,0:0:0:0:
64,192,179113,1,0,0:0:0:0:
192,192,179196,1,0,0:0:0:0:
448,192,179238,1,0,0:0:0:0:
64,192,179238,1,0,0:0:0:0:
192,192,179280,1,0,0:0:0:0:
320,192,179280,1,0,0:0:0:0:
448,192,179321,1,0,0:0:0:0:
64,192,179363,1,0,0:0:0:0:
192,192,179405,1,0,0:0:0:0:
320,192,179405,1,0,0:0:0:0:
64,192,179488,1,0,0:0:0:0:
320,192,179488,1,0,0:0:0:0:
192,192,179530,1,0,0:0:0:0:
448,192,179530,1,0,0:0:0:0:
64,192,179613,1,0,0:0:0:0:
320,192,179613,1,0,0:0:0:0:
192,192,179655,1,0,0:0:0:0:
448,192,179655,1,0,0:0:0:0:
64,192,179696,1,0,0:0:0:0:
320,192,179696,1,0,0:0:0:0:
192,192,179780,1,0,0:0:0:0:
448,192,179780,1,0,0:0:0:0:
64,192,179821,1,0,0:0:0:0:
192,192,179863,1,0,0:0:0:0:
320,192,179863,1,0,0:0:0:0:
64,192,179946,1,0,0:0:0:0:
448,192,179946,1,0,0:0:0:0:
192,192,179988,1,0,0:0:0:0:
320,192,179988,1,0,0:0:0:0:
64,192,180030,1,0,0:0:0:0:
448,192,180071,1,0,0:0:0:0:
192,192,180113,1,0,0:0:0:0:
64,192,180155,1,0,0:0:0:0:
448,192,180155,1,0,0:0:0:0:
192,192,180196,1,0,0:0:0:0:
320,192,180238,1,0,0:0:0:0:
64,192,180238,1,0,0:0:0:0:
448,192,180280,1,0,0:0:0:0:
192,192,180321,1,0,0:0:0:0:
320,192,180321,1,0,0:0:0:0:
64,192,180363,1,0,0:0:0:0:
192,192,180405,1,0,0:0:0:0:
448,192,180405,1,0,0:0:0:0:
320,192,180446,1,0,0:0:0:0:
64,192,180488,1,0,0:0:0:0:
192,192,180530,1,0,0:0:0:0:
320,192,180571,1,0,0:0:0:0:
448,192,180613,1,0,0:0:0:0:
64,192,180613,1,0,0:0:0:0:
192,192,180655,1,0,0:0:0:0:
320,192,180696,1,0,0:0:0:0:
64,192,180738,1,0,0:0:0:0:
192,192,180780,1,0,0:0:0:0:
320,192,180780,1,0,0:0:0:0:
448,192,180821,1,0,0:0:0:0:
64,192,180863,1,0,0:0:0:0:
192,192,180905,1,0,0:0:0:0:
320,192,180946,1,0,0:0:0:0:
64,192,180988,1,0,0:0:0:0:
192,192,181030,1,0,0:0:0:0:
320,192,181030,1,0,0:0:0:0:
448,192,181071,1,0,0:0:0:0:
64,192,181071,1,0,0:0:0:0:
320,192,181113,1,0,0:0:0:0:
192,192,181155,1,0,0:0:0:0:
448,192,181196,1,0,0:0:0:0:
64,192,181196,1,0,0:0:0:0:
320,192,181238,1,0,0:0:0:0:
192,192,181238,1,0,0:0:0:0:
448,192,181321,1,0,0:0:0:0:
64,192,181321,1,0,0:0:0:0:
192,192,181363,1,0,0:0:0:0:
320,192,181405,1,0,0:0:0:0:
64,192,181446,1,0,0:0:0:0:
448,192,181446,1,0,0:0:0:0:
192,192,181488,1,0,0:0:0:0:
320,192,181530,1,0,0:0:0:0:
64,192,181571,1,0,0:0:0:0:
448,192,181571,1,0,0:0:0:0:
192,192,181613,1,0,0:0:0:0:
320,192,181613,1,0,0:0:0:0:
448,192,181821,1,0,0:0:0:0:
320,192,181905,1,0,0:0:0:0:
192,192,181946,1,0,0:0:0:0:
64,192,181988,1,0,0:0:0:0:
448,192,182030,1,0,0:0:0:0:
320,192,182196,1,0,0:0:0:0:
448,192,182196,1,0,0:0:0:0:
64,192,182363,1,0,0:0:0:0:
192,192,182405,1,0,0:0:0:0:
320,192,182530,1,0,0:0:0:0:
448,192,182571,1,0,0:0:0:0:
320,192,182655,1,0,0:0:0:0:
192,192,182738,1,0,0:0:0:0:
64,192,182946,1,0,0:0:0:0:
192,192,183030,1,0,0:0:0:0:
320,192,183113,1,0,0:0:0:0:
448,192,183196,1,0,0:0:0:0:
320,192,183280,1,0,0:0:0:0:
192,192,183321,1,0,0:0:0:0:
64,192,183405,1,0,0:0:0:0:
192,192,183488,1,0,0:0:0:0:
320,192,183530,1,0,0:0:0:0:
448,192,183530,1,0,0:0:0:0:
64,192,183655,1,0,0:0:0:0:
192,192,183696,1,0,0:0:0:0:
320,192,183738,1,0,0:0:0:0:
64,192,183738,1,0,0:0:0:0:
448,192,183780,1,0,0:0:0:0:
192,192,183821,1,0,0:0:0:0:
320,192,183863,1,0,0:0:0:0:
64,192,183863,1,0,0:0:0:0:
448,192,183905,1,0,0:0:0:0:
192,192,183946,1,0,0:0:0:0:
320,192,183946,1,0,0:0:0:0:
64,192,183988,1,0,0:0:0:0:
448,192,184030,1,0,0:0:0:0:
192,192,184071,1,0,0:0:0:0:
320,192,184071,1,0,0:0:0:0:
64,192,184113,1,0,0:0:0:0:
448,192,184155,1,0,0:0:0:0:
192,192,184155,1,0,0:0:0:0:
64,192,184238,1,0,0:0:0:0:
448,192,184238,1,0,0:0:0:0:
192,192,184280,1,0,0:0:0:0:
320,192,184321,1,0,0:0:0:0:
64,192,184363,1,0,0:0:0:0:
448,192,184363,1,0,0:0:0:0:
192,192,184405,1,0,0:0:0:0:
320,192,184446,1,0,0:0:0:0:
64,192,184446,1,0,0:0:0:0:
448,192,184488,1,0,0:0:0:0:
192,192,184530,1,0,0:0:0:0:
64,192,184571,1,0,0:0:0:0:
448,192,184571,1,0,0:0:0:0:
192,192,184613,1,0,0:0:0:0:
448,192,184696,1,0,0:0:0:0:
64,192,184696,1,0,0:0:0:0:
192,192,184738,1,0,0:0:0:0:
448,192,184780,1,0,0:0:0:0:
64,192,184780,1,0,0:0:0:0:
192,192,184863,1,0,0:0:0:0:
448,192,184863,1,0,0:0:0:0:
64,192,184905,1,0,0:0:0:0:
320,192,184988,128,0,185696:0:0:0:0:
64,192,184988,128,0,185696:0:0:0:0:
192,192,184988,128,0,185696:0:0:0:0:
448,192,185030,128,0,185696:0:0:0:0:
