osu file format v14

[General]
AudioFilename: audio.mp3
AudioLeadIn: 0
PreviewTime: -1
Countdown: 1
SampleSet: None
StackLeniency: 0.7
Mode: 0
LetterboxInBreaks: 0
WidescreenStoryboard: 0

[Editor]
DistanceSpacing: 2
BeatDivisor: 4
GridSize: 16
TimelineZoom: 1

[Metadata]
Title:GUMIR.I.P.MV
TitleUnicode:【GUMI】R.I.P.ゴシップの海【オリジナルMV】
Artist:D
ArtistUnicode:D
Creator:Clicks
Version:
Source:
Tags:
BeatmapID:1679208
BeatmapSetID:799860

[Difficulty]
HPDrainRate:5
CircleSize:4
OverallDifficulty:8
ApproachRate:9
SliderMultiplier:2
SliderTickRate:1

[Events]
//Background and Video events
0,0,"black-background-1468370534d5s.jpg",0,0
//Break Periods
2,62935,208081
//Storyboard Layer 0 (Background)
//Storyboard Layer 1 (Fail)
//Storyboard Layer 2 (Pass)
//Storyboard Layer 3 (Foreground)
//Storyboard Sound Samples

[TimingPoints]
2194.98076065709,270.27027027027,4,2,0,100,1,0
6519,-333.333333333333,4,2,0,100,0,0
7600,-333.333333333333,4,2,0,100,0,0
7870,-200,4,2,0,100,0,0
8140,-133.333333333333,4,2,0,100,0,0
8411,-100,4,2,0,100,0,0
35167,-200,4,2,0,100,0,0
45438,-100,4,2,0,100,0,0
55978,-100,4,2,0,100,0,0

[HitObjects]
30,26,2194,5,4,0:0:0:0:
108,169,2465,1,8,0:0:0:0:
155,98,2735,1,8,0:0:0:0:
199,26,3005,1,8,0:0:0:0:
259,238,3276,5,4,0:0:0:0:
511,241,3547,1,8,0:0:0:0:
457,152,3817,1,8,0:0:0:0:
399,65,4087,1,8,0:0:0:0:
303,250,4357,5,4,0:0:0:0:
122,124,4627,1,8,0:0:0:0:
321,31,4897,5,4,0:0:0:0:
303,250,5167,1,8,0:0:0:0:
480,183,5438,2,0,B|466:132|466:132|442:75,1,100
423,20,5708,2,0,B|374:31|374:31|303:55,1,100
217,143,5978,1,0,0:0:0:0:
200,174,6045,1,0,0:0:0:0:
185,205,6113,1,0,0:0:0:0:
173,238,6180,1,0,0:0:0:0:
165,272,6248,1,0,0:0:0:0:
162,307,6519,6,0,B|224:320|224:320|272:288|272:288|320:288|320:288|375:265,1,224.999993133545
386,48,7600,6,0,B|368:48|368:48|352:48,1,29.9999990844727,4|0,0:0|0:0,0:0:0:0:
384,48,7870,2,0,L|320:48,1,50,4|0,0:0|0:0,0:0:0:0:
384,48,8140,2,0,B|336:64|336:64|288:48,1,75.0000028610231,4|0,0:0|0:0,0:0:0:0:
384,48,8411,2,0,B|336:80|336:80|256:48,1,100,4|0,0:0|0:0,0:0:0:0:
192,32,8681,6,0,P|128:64|112:112,1,100
176,160,8951,2,0,P|256:144|272:96,1,100
320,48,9222,2,0,P|400:32|448:64,1,100
472,153,9492,2,0,P|464:208|400:240,1,100
320,176,9762,1,0,0:0:0:0:
144,80,9897,1,0,0:0:0:0:
144,80,9965,1,0,0:0:0:0:
144,80,10032,1,0,0:0:0:0:
149,281,10167,5,0,0:0:0:0:
211,174,10303,2,0,P|243:126|282:101,1,100
424,135,10573,2,0,P|447:194|434:260,1,100
303,309,10843,2,0,P|243:285|203:216,1,100
220,132,11113,2,0,P|286:111|343:143,1,100
335,234,11384,1,0,0:0:0:0:
335,234,11519,1,0,0:0:0:0:
451,71,11654,1,0,0:0:0:0:
451,71,11789,1,0,0:0:0:0:
256,48,11924,5,8,0:0:0:0:
107,235,12194,1,8,0:0:0:0:
349,273,12465,1,8,0:0:0:0:
368,224,13005,6,0,P|400:160|400:96,1,100
320,32,13276,2,0,P|240:64|224:112,1,100
256,240,13546,2,0,P|304:272|368:272,1,100
432,208,13816,2,0,P|400:128|352:128,1,100
192,80,14086,1,0,0:0:0:0:
384,32,14222,1,0,0:0:0:0:
384,32,14289,1,0,0:0:0:0:
384,32,14357,1,0,0:0:0:0:
272,144,14492,1,0,0:0:0:0:
144,272,14627,2,0,P|224:272|256:240,1,100
288,192,14897,2,0,P|272:128|224:80,1,100
144,32,15167,5,0,0:0:0:0:
144,32,15303,1,0,0:0:0:0:
304,32,15573,1,0,0:0:0:0:
208,96,15843,1,0,0:0:0:0:
384,176,16113,1,0,0:0:0:0:
192,256,16384,1,0,0:0:0:0:
208,96,16654,1,0,0:0:0:0:
176,128,16789,5,0,0:0:0:0:
180,158,16856,1,0,0:0:0:0:
184,188,16924,1,0,0:0:0:0:
188,218,16991,1,0,0:0:0:0:
224,304,17059,2,0,B|272:320|272:320|320:304,1,100
384,192,17330,6,0,P|384:128|368:112,2,50
352,32,17600,2,0,P|288:23|270:36,2,50
144,48,17870,1,0,0:0:0:0:
256,192,18005,1,0,0:0:0:0:
336,16,18140,1,0,0:0:0:0:
144,48,18276,1,0,0:0:0:0:
256,192,18411,2,0,P|208:128|160:112,1,100
64,176,18681,2,0,P|80:240|112:256,1,100
224,192,18951,6,0,P|256:128|256:64,2,100
128,304,19357,1,0,0:0:0:0:
64,176,19492,2,0,P|96:128|126:123,2,50
93,270,19762,2,0,P|114:283|144:288,2,50
400,32,20032,2,0,P|448:80|448:112,1,100
416,224,20303,2,0,P|352:224|320:192,1,100
256,144,20573,1,0,0:0:0:0:
256,144,20708,1,0,0:0:0:0:
144,144,20843,1,0,0:0:0:0:
144,144,20978,1,0,0:0:0:0:
176,288,21113,1,0,0:0:0:0:
176,288,21181,1,0,0:0:0:0:
176,288,21249,1,0,0:0:0:0:
176,288,21316,1,0,0:0:0:0:
176,288,21384,2,0,P|224:320|288:320,1,100
368,224,21654,6,0,P|354:203|333:190,2,50
384,336,21924,2,0,P|415:314|415:298,2,50
288,336,22194,2,0,P|240:320|224:256,1,100
208,176,22465,1,0,0:0:0:0:
208,64,22600,1,0,0:0:0:0:
208,64,22735,2,0,P|256:32|304:32,1,100
384,144,23005,2,0,P|368:192|304:208,1,100
224,192,23276,2,0,P|176:144|176:96,1,100
176,32,23546,1,0,0:0:0:0:
384,144,23681,1,0,0:0:0:0:
384,144,23816,6,0,B|400:192|400:192|384:256,1,100
384,336,24086,2,0,B|320:352|320:352|272:336,1,100
224,320,24357,1,0,0:0:0:0:
193,316,24424,1,0,0:0:0:0:
164,306,24492,1,0,0:0:0:0:
138,290,24559,1,0,0:0:0:0:
116,270,24627,1,0,0:0:0:0:
98,245,24694,1,0,0:0:0:0:
86,217,24762,1,0,0:0:0:0:
48,128,24897,6,0,P|96:96|112:112,2,50
64,128,25167,2,0,P|128:128|128:128,2,50
240,128,25438,1,0,0:0:0:0:
240,128,25573,1,0,0:0:0:0:
144,272,25708,1,0,0:0:0:0:
144,272,25843,1,0,0:0:0:0:
48,128,25978,2,0,P|80:80|128:64,1,100
240,128,26249,2,0,B|243:179|240:208|192:256,1,100
144,272,26519,2,0,P|80:304|32:336,1,100
48,336,26789,2,0,P|128:368|160:352,1,100
208,336,27058,5,0,0:0:0:0:
272,288,27193,1,0,0:0:0:0:
325,234,27330,2,0,P|357:170|357:122,1,100
204,78,27600,2,0,P|176:160|192:192,1,100
272,288,27870,1,0,0:0:0:0:
432,144,28005,1,0,0:0:0:0:
224,80,28140,2,0,P|160:96|128:144,1,100
142,241,28411,2,0,P|208:256|256:224,1,100
304,176,28681,2,0,P|320:112|288:64,1,100
240,16,28951,2,0,P|160:16|128:64,1,100
64,112,29222,5,0,0:0:0:0:
64,112,29357,1,0,0:0:0:0:
64,112,29492,2,0,L|144:192,1,100
176,224,29762,1,0,0:0:0:0:
176,224,29830,1,0,0:0:0:0:
176,224,29897,2,0,L|272:176,1,100
464,64,30303,6,0,P|480:112|480:160,1,100
416,272,30573,2,0,P|336:272|304:224,1,100
256,208,30843,1,0,0:0:0:0:
256,208,30978,1,0,0:0:0:0:
128,96,31113,1,0,0:0:0:0:
128,96,31249,1,0,0:0:0:0:
128,96,31384,2,0,P|176:48|224:48,1,100
352,96,31654,2,0,P|384:160|368:224,1,100
256,288,31924,2,0,P|176:272|160:224,1,100
128,176,32194,1,0,0:0:0:0:
127,176,32330,1,0,0:0:0:0:
224,112,32465,5,0,0:0:0:0:
230,228,32600,1,0,0:0:0:0:
128,176,32735,2,0,P|112:112|144:80,1,100
224,32,33005,1,0,0:0:0:0:
300,187,33140,1,0,0:0:0:0:
127,175,33276,1,0,0:0:0:0:
224,32,33411,5,0,0:0:0:0:
242,94,33546,1,0,0:0:0:0:
266,129,33613,1,0,0:0:0:0:
281,170,33681,1,0,0:0:0:0:
283,205,33749,1,0,0:0:0:0:
270,246,33816,1,0,0:0:0:0:
233,266,33884,1,0,0:0:0:0:
192,256,33951,2,0,P|176:240|160:208,4,50
144,176,34289,1,0,0:0:0:0:
137,133,34357,1,0,0:0:0:0:
149,92,34424,1,0,0:0:0:0:
179,60,34492,1,0,0:0:0:0:
226,44,34559,1,0,0:0:0:0:
226,44,34627,2,0,P|295:86|309:114,2,100
64,64,35167,6,0,B|32:96|32:96|48:144,1,89.9999972534181
176,144,35708,2,0,B|208:176|208:176|192:224,1,89.9999972534181
176,304,36249,2,0,B|160:272|160:272|208:208,1,100
256,160,36789,1,0,0:0:0:0:
352,96,36924,1,0,0:0:0:0:
352,96,36992,1,0,0:0:0:0:
352,96,37059,1,0,0:0:0:0:
256,160,37194,1,0,0:0:0:0:
256,160,37330,1,0,0:0:0:0:
352,96,37465,1,0,0:0:0:0:
352,96,37533,1,0,0:0:0:0:
352,96,37600,1,0,0:0:0:0:
160,256,37735,5,0,0:0:0:0:
160,256,37870,2,0,B|208:240|208:240|240:192,2,100
144,128,38546,1,0,0:0:0:0:
144,128,38613,1,0,0:0:0:0:
144,128,38681,1,0,0:0:0:0:
335,71,38951,6,0,B|388:109|388:109|401:148,1,100
407,242,39357,1,0,0:0:0:0:
407,341,39492,2,0,L|300:311,1,100
215,283,39897,1,0,0:0:0:0:
146,210,40032,1,0,0:0:0:0:
245,204,40167,1,0,0:0:0:0:
163,262,40303,1,0,0:0:0:0:
187,165,40438,2,0,P|189:107|279:72,1,150
362,80,40978,1,0,0:0:0:0:
362,80,41113,2,0,L|362:193,1,100
303,261,41519,1,0,0:0:0:0:
303,261,41586,1,0,0:0:0:0:
303,261,41654,2,0,P|254:269|232:263,3,50
157,245,42194,5,0,0:0:0:0:
157,245,42262,1,0,0:0:0:0:
157,245,42330,1,0,0:0:0:0:
74,189,42465,5,0,0:0:0:0:
74,189,42532,1,0,0:0:0:0:
74,189,42600,1,0,0:0:0:0:
61,288,42735,5,0,0:0:0:0:
61,288,42803,1,0,0:0:0:0:
61,288,42870,1,0,0:0:0:0:
357,238,43276,5,0,0:0:0:0:
192,128,43546,1,0,0:0:0:0:
448,48,43816,1,0,0:0:0:0:
336,96,43951,1,0,0:0:0:0:
432,176,44086,1,0,0:0:0:0:
320,208,44222,1,0,0:0:0:0:
432,272,44357,2,0,P|432:336|384:352,1,100
320,352,44897,1,0,0:0:0:0:
80,208,45167,5,0,0:0:0:0:
80,208,45438,2,0,P|112:144|160:128,1,100
320,272,45708,2,0,P|256:320|208:304,1,100
80,256,45978,1,0,0:0:0:0:
176,192,46113,1,0,0:0:0:0:
80,144,46249,1,0,0:0:0:0:
176,96,46384,1,0,0:0:0:0:
80,48,46519,6,0,P|144:16|208:32,1,100
368,240,46789,2,0,P|320:288|256:256,1,100
176,192,47059,2,0,P|192:128|256:96,1,100
336,48,47330,1,0,0:0:0:0:
336,48,47465,1,0,0:0:0:0:
336,48,47600,6,0,P|384:96|400:160,1,100
416,224,47870,2,0,P|384:304|336:320,1,100
96,288,48140,2,0,P|176:272|192:240,1,100
240,176,48411,2,0,P|272:112|272:64,1,100
272,16,48681,5,0,0:0:0:0:
192,96,48816,1,0,0:0:0:0:
304,160,48951,1,0,0:0:0:0:
192,224,49086,1,0,0:0:0:0:
304,272,49222,1,0,0:0:0:0:
192,336,49357,1,0,0:0:0:0:
192,336,49424,1,0,0:0:0:0:
192,336,49492,1,0,0:0:0:0:
192,336,49559,1,0,0:0:0:0:
192,336,49627,1,0,0:0:0:0:
192,336,49694,1,0,0:0:0:0:
192,336,49762,6,0,P|256:352|304:336,1,100
368,288,50032,2,0,P|400:240|384:160,1,100
384,112,50303,2,0,P|352:48|288:16,1,100
96,240,50573,1,0,0:0:0:0:
272,80,50708,1,0,0:0:0:0:
272,96,50843,6,0,B|288:160|288:160|272:224,1,100
256,224,51113,2,0,B|224:288|224:288|240:352,1,100
240,320,51384,2,0,B|304:352|304:352|368:336,1,100
432,288,51654,1,0,0:0:0:0:
432,288,51789,1,0,0:0:0:0:
320,224,51924,1,0,0:0:0:0:
320,224,52059,1,0,0:0:0:0:
448,160,52194,6,0,P|432:96|384:80,1,100
320,80,52465,2,0,P|256:112|240:176,1,100
208,224,52735,1,0,0:0:0:0:
256,304,52870,1,0,0:0:0:0:
160,304,53005,1,0,0:0:0:0:
208,224,53140,1,0,0:0:0:0:
256,304,53276,2,0,P|320:288|336:256,1,100
336,160,53546,2,0,P|304:96|240:96,1,100
176,96,53816,2,0,P|112:112|80:144,1,100
48,192,54086,5,0,0:0:0:0:
176,112,54222,1,0,0:0:0:0:
181,262,54357,1,0,0:0:0:0:
64,96,54492,1,0,0:0:0:0:
256,176,54627,1,0,0:0:0:0:
368,64,54762,1,0,0:0:0:0:
176,32,54897,1,0,0:0:0:0:
400,160,55032,1,0,0:0:0:0:
176,128,55167,1,0,0:0:0:0:
176,128,55303,5,0,0:0:0:0:
272,32,55438,2,0,P|272:96|256:176,1,100
368,32,55708,1,0,0:0:0:0:
368,32,55843,1,0,0:0:0:0:
144,192,55978,2,0,P|144:128|160:96,1,100
256,48,56249,5,0,0:0:0:0:
352,96,56384,1,0,0:0:0:0:
272,128,56519,1,0,0:0:0:0:
336,32,56654,1,0,0:0:0:0:
208,32,56789,1,0,0:0:0:0:
400,176,56924,1,0,0:0:0:0:
193,253,57059,1,0,0:0:0:0:
193,253,57195,5,0,0:0:0:0:
159,95,57330,1,0,0:0:0:0:
326,192,57466,1,0,0:0:0:0:
120,192,57601,1,0,0:0:0:0:
256,17,57736,1,0,0:0:0:0:
326,192,57871,1,0,0:0:0:0:
120,192,58006,1,0,0:0:0:0:
120,192,58141,2,0,P|120:114|139:75,2,100
160,288,58546,6,0,P|208:336|240:336,1,100
336,304,58816,2,0,P|384:272|384:208,1,100
384,128,59086,2,0,P|368:80|320:64,1,100
208,64,59357,1,0,0:0:0:0:
208,64,59492,5,0,0:0:0:0:
416,208,59762,1,0,0:0:0:0:
187,316,60032,1,0,0:0:0:0:
256,192,60303,2,0,P|288:176|288:160,2,50
176,192,60573,2,0,P|128:176|112:128,1,100
128,48,60843,2,0,P|208:16|240:32,1,100
288,64,61113,2,0,P|304:112|256:176,1,100
224,208,61384,2,0,P|144:224|112:176,1,100
64,176,61654,2,0,B|32:144|32:144|48:128,2,50
64,176,61924,2,0,B|62:130|62:130|85:129,2,50
64,176,62194,2,0,B|95:143|95:143|111:159,2,50
192,96,62465,5,0,0:0:0:0:
192,96,62532,1,0,0:0:0:0:
192,96,62600,1,0,0:0:0:0:
192,224,62735,1,0,0:0:0:0:
32,320,208681,5,0,0:0:0:0:
96,128,208816,1,0,0:0:0:0:
128,320,208951,1,0,0:0:0:0:
192,128,209086,1,0,0:0:0:0:
224,320,209222,5,0,0:0:0:0:
288,128,209357,1,0,0:0:0:0:
320,320,209492,1,0,0:0:0:0:
384,128,209627,1,0,0:0:0:0:
208,224,209762,1,0,0:0:0:0:
288,32,209897,1,0,0:0:0:0:
112,128,210032,1,0,0:0:0:0:
304,192,210167,1,0,0:0:0:0:
176,48,210303,1,0,0:0:0:0:
112,240,210438,1,0,0:0:0:0:
304,192,210573,1,0,0:0:0:0:
176,48,210708,1,0,0:0:0:0:
112,240,210843,5,0,0:0:0:0:
304,192,210978,1,0,0:0:0:0:
112,144,211113,1,0,0:0:0:0:
304,80,211249,1,0,0:0:0:0:
112,48,211384,1,0,0:0:0:0:
304,0,211519,1,0,0:0:0:0:
112,48,211654,1,0,0:0:0:0:
304,80,211789,1,0,0:0:0:0:
112,128,211924,2,0,P|112:192|128:224,1,100
320,224,212194,2,0,P|336:176|336:112,1,100
256,48,212465,2,0,P|192:64|160:112,1,100
128,240,212735,2,0,P|144:304|208:320,1,100
320,320,213005,5,0,0:0:0:0:
400,128,213140,1,0,0:0:0:0:
176,144,213411,1,0,0:0:0:0:
320,320,213681,1,0,0:0:0:0:
320,48,213951,1,0,0:0:0:0:
96,192,214222,1,0,0:0:0:0:
496,192,214492,1,0,0:0:0:0:
320,48,214627,1,0,0:0:0:0:
256,192,214897,1,0,0:0:0:0:
256,192,214965,12,0,217059,0:0:0:0:
