osu file format v14

[General]
AudioFilename: audio.mp3
AudioLeadIn: 0
PreviewTime: 16695
Countdown: 0
SampleSet: Soft
StackLeniency: 0.2
Mode: 0
LetterboxInBreaks: 0
WidescreenStoryboard: 0

[Editor]
Bookmarks: 16695,33391,50086,66782,83478,88173,100173,116869,129391,133565,135652,136695,153391,161739
DistanceSpacing: 1
BeatDivisor: 4
GridSize: 8
TimelineZoom: 1.3

[Metadata]
Title:Chong Jing Xing Kong De Ren
TitleUnicode:憧憬星空的人
Artist:Czwen
ArtistUnicode:Czwen
Creator:Irin
Version:hitsound
Source:
Tags:Piano 异想录 yi xiang lv star sky mengxiang xinkong Mindlessness
BeatmapID:2034235
BeatmapSetID:971577

[Difficulty]
HPDrainRate:5
CircleSize:5
OverallDifficulty:5
ApproachRate:5
SliderMultiplier:2
SliderTickRate:1

[Events]
//Background and Video events
0,0,"5efb90b66fd49bb0a74c6a1e992c0f48a7bad350.jpg",0,0
//Break Periods
//Storyboard Layer 0 (Background)
//Storyboard Layer 1 (Fail)
//Storyboard Layer 2 (Pass)
//Storyboard Layer 3 (Foreground)
//Storyboard Sound Samples

[TimingPoints]
0,521.739130434783,4,2,1,20,1,0
16695,-100,4,2,1,40,0,1
33391,-100,4,2,1,20,0,0
50086,-100,4,2,1,40,0,1
66782,-100,4,2,1,20,0,0
83478,-100,4,2,1,40,0,1
100173,-100,4,2,2,20,0,0
116869,-100,4,2,1,30,0,1
129391,-100,4,2,1,40,0,1
133565,-100,4,2,1,30,0,0
135652,-100,4,2,1,30,0,0
136695,521.739130434783,4,2,1,40,1,1
153390,-100,4,2,1,20,0,0
161739,-100,4,2,1,30,0,0

[Colours]
Combo1 : 60,144,200
Combo2 : 255,240,200
Combo3 : 165,148,192
Combo4 : 240,190,190

[HitObjects]
144,105,0,5,0,0:0:0:0:
144,105,260,1,0,0:0:0:0:
144,105,391,1,0,0:0:0:0:
144,105,521,1,0,0:0:0:0:
144,105,782,1,0,0:0:0:0:
144,105,1173,1,0,0:0:0:0:
335,111,1304,1,0,0:0:0:0:
144,105,1565,1,0,0:0:0:0:
144,105,1826,1,0,0:0:0:0:
144,105,2086,1,0,0:0:0:0:
144,105,2347,1,0,0:0:0:0:
144,105,2608,1,0,0:0:0:0:
144,105,2869,1,0,0:0:0:0:
144,105,3130,1,0,0:0:0:0:
144,105,3391,1,0,0:0:0:0:
144,105,3652,1,0,0:0:0:0:
144,105,3913,1,0,0:0:0:0:
144,105,4173,1,0,0:0:0:0:
144,105,4434,1,0,0:0:0:0:
144,105,4565,1,0,0:0:0:0:
144,105,4695,1,0,0:0:0:0:
144,105,4956,1,0,0:0:0:0:
144,105,5217,1,0,0:0:0:0:
144,105,5347,1,0,0:0:0:0:
335,111,5478,1,0,0:0:0:0:
144,105,5739,1,0,0:0:0:0:
144,105,6000,1,0,0:0:0:0:
144,105,6260,1,0,0:0:0:0:
144,105,6521,1,0,0:0:0:0:
144,105,6782,1,0,0:0:0:0:
144,105,7043,1,0,0:0:0:0:
144,105,7304,1,0,0:0:0:0:
144,105,7565,1,0,0:0:0:0:
144,105,7826,1,0,0:0:0:0:
144,105,8086,1,0,0:0:0:0:
144,105,8347,1,0,0:0:0:0:
144,105,8608,1,0,0:0:0:0:
144,105,8739,1,0,0:0:0:0:
144,105,8869,1,0,0:0:0:0:
144,105,9130,1,0,0:0:0:0:
144,105,9521,1,0,0:0:0:0:
335,111,9652,1,0,0:0:0:0:
144,105,9913,1,0,0:0:0:0:
144,105,10173,1,0,0:0:0:0:
144,105,10434,1,0,0:0:0:0:
144,105,10695,1,0,0:0:0:0:
144,105,10956,1,0,0:0:0:0:
144,105,11217,1,0,0:0:0:0:
144,105,11478,1,0,0:0:0:0:
144,105,11739,1,0,0:0:0:0:
144,105,12000,1,0,0:0:0:0:
144,105,12260,1,0,0:0:0:0:
144,105,12521,1,0,0:0:0:0:
144,105,12782,1,0,0:0:0:0:
144,105,12913,1,0,0:0:0:0:
144,105,13043,1,0,0:0:0:0:
144,105,13304,1,0,0:0:0:0:
144,105,13565,1,0,0:0:0:0:
144,105,13695,1,0,0:0:0:0:
335,111,13826,1,0,0:0:0:0:
144,105,14086,1,0,0:0:0:0:
144,105,14347,1,0,0:0:0:0:
144,105,14608,1,0,0:0:0:0:
144,105,14869,1,0,0:0:0:0:
144,105,15130,1,0,0:0:0:0:
144,105,15391,1,0,0:0:0:0:
144,105,15652,1,2,0:0:0:0:
144,105,15913,1,8,0:0:0:0:
144,105,16173,1,8,0:0:0:0:
117,216,16304,1,2,0:0:0:0:
144,105,16434,1,8,0:0:0:0:
117,216,16565,1,8,0:0:0:0:
144,105,16695,5,2,0:0:0:0:
144,105,16956,1,0,0:0:0:0:
144,105,17086,1,0,0:0:0:0:
144,105,17217,1,8,0:0:0:0:
144,105,17478,1,0,0:0:0:0:
189,221,17739,1,2,0:0:0:0:
144,105,17869,1,0,0:0:0:0:
335,111,18000,1,2,0:0:0:0:
144,105,18260,1,8,0:0:0:0:
144,105,18521,1,0,0:0:0:0:
144,105,18782,1,2,0:0:0:0:
144,105,19043,1,0,0:0:0:0:
144,105,19304,1,8,0:0:0:0:
144,105,19565,1,0,0:0:0:0:
144,105,19826,1,2,0:0:0:0:
144,105,20086,1,2,0:0:0:0:
144,105,20347,1,8,0:0:0:0:
144,105,20608,1,0,0:0:0:0:
144,105,20869,1,2,0:0:0:0:
144,105,21130,1,0,0:0:0:0:
144,105,21260,1,0,0:0:0:0:
144,105,21391,1,8,0:0:0:0:
144,105,21652,1,0,0:0:0:0:
144,105,21913,1,2,0:0:0:0:
144,105,22043,1,0,0:0:0:0:
335,111,22173,1,2,0:0:0:0:
144,105,22434,1,8,0:0:0:0:
144,105,22695,1,0,0:0:0:0:
144,105,22956,1,2,0:0:0:0:
144,105,23217,1,0,0:0:0:0:
144,105,23478,1,8,0:0:0:0:
144,105,23739,1,0,0:0:0:0:
144,105,24000,1,2,0:0:0:0:
144,105,24260,1,2,0:0:0:0:
144,105,24521,1,8,0:0:0:0:
117,207,24652,1,2,0:0:0:0:
144,105,24782,1,8,0:0:0:0:
117,207,24913,1,8,0:0:0:0:
144,105,25043,1,2,0:0:0:0:
144,105,25304,1,0,0:0:0:0:
144,105,25434,1,0,0:0:0:0:
144,105,25565,1,8,0:0:0:0:
144,105,25826,1,0,0:0:0:0:
165,214,26086,1,2,0:0:0:0:
144,105,26217,1,0,0:0:0:0:
335,111,26347,1,2,0:0:0:0:
144,105,26608,1,8,0:0:0:0:
144,105,26869,1,0,0:0:0:0:
144,105,27130,1,2,0:0:0:0:
144,105,27391,1,0,0:0:0:0:
144,105,27652,1,8,0:0:0:0:
144,105,27913,1,0,0:0:0:0:
144,105,28173,1,2,0:0:0:0:
144,105,28434,1,2,0:0:0:0:
144,105,28695,1,8,0:0:0:0:
144,105,28956,1,0,0:0:0:0:
144,105,29217,1,2,0:0:0:0:
144,105,29478,1,0,0:0:0:0:
144,105,29608,1,0,0:0:0:0:
144,105,29739,1,8,0:0:0:0:
144,105,30000,1,0,0:0:0:0:
144,105,30260,1,2,0:0:0:0:
144,105,30391,1,0,0:0:0:0:
335,111,30521,1,2,0:0:0:0:
144,105,30782,1,8,0:0:0:0:
144,105,31043,1,0,0:0:0:0:
144,105,31304,1,2,0:0:0:0:
253,183,31434,1,0,0:0:0:0:
144,105,31565,1,0,0:0:0:0:
144,105,31826,1,8,0:0:0:0:
144,105,32086,1,0,0:0:0:0:
307,223,32217,1,0,0:0:0:0:
198,179,32347,1,2,0:0:0:0:
144,105,32478,1,0,0:0:0:0:
144,105,32608,1,8,0:0:0:0:
144,105,32869,1,8,0:0:0:0:
117,216,33000,1,2,0:0:0:0:
144,105,33130,1,8,0:0:0:0:
117,216,33260,1,8,0:0:0:0:
250,298,33391,5,2,0:0:0:0:
250,298,33652,1,0,0:0:0:0:
250,298,34173,1,0,0:0:0:0:
250,298,34434,1,8,0:0:0:0:
250,298,34695,1,0,0:0:0:0:
250,298,34956,1,0,0:0:0:0:
250,298,35217,1,0,0:0:0:0:
250,298,35478,1,2,0:0:0:0:
250,298,35739,1,0,0:0:0:0:
250,298,36000,1,2,0:0:0:0:
250,298,36521,1,8,0:0:0:0:
352,121,37565,1,2,0:0:0:0:
346,123,38347,1,0,0:0:0:0:
346,123,38608,1,8,0:0:0:0:
346,123,38869,1,0,0:0:0:0:
346,123,39130,1,0,0:0:0:0:
346,123,39391,1,0,0:0:0:0:
275,62,39652,1,2,0:0:0:0:
346,123,39913,1,0,0:0:0:0:
275,62,40173,1,2,0:0:0:0:
346,123,40434,1,0,0:0:0:0:
275,62,40695,1,8,0:0:0:0:
346,123,40956,1,0,0:0:0:0:
346,123,41217,1,0,0:0:0:0:
346,123,41478,1,0,0:0:0:0:
250,298,41739,5,2,0:0:0:0:
250,298,42000,1,0,0:0:0:0:
250,298,42521,1,0,0:0:0:0:
250,298,42782,1,8,0:0:0:0:
250,298,43043,1,0,0:0:0:0:
250,298,43304,1,0,0:0:0:0:
250,298,43565,1,0,0:0:0:0:
250,298,43826,1,2,0:0:0:0:
250,298,44086,1,0,0:0:0:0:
250,298,44347,1,2,0:0:0:0:
250,298,44869,1,8,0:0:0:0:
352,121,45913,1,2,0:0:0:0:
346,123,46695,1,0,0:0:0:0:
346,123,46956,1,8,0:0:0:0:
346,123,47217,1,0,0:0:0:0:
346,123,47478,1,0,0:0:0:0:
346,123,47739,1,0,0:0:0:0:
275,62,48000,1,2,0:0:0:0:
346,123,48260,1,0,0:0:0:0:
275,62,48521,1,2,0:0:0:0:
346,123,48782,1,0,0:0:0:0:
275,62,49043,1,8,0:0:0:0:
346,123,49304,1,8,0:0:0:0:
346,123,49565,1,8,0:0:0:0:
346,123,49826,1,8,0:0:0:0:
94,265,50086,5,2,0:0:0:0:
94,265,50347,1,0,0:0:0:0:
94,265,50608,1,8,0:0:0:0:
94,265,50869,1,0,0:0:0:0:
96,260,51000,1,0,0:0:0:0:
97,260,51130,1,2,0:0:0:0:
98,260,51391,1,2,0:0:0:0:
98,259,51521,1,0,0:0:0:0:
99,259,51652,1,8,0:0:0:0:
96,260,51913,1,0,0:0:0:0:
98,260,52173,1,2,0:0:0:0:
98,260,52304,1,0,0:0:0:0:
98,259,52434,1,0,0:0:0:0:
96,260,52695,1,8,0:0:0:0:
98,260,52956,1,0,0:0:0:0:
98,260,53217,1,2,0:0:0:0:
98,259,53347,1,0,0:0:0:0:
96,260,53478,1,2,0:0:0:0:
101,260,53608,1,0,0:0:0:0:
90,261,53739,1,8,0:0:0:0:
93,267,53869,1,0,0:0:0:0:
90,261,54130,1,0,0:0:0:0:
90,261,54260,1,2,0:0:0:0:
90,261,54521,1,0,0:0:0:0:
90,261,54782,1,8,0:0:0:0:
90,261,55043,1,0,0:0:0:0:
90,261,55304,1,2,0:0:0:0:
90,261,55565,1,2,0:0:0:0:
90,261,55695,1,0,0:0:0:0:
90,261,55826,1,8,0:0:0:0:
90,261,56086,1,0,0:0:0:0:
90,261,56347,1,2,0:0:0:0:
90,261,56608,1,0,0:0:0:0:
90,261,56869,1,8,0:0:0:0:
90,261,57000,1,0,0:0:0:0:
90,261,57130,1,0,0:0:0:0:
90,261,57391,1,2,0:0:0:0:
90,261,57521,1,0,0:0:0:0:
90,261,57652,1,2,0:0:0:0:
90,261,57913,1,8,0:0:0:0:
90,261,58043,1,2,0:0:0:0:
90,261,58173,1,8,0:0:0:0:
90,261,58304,1,8,0:0:0:0:
94,265,58434,5,2,0:0:0:0:
94,265,58695,1,0,0:0:0:0:
94,265,58956,1,8,0:0:0:0:
94,265,59217,1,0,0:0:0:0:
96,260,59347,1,0,0:0:0:0:
97,260,59478,1,2,0:0:0:0:
98,260,59739,1,2,0:0:0:0:
98,259,59869,1,0,0:0:0:0:
99,259,60000,1,8,0:0:0:0:
96,260,60260,1,0,0:0:0:0:
98,260,60521,1,2,0:0:0:0:
98,260,60652,1,0,0:0:0:0:
98,259,60782,1,0,0:0:0:0:
96,260,61043,1,8,0:0:0:0:
98,260,61304,1,0,0:0:0:0:
98,260,61565,1,2,0:0:0:0:
98,259,61695,1,0,0:0:0:0:
96,260,61826,1,2,0:0:0:0:
101,260,61956,1,0,0:0:0:0:
90,261,62086,1,8,0:0:0:0:
98,260,62217,1,0,0:0:0:0:
90,261,62478,1,0,0:0:0:0:
90,261,62608,1,2,0:0:0:0:
90,261,62869,1,0,0:0:0:0:
90,261,63130,1,8,0:0:0:0:
90,261,63391,1,0,0:0:0:0:
90,261,63652,1,2,0:0:0:0:
90,261,63913,1,2,0:0:0:0:
90,261,64043,1,0,0:0:0:0:
90,261,64173,1,8,0:0:0:0:
90,261,64434,1,0,0:0:0:0:
90,261,64695,1,2,0:0:0:0:
90,261,64956,1,0,0:0:0:0:
90,261,65217,1,8,0:0:0:0:
90,261,65347,1,0,0:0:0:0:
90,261,65478,1,0,0:0:0:0:
90,261,65739,1,2,0:0:0:0:
90,261,65869,1,0,0:0:0:0:
90,261,66000,1,2,0:0:0:0:
90,261,66260,1,8,0:0:0:0:
90,261,66391,1,2,0:0:0:0:
90,261,66521,1,8,0:0:0:0:
90,261,66652,1,8,0:0:0:0:
339,304,66782,5,2,0:0:0:0:
339,304,66913,1,0,0:0:0:0:
339,304,67043,1,0,0:0:0:0:
339,304,67304,1,0,0:0:0:0:
339,304,67565,1,0,0:0:0:0:
339,304,67826,1,0,0:0:0:0:
339,304,68086,1,0,0:0:0:0:
339,304,68347,1,0,0:0:0:0:
339,304,68869,1,0,0:0:0:0:
339,304,69652,1,0,0:0:0:0:
339,304,69913,1,0,0:0:0:0:
339,304,70173,1,0,0:0:0:0:
339,304,70434,1,0,0:0:0:0:
339,304,70695,1,0,0:0:0:0:
339,304,70956,1,0,0:0:0:0:
339,304,71217,1,0,0:0:0:0:
339,304,71478,1,0,0:0:0:0:
339,304,71739,1,0,0:0:0:0:
339,295,72260,1,0,0:0:0:0:
339,295,72521,1,0,0:0:0:0:
339,295,72782,1,0,0:0:0:0:
339,295,73043,1,0,0:0:0:0:
339,295,73565,1,0,0:0:0:0:
339,295,74086,1,0,0:0:0:0:
339,295,74608,1,0,0:0:0:0:
339,295,74869,1,0,0:0:0:0:
339,304,75130,5,0,0:0:0:0:
339,304,75260,1,0,0:0:0:0:
339,304,75391,1,0,0:0:0:0:
339,304,75652,1,0,0:0:0:0:
339,304,75913,1,0,0:0:0:0:
339,304,76173,1,0,0:0:0:0:
339,304,76434,1,0,0:0:0:0:
339,304,76695,1,0,0:0:0:0:
339,304,77217,1,0,0:0:0:0:
339,304,78000,1,0,0:0:0:0:
339,304,78260,1,0,0:0:0:0:
339,304,78521,1,0,0:0:0:0:
339,304,78782,1,0,0:0:0:0:
339,304,79043,1,0,0:0:0:0:
339,304,79304,1,0,0:0:0:0:
339,304,79565,1,0,0:0:0:0:
339,304,79826,1,0,0:0:0:0:
339,304,80086,1,0,0:0:0:0:
339,295,80608,1,0,0:0:0:0:
339,295,80869,1,0,0:0:0:0:
339,295,81130,1,0,0:0:0:0:
339,295,81391,1,0,0:0:0:0:
339,295,81913,1,0,0:0:0:0:
339,295,82434,1,0,0:0:0:0:
339,295,82956,1,0,0:0:0:0:
339,295,83217,1,0,0:0:0:0:
233,102,83478,5,2,0:0:0:0:
233,102,83739,1,0,0:0:0:0:
233,102,84000,1,8,0:0:0:0:
233,102,84260,1,0,0:0:0:0:
233,102,84391,1,0,0:0:0:0:
233,102,84521,1,2,0:0:0:0:
233,102,84782,1,2,0:0:0:0:
233,102,84913,1,0,0:0:0:0:
233,102,85043,1,8,0:0:0:0:
233,102,85304,1,0,0:0:0:0:
233,102,85565,1,2,0:0:0:0:
233,102,85695,1,0,0:0:0:0:
233,102,85826,1,0,0:0:0:0:
233,102,86086,1,8,0:0:0:0:
233,102,86347,1,0,0:0:0:0:
233,102,86608,1,2,0:0:0:0:
233,102,86739,1,0,0:0:0:0:
233,102,86869,1,2,0:0:0:0:
233,102,87000,1,0,0:0:0:0:
233,102,87130,1,8,0:0:0:0:
233,102,87260,1,0,0:0:0:0:
233,102,87521,1,0,0:0:0:0:
233,102,87652,1,2,0:0:0:0:
233,102,87913,1,0,0:0:0:0:
233,102,88173,1,8,0:0:0:0:
233,102,88434,1,0,0:0:0:0:
233,102,88695,1,2,0:0:0:0:
233,102,88956,1,2,0:0:0:0:
233,102,89086,1,0,0:0:0:0:
233,102,89217,1,8,0:0:0:0:
233,102,89478,1,0,0:0:0:0:
233,102,89739,1,2,0:0:0:0:
233,102,90000,1,0,0:0:0:0:
233,102,90260,1,8,0:0:0:0:
233,102,90391,1,0,0:0:0:0:
233,102,90521,1,0,0:0:0:0:
233,102,90782,1,2,0:0:0:0:
233,102,90913,1,0,0:0:0:0:
233,102,91043,1,2,0:0:0:0:
233,102,91304,1,8,0:0:0:0:
233,102,91434,1,2,0:0:0:0:
233,102,91565,1,8,0:0:0:0:
233,102,91695,1,8,0:0:0:0:
233,102,91826,5,2,0:0:0:0:
233,102,92086,1,0,0:0:0:0:
233,102,92347,1,8,0:0:0:0:
233,102,92608,1,0,0:0:0:0:
233,102,92739,1,0,0:0:0:0:
233,102,92869,1,2,0:0:0:0:
233,102,93130,1,2,0:0:0:0:
233,102,93260,1,0,0:0:0:0:
233,102,93391,1,8,0:0:0:0:
233,102,93652,1,0,0:0:0:0:
233,102,93913,1,2,0:0:0:0:
233,102,94043,1,0,0:0:0:0:
233,102,94173,1,0,0:0:0:0:
233,102,94434,1,8,0:0:0:0:
233,102,94695,1,0,0:0:0:0:
233,102,94956,1,2,0:0:0:0:
233,102,95086,1,0,0:0:0:0:
233,102,95217,1,2,0:0:0:0:
233,102,95347,1,0,0:0:0:0:
233,102,95478,1,8,0:0:0:0:
233,102,95608,1,0,0:0:0:0:
233,102,95869,1,0,0:0:0:0:
233,102,96000,1,2,0:0:0:0:
233,102,96260,1,0,0:0:0:0:
233,102,96521,1,8,0:0:0:0:
233,102,96782,1,0,0:0:0:0:
233,102,97043,1,2,0:0:0:0:
233,102,97304,1,2,0:0:0:0:
233,102,97434,1,0,0:0:0:0:
233,102,97565,1,8,0:0:0:0:
233,102,97826,1,0,0:0:0:0:
233,102,98086,1,2,0:0:0:0:
233,102,98347,1,0,0:0:0:0:
233,102,98608,1,8,0:0:0:0:
233,102,98739,1,0,0:0:0:0:
233,102,98869,1,0,0:0:0:0:
233,102,99130,1,2,0:0:0:0:
233,102,99260,1,0,0:0:0:0:
233,102,99391,1,2,0:0:0:0:
233,102,99652,1,8,0:0:0:0:
233,102,99782,1,2,0:0:0:0:
233,102,99913,1,8,0:0:0:0:
233,102,100043,1,8,0:0:0:0:
107,261,100173,5,2,0:0:0:0:
207,335,100434,1,0,0:0:0:0:
107,261,100695,1,0,0:0:0:0:
207,335,100956,1,0,0:0:0:0:
107,261,101217,1,8,0:0:0:0:
207,335,101478,1,0,0:0:0:0:
107,261,101739,1,0,0:0:0:0:
107,261,102000,1,0,0:0:0:0:
107,261,102260,1,2,0:0:0:0:
207,335,102521,1,0,0:0:0:0:
107,261,102782,1,2,0:0:0:0:
107,261,103043,1,0,0:0:0:0:
107,261,103304,1,8,0:0:0:0:
107,261,103565,1,0,0:0:0:0:
107,261,103826,1,0,0:0:0:0:
107,261,104086,1,0,0:0:0:0:
107,261,104347,5,2,0:0:0:0:
207,335,104608,1,0,0:0:0:0:
107,261,104869,1,0,0:0:0:0:
207,335,105130,1,0,0:0:0:0:
107,261,105391,1,8,0:0:0:0:
207,335,105652,1,0,0:0:0:0:
107,261,105913,1,0,0:0:0:0:
107,261,106173,1,0,0:0:0:0:
107,261,106434,1,2,0:0:0:0:
207,335,106695,1,0,0:0:0:0:
107,261,106956,1,2,0:0:0:0:
107,261,107217,1,0,0:0:0:0:
107,261,107478,1,8,0:0:0:0:
107,261,107739,1,0,0:0:0:0:
107,261,108000,1,0,0:0:0:0:
107,261,108260,1,0,0:0:0:0:
107,261,108521,5,2,0:0:0:0:
107,261,109043,1,0,0:0:0:0:
107,261,109565,1,8,0:0:0:0:
107,261,110086,1,0,0:0:0:0:
107,261,110347,1,0,0:0:0:0:
107,261,110608,1,2,0:0:0:0:
207,335,110869,1,0,0:0:0:0:
107,261,111130,1,2,0:0:0:0:
107,261,111391,1,0,0:0:0:0:
107,261,111652,1,8,0:0:0:0:
107,261,111913,1,0,0:0:0:0:
107,261,112173,1,0,0:0:0:0:
107,261,112434,1,0,0:0:0:0:
107,261,112695,5,2,0:0:0:0:
107,261,113217,1,0,0:0:0:0:
107,261,113739,1,8,0:0:0:0:
107,261,114260,1,0,0:0:0:0:
107,261,114521,1,0,0:0:0:0:
107,261,114782,1,2,0:0:0:0:
107,261,115304,1,2,0:0:0:0:
107,261,115826,1,8,0:0:0:0:
107,261,116086,1,0,0:0:0:0:
107,261,116347,1,0,0:0:0:0:
107,261,116608,1,0,0:0:0:0:
234,66,116869,5,2,0:0:0:0:
234,66,117130,1,0,0:0:0:0:
234,66,117391,1,2,0:0:0:0:
234,66,117652,1,0,0:0:0:0:
193,160,117913,1,2,0:0:0:0:
234,66,118173,1,0,0:0:0:0:
234,66,118434,1,2,0:0:0:0:
234,66,118695,1,0,0:0:0:0:
234,66,118956,1,2,0:0:0:0:
234,66,119217,1,0,0:0:0:0:
234,66,119478,1,2,0:0:0:0:
234,66,119739,1,0,0:0:0:0:
234,66,120000,1,2,0:0:0:0:
234,66,120260,1,0,0:0:0:0:
234,66,120521,1,2,0:0:0:0:
234,66,120782,1,0,0:0:0:0:
234,66,121043,1,2,0:0:0:0:
234,66,121304,1,0,0:0:0:0:
234,66,121565,1,2,0:0:0:0:
234,66,121826,1,0,0:0:0:0:
234,66,122086,1,2,0:0:0:0:
234,66,122347,1,0,0:0:0:0:
234,66,122608,1,2,0:0:0:0:
234,66,122869,1,0,0:0:0:0:
234,66,123130,1,2,0:0:0:0:
234,66,123391,1,0,0:0:0:0:
234,66,123521,1,0,0:0:0:0:
234,66,123652,1,2,0:0:0:0:
234,66,123913,1,0,0:0:0:0:
234,66,124173,1,2,0:0:0:0:
234,66,124434,1,0,0:0:0:0:
234,66,124695,1,2,0:0:0:0:
234,66,124956,1,0,0:0:0:0:
234,66,125217,1,2,0:0:0:0:
234,66,125478,1,0,0:0:0:0:
234,66,125739,1,2,0:0:0:0:
234,66,126000,1,0,0:0:0:0:
234,66,126260,1,2,0:0:0:0:
234,66,126782,1,2,0:0:0:0:
234,66,127043,1,0,0:0:0:0:
234,66,127304,1,2,0:0:0:0:
234,66,127565,1,0,0:0:0:0:
234,66,127826,1,2,0:0:0:0:
234,66,128086,1,0,0:0:0:0:
234,66,128347,1,2,0:0:0:0:
234,66,128608,1,0,0:0:0:0:
234,66,128869,1,2,0:0:0:0:
234,66,129130,1,0,0:0:0:0:
346,87,129391,5,2,0:0:0:0:
346,87,129652,1,2,0:0:0:0:
346,87,129782,1,0,0:0:0:0:
346,87,129913,1,2,0:0:0:0:
346,87,130043,1,0,0:0:0:0:
346,87,130173,1,2,0:0:0:0:
346,87,130304,1,0,0:0:0:0:
346,87,130434,1,2,0:0:0:0:
346,87,130565,1,0,0:0:0:0:
346,87,130695,1,2,0:0:0:0:
346,87,130826,1,0,0:0:0:0:
346,87,130956,1,2,0:0:0:0:
346,87,131086,1,0,0:0:0:0:
346,87,131217,1,2,0:0:0:0:
346,87,131347,1,0,0:0:0:0:
342,90,131478,1,2,0:0:0:0:
342,90,131608,1,0,0:0:0:0:
341,90,131739,1,2,0:0:0:0:
341,90,131869,1,0,0:0:0:0:
341,90,132000,1,2,0:0:0:0:
340,90,132130,1,0,0:0:0:0:
339,90,132260,1,2,0:0:0:0:
342,90,132391,1,0,0:0:0:0:
342,90,132521,1,2,0:0:0:0:
341,90,132652,1,0,0:0:0:0:
341,90,132782,1,2,0:0:0:0:
341,90,132913,1,0,0:0:0:0:
340,90,133043,1,2,0:0:0:0:
339,90,133173,1,0,0:0:0:0:
336,90,133304,1,2,0:0:0:0:
336,90,133434,1,0,0:0:0:0:
170,252,135652,5,2,0:0:0:0:
170,252,135913,1,8,0:0:0:0:
170,252,136173,1,8,0:0:0:0:
170,252,136304,1,2,0:0:0:0:
170,252,136434,1,8,0:0:0:0:
170,252,136565,1,8,0:0:0:0:
144,105,136695,1,2,0:0:0:0:
144,105,136956,1,0,0:0:0:0:
144,105,137086,1,0,0:0:0:0:
144,105,137217,1,8,0:0:0:0:
144,105,137478,1,0,0:0:0:0:
234,134,137739,1,2,0:0:0:0:
144,105,137869,1,0,0:0:0:0:
335,111,138000,1,2,0:0:0:0:
144,105,138260,1,8,0:0:0:0:
144,105,138521,1,0,0:0:0:0:
144,105,138782,1,2,0:0:0:0:
144,105,139043,1,0,0:0:0:0:
144,105,139304,1,8,0:0:0:0:
144,105,139565,1,0,0:0:0:0:
144,105,139826,1,2,0:0:0:0:
144,105,140086,1,2,0:0:0:0:
144,105,140347,1,8,0:0:0:0:
144,105,140608,1,0,0:0:0:0:
144,105,140869,1,2,0:0:0:0:
144,105,141130,1,0,0:0:0:0:
144,105,141260,1,0,0:0:0:0:
144,105,141391,1,8,0:0:0:0:
144,105,141652,1,0,0:0:0:0:
144,105,141913,1,2,0:0:0:0:
144,105,142043,1,0,0:0:0:0:
335,111,142173,1,2,0:0:0:0:
144,105,142434,1,8,0:0:0:0:
144,105,142695,1,0,0:0:0:0:
144,105,142956,1,2,0:0:0:0:
144,105,143217,1,0,0:0:0:0:
144,105,143478,1,8,0:0:0:0:
144,105,143739,1,0,0:0:0:0:
144,105,144000,1,2,0:0:0:0:
144,105,144260,1,8,0:0:0:0:
144,105,144521,1,8,0:0:0:0:
102,205,144652,1,2,0:0:0:0:
144,105,144782,1,8,0:0:0:0:
102,205,144913,1,8,0:0:0:0:
144,105,145043,1,2,0:0:0:0:
144,105,145304,1,0,0:0:0:0:
144,105,145434,1,0,0:0:0:0:
144,105,145565,1,8,0:0:0:0:
144,105,145826,1,0,0:0:0:0:
226,105,146086,1,2,0:0:0:0:
144,105,146217,1,0,0:0:0:0:
335,111,146347,1,2,0:0:0:0:
144,105,146608,1,8,0:0:0:0:
144,105,146869,1,0,0:0:0:0:
144,105,147130,1,2,0:0:0:0:
144,105,147391,1,0,0:0:0:0:
144,105,147652,1,8,0:0:0:0:
144,105,147913,1,0,0:0:0:0:
144,105,148173,1,2,0:0:0:0:
144,105,148434,1,2,0:0:0:0:
144,105,148695,1,8,0:0:0:0:
144,105,148956,1,0,0:0:0:0:
144,105,149217,1,2,0:0:0:0:
144,105,149478,1,0,0:0:0:0:
144,105,149608,1,0,0:0:0:0:
144,105,149739,1,8,0:0:0:0:
144,105,150000,1,0,0:0:0:0:
144,105,150260,1,2,0:0:0:0:
144,105,150391,1,0,0:0:0:0:
335,111,150521,1,2,0:0:0:0:
144,105,150782,1,8,0:0:0:0:
144,105,151043,1,0,0:0:0:0:
144,105,151304,1,2,0:0:0:0:
144,105,151565,1,0,0:0:0:0:
144,105,151826,1,8,0:0:0:0:
144,105,152086,1,0,0:0:0:0:
144,105,152347,1,2,0:0:0:0:
144,105,152608,1,8,0:0:0:0:
144,105,152869,1,8,0:0:0:0:
117,216,153000,1,2,0:0:0:0:
144,105,153130,1,8,0:0:0:0:
117,216,153260,1,8,0:0:0:0:
144,105,153391,5,2,0:0:0:0:
144,105,153652,1,0,0:0:0:0:
144,105,153782,1,0,0:0:0:0:
144,105,153913,1,0,0:0:0:0:
144,105,154173,1,0,0:0:0:0:
144,105,154434,1,8,0:0:0:0:
144,105,154565,1,0,0:0:0:0:
335,111,154695,1,0,0:0:0:0:
144,105,154956,1,0,0:0:0:0:
144,105,155217,1,0,0:0:0:0:
144,105,155478,1,2,0:0:0:0:
144,105,155739,1,0,0:0:0:0:
144,105,156000,1,2,0:0:0:0:
144,105,156260,1,0,0:0:0:0:
144,105,156521,1,8,0:0:0:0:
144,105,156782,1,0,0:0:0:0:
144,105,157043,1,0,0:0:0:0:
144,105,157304,1,0,0:0:0:0:
144,105,157565,1,2,0:0:0:0:
144,105,157826,1,0,0:0:0:0:
144,105,157956,1,0,0:0:0:0:
144,105,158086,1,0,0:0:0:0:
144,105,158347,1,0,0:0:0:0:
144,105,158608,1,8,0:0:0:0:
144,105,158739,1,0,0:0:0:0:
335,111,158869,1,0,0:0:0:0:
144,105,159130,1,0,0:0:0:0:
144,105,159391,1,0,0:0:0:0:
144,105,159652,1,2,0:0:0:0:
144,105,159913,1,0,0:0:0:0:
144,105,160173,1,2,0:0:0:0:
144,105,160434,1,0,0:0:0:0:
144,105,160695,1,8,0:0:0:0:
144,105,160956,1,0,0:0:0:0:
144,105,161217,1,0,0:0:0:0:
144,105,161478,1,0,0:0:0:0:
140,263,161739,5,0,0:0:0:0:
140,263,162000,1,0,0:0:0:0:
140,263,162260,1,0,0:0:0:0:
140,263,162521,1,0,0:0:0:0:
140,263,162782,1,0,0:0:0:0:
140,263,163043,1,0,0:0:0:0:
140,263,163304,1,0,0:0:0:0:
140,263,163565,1,0,0:0:0:0:
140,263,163826,1,0,0:0:0:0:
140,263,164347,1,0,0:0:0:0:
140,263,164608,1,0,0:0:0:0:
140,263,164869,1,0,0:0:0:0:
140,263,165130,1,0,0:0:0:0:
140,263,165391,1,0,0:0:0:0:
140,263,165521,1,0,0:0:0:0:
140,263,165652,1,0,0:0:0:0:
140,263,165913,1,0,0:0:0:0:
140,263,166173,1,0,0:0:0:0:
140,263,166434,1,0,0:0:0:0:
140,263,166695,1,0,0:0:0:0:
140,263,166956,1,0,0:0:0:0:
140,263,167478,1,0,0:0:0:0:
138,262,168000,1,0,0:0:0:0:
138,262,168521,1,0,0:0:0:0:
