osu file format v14

[General]
AudioFilename: audio.mp3
AudioLeadIn: 0
PreviewTime: 61386
Countdown: 0
SampleSet: Soft
StackLeniency: 0.7
Mode: 0
LetterboxInBreaks: 0
WidescreenStoryboard: 0

[Editor]
Bookmarks: 14980,30449,45449,62324
DistanceSpacing: 0.8
BeatDivisor: 4
GridSize: 4
TimelineZoom: 1

[Metadata]
Title:Real
TitleUnicode:Rё∀˥
Artist:Cyua
ArtistUnicode:Cyua
Creator:Come[Back]Home
Version:Normal
Source:ギルティクラウン
Tags:Cellina Guilty Crown Original Soundtrack
BeatmapID:1207235
BeatmapSetID:468313

[Difficulty]
HPDrainRate:5
CircleSize:3.5
OverallDifficulty:4
ApproachRate:5
SliderMultiplier:1.2
SliderTickRate:1

[Events]
//Background and Video events
0,0,"BGccoly.jpg",0,0
//Break Periods
//Storyboard Layer 0 (Background)
//Storyboard Layer 1 (Fail)
//Storyboard Layer 2 (Pass)
//Storyboard Layer 3 (Foreground)
//Storyboard Sound Samples

[TimingPoints]
501,468.75,4,2,0,70,1,0
501,-100,4,2,2,70,0,0
15501,-100,4,2,2,70,0,0
45501,-100,4,2,2,70,0,0
62376,-100,4,2,1,70,0,1
76438,-100,4,2,1,70,0,0
77376,-100,4,2,1,70,0,1
83938,-100,4,2,1,70,0,0
84876,-100,4,2,1,70,0,1
92376,-100,4,2,1,70,0,0

[Colours]
Combo1 : 255,128,192
Combo2 : 128,255,255
Combo3 : 192,192,192
Combo4 : 128,255,128

[HitObjects]
128,319,15501,6,0,L|116:187,1,120,2|2,0:0|0:0,0:0:0:0:
113,151,16204,1,0,0:0:0:0:
113,151,16438,2,0,L|240:168,1,120,2|2,0:0|0:0,0:0:0:0:
279,175,17141,1,0,0:0:0:0:
326,179,17376,2,0,P|349:150|367:86,2,90,2|0|0,0:0|0:0|0:0,0:0:0:0:
292,213,18313,2,0,P|269:242|250:336,1,120,2|2,0:0|0:0,0:0:0:0:
166,370,19251,6,0,P|155:311|122:261,1,120,2|2,0:0|0:0,0:0:0:0:
71,180,20188,2,0,P|81:121|114:71,1,120,2|2,0:0|0:0,0:0:0:0:
196,121,21126,2,0,P|263:139|371:82,1,180,2|0,0:0|0:0,0:0:0:0:
396,63,22063,2,0,L|386:191,1,120,2|2,0:0|0:0,0:0:0:0:
427,269,23001,6,0,P|391:279|304:236,1,120,2|2,0:0|0:0,0:0:0:0:
288,211,23704,1,0,0:0:0:0:
288,211,23938,2,0,P|237:180|179:188,1,120,2|2,0:0|0:0,0:0:0:0:
145,221,24641,1,0,0:0:0:0:
118,261,24876,2,0,L|144:368,2,90,2|0|0,0:0|0:0|0:0,0:0:0:0:
78,233,25813,2,0,L|88:104,1,120,2|2,0:0|0:0,0:0:0:0:
169,63,26751,6,0,B|209:52|209:52|286:62,1,120,2|2,0:0|0:0,0:0:0:0:
333,146,27688,2,0,B|293:157|293:157|216:147,1,120,2|2,0:0|0:0,0:0:0:0:
125,181,28626,2,0,P|149:216|215:244,2,90,2|0|0,0:0|0:0|0:0,0:0:0:0:
108,136,29563,2,0,P|84:101|-4:74,1,120,2|2,0:0|0:0,0:0:0:0:
21,168,30501,6,0,L|35:298,1,120,2|2,0:0|0:0,0:0:0:0:
113,340,31438,1,2,0:0:0:0:
197,296,31907,2,0,P|224:281|278:193,1,120,2|2,0:0|0:0,0:0:0:0:
308,119,32844,1,2,0:0:0:0:
239,51,33313,2,0,L|170:60,1,60,2|0,0:0|0:0,0:0:0:0:
134,76,33782,2,0,L|74:68,1,60,2|0,0:0|0:0,0:0:0:0:
31,89,34251,6,0,L|54:216,1,120,2|2,0:0|0:0,0:0:0:0:
33,301,35188,1,2,0:0:0:0:
119,343,35657,1,2,0:0:0:0:
201,294,36126,2,0,B|224:258|224:258|212:174,1,120,2|2,0:0|0:0,0:0:0:0:
145,113,37063,1,2,0:0:0:0:
219,51,37532,2,0,L|288:60,1,60,2|0,0:0|0:0,0:0:0:0:
321,36,38001,5,2,0:0:0:0:
372,116,38469,2,0,L|359:236,1,120,2|2,0:0|0:0,0:0:0:0:
351,282,39172,1,0,0:0:0:0:
340,328,39407,2,0,P|308:336|275:333,1,60,2|0,0:0|0:0,0:0:0:0:
239,309,39876,2,0,P|209:307|180:315,1,60,2|0,0:0|0:0,0:0:0:0:
135,332,40344,2,0,P|95:338|53:269,1,120,2|2,0:0|0:0,0:0:0:0:
76,239,41047,1,0,0:0:0:0:
120,220,41282,2,0,L|192:226,1,60,2|0,0:0|0:0,0:0:0:0:
227,226,41751,6,0,L|209:96,1,120,2|2,0:0|0:0,0:0:0:0:
138,43,42688,2,0,L|121:161,1,120,2|2,0:0|0:0,0:0:0:0:
43,217,43626,1,2,0:0:0:0:
132,250,44094,2,0,P|167:238|209:160,1,120,2|2,0:0|0:0,0:0:0:0:
195,74,45032,1,2,0:0:0:0:
285,106,45501,5,10,0:0:0:0:
319,195,45969,2,0,L|311:259,1,60,2|8,0:0|0:0,0:0:0:0:
337,295,46438,2,0,L|200:278,1,120,2|2,0:0|0:0,0:0:0:0:
127,313,47376,2,0,P|120:272|132:236,1,60,10|0,0:0|0:0,0:0:0:0:
159,222,47844,2,0,P|168:194|145:89,1,120,10|10,0:0|0:0,0:0:0:0:
72,57,48782,1,2,0:0:0:0:
162,25,49251,6,0,L|289:31,1,120,2|2,0:0|0:0,0:0:0:0:
376,47,50188,2,0,P|366:76|339:106,1,60,10|0,0:0|0:0,0:0:0:0:
306,122,50657,2,0,P|288:145|278:173,1,60,10|0,0:0|0:0,0:0:0:0:
281,221,51126,2,0,P|271:250|191:314,1,120,2|2,0:0|0:0,0:0:0:0:
110,310,52063,2,0,P|61:275|35:221,1,120,2|2,0:0|0:0,0:0:0:0:
29,125,53001,5,10,0:0:0:0:
116,164,53469,2,0,L|188:158,1,60,2|8,0:0|0:0,0:0:0:0:
223,153,53938,1,2,0:0:0:0:
293,218,54407,1,2,0:0:0:0:
373,164,54876,2,0,P|384:130|381:85,1,60,10|0,0:0|0:0,0:0:0:0:
381,58,55344,2,0,L|261:74,1,120,10|10,0:0|0:0,0:0:0:0:
173,36,56282,1,2,0:0:0:0:
116,113,56751,6,0,L|129:241,1,120,2|2,0:0|0:0,0:0:0:0:
134,280,57454,1,8,0:0:0:0:
142,327,57688,2,0,P|171:336|264:300,1,120,2|10,0:0|0:0,0:0:0:0:
291,280,58391,1,0,0:0:0:0:
326,247,58626,2,0,L|319:175,1,60,10|0,0:0|0:0,0:0:0:0:
289,150,59094,2,0,L|294:90,1,60,2|0,0:0|0:0,0:0:0:0:
271,48,59563,2,0,B|204:83|116:17|116:17|136:70|95:107|94:107|146:138|216:144,1,360,10|0,0:0|0:0,0:0:0:0:
107,321,62376,6,0,L|96:187,1,120,4|8,0:0|0:0,0:0:0:0:
94,153,63079,1,0,0:0:0:0:
90,105,63313,2,0,P|116:83|197:113,1,120,4|8,0:0|0:0,0:0:0:0:
210,148,64016,1,0,0:0:0:0:
247,177,64251,2,0,L|316:165,1,60,4|0,0:0|0:0,0:0:0:0:
350,185,64719,2,0,L|409:195,1,60,8|0,0:0|0:0,0:0:0:0:
454,178,65188,2,0,L|462:304,1,120,4|10,0:0|0:0,0:0:0:0:
465,345,65891,1,2,0:0:0:0:
421,324,66126,6,0,L|291:301,1,120,4|8,0:0|0:0,0:0:0:0:
238,232,67063,2,0,L|368:209,1,120,4|8,0:0|0:0,0:0:0:0:
448,238,68001,2,0,P|447:183|290:141,1,240,4|4,0:0|0:0,0:0:0:0:
230,204,69407,1,10,0:0:0:0:
151,258,69876,6,0,P|136:223|173:129,1,120,4|8,0:0|0:0,0:0:0:0:
189,112,70579,1,0,0:0:0:0:
233,94,70813,2,0,P|262:89|293:93,1,60,4|0,0:0|0:0,0:0:0:0:
339,98,71282,2,0,P|368:101|398:96,1,60,8|0,0:0|0:0,0:0:0:0:
440,72,71751,2,0,L|429:210,1,120,4|8,0:0|0:0,0:0:0:0:
426,239,72454,1,0,0:0:0:0:
413,285,72688,2,0,P|379:298|289:255,1,120,4|10,0:0|0:0,0:0:0:0:
270,237,73391,1,2,0:0:0:0:
238,200,73626,6,0,P|184:174|127:187,1,120,4|8,0:0|0:0,0:0:0:0:
173,271,74563,1,4,0:0:0:0:
255,319,75032,2,0,L|381:313,1,120,8|4,0:0|0:0,0:0:0:0:
445,248,75969,1,8,0:0:0:0:
362,199,76438,2,0,P|334:145|331:121,1,60,4|10,0:0|0:0,0:0:0:0:
372,117,76907,2,0,P|389:92|399:64,1,60,2|10,0:0|0:0,0:0:0:0:
361,47,77376,6,0,L|231:63,1,120,4|8,0:0|0:0,0:0:0:0:
195,73,78079,1,0,0:0:0:0:
161,106,78313,2,0,P|147:135|142:169,1,60,4|0,0:0|0:0,0:0:0:0:
165,204,78782,2,0,P|179:233|184:267,1,60,8|0,0:0|0:0,0:0:0:0:
173,307,79251,2,0,L|302:295,1,120,4|8,0:0|0:0,0:0:0:0:
331,323,79954,1,0,0:0:0:0:
372,299,80188,2,0,P|362:254|292:217,1,120,4|10,0:0|0:0,0:0:0:0:
254,219,80891,1,2,0:0:0:0:
205,217,81126,6,0,P|152:190|135:134,1,120,4|8,0:0|0:0,0:0:0:0:
208,72,82063,2,0,L|342:88,1,120,4|8,0:0|0:0,0:0:0:0:
412,41,83001,1,4,0:0:0:0:
468,118,83469,1,8,0:0:0:0:
409,194,83938,2,0,L|341:202,1,60,4|10,0:0|0:0,0:0:0:0:
303,216,84407,2,0,L|243:208,1,60,10|2,0:0|0:0,0:0:0:0:
204,237,84876,6,0,L|73:247,1,120,4|8,0:0|0:0,0:0:0:0:
36,252,85579,1,0,0:0:0:0:
58,209,85813,2,0,P|81:176|73:83,1,120,4|8,0:0|0:0,0:0:0:0:
63,53,86516,1,0,0:0:0:0:
98,20,86751,2,0,L|159:32,1,60,4|0,0:0|0:0,0:0:0:0:
202,46,87219,2,0,L|260:34,1,60,8|0,0:0|0:0,0:0:0:0:
303,12,87688,2,0,L|431:29,1,120,4|10,0:0|0:0,0:0:0:0:
447,68,88391,1,2,0:0:0:0:
474,107,88626,6,0,B|500:154|500:154|482:229,1,120,4|8,0:0|0:0,0:0:0:0:
404,271,89563,2,0,P|368:278|298:227,1,120,4|8,0:0|0:0,0:0:0:0:
255,150,90501,2,0,P|237:110|60:112,1,240,4|4,0:0|0:0,0:0:0:0:
42,196,91907,2,0,L|50:263,1,60,10|2,0:0|0:0,0:0:0:0:
56,303,92376,1,0,0:0:0:0:
