osu file format v14

[General]
AudioFilename: audio.mp3
AudioLeadIn: 0
PreviewTime: 61386
Countdown: 0
SampleSet: Soft
StackLeniency: 0.7
Mode: 0
LetterboxInBreaks: 0
WidescreenStoryboard: 0

[Editor]
Bookmarks: 14980,30449,45449,62324
DistanceSpacing: 1.4
BeatDivisor: 4
GridSize: 4
TimelineZoom: 1

[Metadata]
Title:Real
TitleUnicode:Rё∀˥
Artist:Cyua
ArtistUnicode:Cyua
Creator:Come[Back]Home
Version:Light Extra
Source:ギルティクラウン
Tags:Cellina Guilty Crown Original Soundtrack
BeatmapID:1261456
BeatmapSetID:468313

[Difficulty]
HPDrainRate:6.5
CircleSize:4
OverallDifficulty:8
ApproachRate:9.3
SliderMultiplier:1.9
SliderTickRate:1

[Events]
//Background and Video events
0,0,"BGccoly.jpg",0,0
//Break Periods
//Storyboard Layer 0 (Background)
//Storyboard Layer 1 (Fail)
//Storyboard Layer 2 (Pass)
//Storyboard Layer 3 (Foreground)
//Storyboard Sound Samples

[TimingPoints]
501,468.75,4,2,0,70,1,0
501,-117.647058823529,4,2,0,70,0,0
15501,-100,4,2,2,70,0,0
45501,-86.9565217391304,4,2,2,70,0,0
62376,-50,4,2,1,70,0,1
76438,-50,4,2,1,70,0,0
77376,-50,4,2,1,70,0,1
83938,-50,4,2,1,70,0,0
84876,-50,4,2,1,70,0,1
92376,-50,4,2,1,70,0,0

[Colours]
Combo1 : 255,128,192
Combo2 : 128,255,255
Combo3 : 192,192,192
Combo4 : 128,255,128

[HitObjects]
133,320,15501,6,0,L|118:212,1,95,2|0,0:0|0:0,0:0:0:0:
340,220,15969,2,0,P|298:241|251:243,1,95,2|0,0:0|0:0,0:0:0:0:
418,112,16438,2,0,P|375:91|328:89,1,95,2|0,0:0|0:0,0:0:0:0:
283,290,16907,2,0,P|321:262|340:219,1,95,2|0,0:0|0:0,0:0:0:0:
212,184,17376,6,0,L|44:199,1,142.5,2|0,0:0|0:0,0:0:0:0:
4,205,17844,1,2,0:0:0:0:
57,83,18079,1,0,0:0:0:0:
133,277,18313,2,0,L|121:390,1,95,2|0,0:0|0:0,0:0:0:0:
246,231,18782,2,0,L|235:136,1,95,2|0,0:0|0:0,0:0:0:0:
471,38,19251,6,0,P|447:127|365:168,1,190,2|2,0:0|0:0,0:0:0:0:
255,92,19954,1,0,0:0:0:0:
160,185,20188,2,0,L|175:297,1,95,2|0,0:0|0:0,0:0:0:0:
70,365,20657,1,2,0:0:0:0:
266,222,20891,1,0,0:0:0:0:
52,61,21126,6,0,L|75:268,1,190,2|2,0:0|0:0,0:0:0:0:
171,339,21829,1,0,0:0:0:0:
277,259,22063,2,0,L|268:196,1,47.5,2|0,0:0|0:0,0:0:0:0:
264,179,22297,1,0,0:0:0:0:
260,146,22415,1,0,0:0:0:0:
256,113,22532,1,2,0:0:0:0:
376,169,22766,1,0,0:0:0:0:
163,291,23001,6,0,B|49:270|49:270|133:241,1,190,2|2,0:0|0:0,0:0:0:0:
245,204,23704,1,0,0:0:0:0:
356,276,23938,2,0,L|338:386,1,95,2|0,0:0|0:0,0:0:0:0:
245,204,24407,2,0,P|282:164|337:146,1,95,2|0,0:0|0:0,0:0:0:0:
201,85,24876,6,0,P|148:87|44:28,1,142.5,2|0,0:0|0:0,0:0:0:0:
12,14,25344,1,2,0:0:0:0:
47,142,25579,1,0,0:0:0:0:
79,270,25813,2,0,L|64:378,1,95,2|0,0:0|0:0,0:0:0:0:
186,293,26165,1,0,0:0:0:0:
186,293,26282,2,0,L|171:185,1,95,2|0,0:0|0:0,0:0:0:0:
492,246,26751,6,0,L|304:220,1,190,2|2,0:0|0:0,0:0:0:0:
241,101,27454,1,0,0:0:0:0:
133,178,27688,2,0,L|148:279,1,95,2|0,0:0|0:0,0:0:0:0:
37,348,28157,1,2,0:0:0:0:
275,234,28391,1,0,0:0:0:0:
454,340,28626,6,0,L|433:177,1,142.5,2|0,0:0|0:0,0:0:0:0:
487,156,29094,1,2,0:0:0:0:
372,87,29329,1,0,0:0:0:0:
286,188,29563,2,0,L|209:197,1,47.5,2|0,0:0|0:0,0:0:0:0:
205,196,29797,1,0,0:0:0:0:
172,201,29915,1,0,0:0:0:0:
139,205,30032,1,2,0:0:0:0:
212,94,30266,1,0,0:0:0:0:
326,345,30501,5,2,0:0:0:0:
326,345,30969,2,0,L|340:246,1,95,2|0,0:0|0:0,0:0:0:0:
116,301,31438,2,0,L|211:288,1,95,2|0,0:0|0:0,0:0:0:0:
139,72,31907,2,0,L|153:167,1,95,2|0,0:0|0:0,0:0:0:0:
409,86,32376,6,0,L|268:100,1,142.5,2|0,0:0|0:0,0:0:0:0:
268,100,32844,2,0,L|305:243,1,142.5,2|0,0:0|0:0,0:0:0:0:
325,301,33313,1,2,0:0:0:0:
474,145,33547,1,0,0:0:0:0:
423,376,33782,1,2,0:0:0:0:
340,166,34016,1,0,0:0:0:0:
214,316,34251,6,0,L|111:305,1,95,2|0,0:0|0:0,0:0:0:0:
180,188,34719,2,0,P|196:123|147:31,1,142.5,2|0,0:0|0:0,0:0:0:0:
115,15,35188,2,0,L|51:27,1,47.5,2|0,0:0|0:0,0:0:0:0:
8,142,35540,2,0,L|72:154,1,47.5,0|2,0:0|0:0,0:0:0:0:
105,273,35891,1,0,0:0:0:0:
219,205,36126,6,0,B|254:154|254:154|238:61,1,142.5,2|0,0:0|0:0,0:0:0:0:
240,74,36594,2,0,P|311:92|426:97,1,142.5,2|0,0:0|0:0,0:0:0:0:
379,98,37063,2,0,L|401:201,1,95,2|0,0:0|0:0,0:0:0:0:
323,301,37532,1,2,0:0:0:0:
490,138,37766,1,0,0:0:0:0:
253,61,38001,5,2,0:0:0:0:
256,94,38118,1,0,0:0:0:0:
259,127,38235,1,0,0:0:0:0:
262,160,38352,1,0,0:0:0:0:
265,193,38469,2,0,L|87:170,1,142.5,2|0,0:0|0:0,0:0:0:0:
57,162,38938,1,2,0:0:0:0:
132,271,39172,1,0,0:0:0:0:
174,61,39407,1,2,0:0:0:0:
132,271,39641,1,0,0:0:0:0:
72,37,39876,5,2,0:0:0:0:
266,182,40110,1,0,0:0:0:0:
61,326,40344,2,0,P|42:275|54:223,1,95,2|0,0:0|0:0,0:0:0:0:
93,42,40813,5,2,0:0:0:0:
287,187,41047,1,0,0:0:0:0:
82,331,41281,2,0,P|63:280|75:228,1,95,2|0,0:0|0:0,0:0:0:0:
196,281,41751,5,2,0:0:0:0:
186,279,41868,1,0,0:0:0:0:
176,277,41985,1,0,0:0:0:0:
166,275,42102,1,0,0:0:0:0:
156,274,42219,2,0,L|55:255,1,95,2|0,0:0|0:0,0:0:0:0:
106,31,42688,1,2,0:0:0:0:
108,41,42805,1,0,0:0:0:0:
110,51,42922,1,0,0:0:0:0:
112,61,43039,1,0,0:0:0:0:
113,71,43156,2,0,L|132:172,1,95,2|0,0:0|0:0,0:0:0:0:
245,96,43626,6,0,L|358:107,1,95,2|0,0:0|0:0,0:0:0:0:
231,302,44094,2,0,P|263:268|280:224,1,95,2|0,0:0|0:0,0:0:0:0:
114,128,44563,2,0,P|130:172|155:197,1,47.5,2|0,0:0|0:0,0:0:0:0:
301,72,44915,2,0,P|311:50|317:27,1,47.5,0|2,0:0|0:0,0:0:0:0:
203,23,45266,1,0,0:0:0:0:
138,276,45501,5,10,0:0:0:0:
438,328,45969,2,0,L|424:210,1,109.250002083778,2|8,0:0|0:0,0:0:0:0:
283,277,46438,2,0,B|209:285|209:285|93:247,1,163.875003125668,2|8,0:0|0:0,0:0:0:0:
50,234,46907,2,0,P|61:178|48:122,1,109.250002083778,2|0,0:0|0:0,0:0:0:0:
199,165,47376,6,0,L|312:152,1,109.250002083778,10|0,0:0|0:0,0:0:0:0:
451,284,47844,2,0,P|377:317|298:304,1,163.875003125668,10|0,0:0|0:0,0:0:0:0:
227,274,48313,2,0,P|166:256|105:254,1,109.250002083778,10|0,0:0|0:0,0:0:0:0:
52,289,48665,1,0,0:0:0:0:
10,225,48782,2,0,L|24:108,1,109.250002083778,2|8,0:0|0:0,0:0:0:0:
166,170,49251,6,0,P|234:175|285:153,1,109.250002083778,2|0,0:0|0:0,0:0:0:0:
338,124,49602,1,8,0:0:0:0:
338,124,49719,2,0,L|318:256,1,109.250002083778,2|0,0:0|0:0,0:0:0:0:
442,326,50188,1,10,0:0:0:0:
210,358,50422,1,0,0:0:0:0:
410,330,50657,1,10,0:0:0:0:
116,236,50891,1,0,0:0:0:0:
307,30,51126,6,0,L|288:205,1,163.875003125668,2|8,0:0|0:0,0:0:0:0:
338,251,51594,2,0,P|281:269|212:197,1,163.875003125668,2|0,0:0|0:0,0:0:0:0:
197,127,52063,2,0,P|148:65|71:79,1,163.875003125668,2|8,0:0|0:0,0:0:0:0:
44,151,52532,2,0,L|51:267,1,109.250002083778,2|0,0:0|0:0,0:0:0:0:
175,349,53001,5,10,0:0:0:0:
442,202,53469,2,0,L|431:81,1,109.250002083778,2|8,0:0|0:0,0:0:0:0:
289,150,53938,2,0,P|230:167|128:99,1,163.875003125668,2|8,0:0|0:0,0:0:0:0:
95,61,54407,2,0,L|125:235,1,163.875003125668,2|0,0:0|0:0,0:0:0:0:
86,290,54876,5,10,0:0:0:0:
253,142,55110,1,0,0:0:0:0:
248,373,55344,2,0,P|211:320|202:253,1,109.250002083778,10|0,0:0|0:0,0:0:0:0:
393,163,55813,2,0,P|379:215|346:258,1,109.250002083778,10|0,0:0|0:0,0:0:0:0:
147,149,56282,2,0,P|211:147|268:174,1,109.250002083778,2|8,0:0|0:0,0:0:0:0:
170,292,56751,5,2,0:0:0:0:
172,281,56868,1,0,0:0:0:0:
174,270,56985,1,0,0:0:0:0:
176,259,57102,1,8,0:0:0:0:
178,248,57219,1,2,0:0:0:0:
58,151,57454,1,8,0:0:0:0:
187,70,57688,1,2,0:0:0:0:
197,73,57805,1,0,0:0:0:0:
207,76,57922,1,0,0:0:0:0:
217,79,58040,1,0,0:0:0:0:
227,82,58157,1,10,0:0:0:0:
355,54,58391,1,0,0:0:0:0:
308,176,58626,5,10,0:0:0:0:
277,7,58860,1,0,0:0:0:0:
419,149,59094,5,2,0:0:0:0:
193,82,59329,1,0,0:0:0:0:
460,10,59563,5,10,0:0:0:0:
256,192,59680,12,0,61438,0:0:0:0:
134,294,61907,5,0,0:0:0:0:
316,229,62141,1,0,0:0:0:0:
134,294,62376,6,0,B|85:186|85:186|97:100,1,190,4|0,0:0|0:0,0:0:0:0:
174,33,62727,1,0,0:0:0:0:
269,95,62844,2,0,L|399:86,1,95,8|0,0:0|0:0,0:0:0:0:
338,289,63079,2,0,P|324:244|327:197,1,95,0|0,0:0|0:0,0:0:0:0:
432,225,63313,6,0,L|223:246,1,190,4|0,0:0|0:0,0:0:0:0:
171,333,63665,1,0,0:0:0:0:
72,275,63782,2,0,B|41:222|41:222|69:81,1,190,8|0,0:0|0:0,0:0:0:0:
151,20,64133,1,0,0:0:0:0:
229,103,64251,6,0,P|352:130|426:83,1,190,4|0,0:0|0:0,0:0:0:0:
476,15,64602,1,0,0:0:0:0:
506,124,64719,2,0,L|489:268,1,95,8|0,0:0|0:0,0:0:0:0:
413,299,64954,2,0,P|392:248|352:205,1,95,0|0,0:0|0:0,0:0:0:0:
201,297,65188,6,0,P|247:307|295:305,1,95,4|0,0:0|0:0,0:0:0:0:
304,115,65422,2,0,P|274:152|258:197,1,95,10|0,0:0|0:0,0:0:0:0:
182,110,65657,2,0,P|165:65|135:28,1,95,10|0,0:0|0:0,0:0:0:0:
66,118,65891,1,2,0:0:0:0:
69,136,66008,1,0,0:0:0:0:
72,154,66126,6,0,L|106:359,1,190,4|0,0:0|0:0,0:0:0:0:
219,375,66477,1,0,0:0:0:0:
308,304,66594,2,0,B|328:193|328:193|275:110,1,190,8|0,0:0|0:0,0:0:0:0:
189,65,66946,1,0,0:0:0:0:
293,20,67063,6,0,L|510:37,1,190,4|0,0:0|0:0,0:0:0:0:
501,148,67415,1,0,0:0:0:0:
466,256,67532,2,0,P|395:185|414:76,1,190,8|0,0:0|0:0,0:0:0:0:
461,5,67883,1,0,0:0:0:0:
346,10,68001,6,0,L|240:27,1,95,4|0,0:0|0:0,0:0:0:0:
74,86,68235,2,0,L|168:102,1,95,0|0,0:0|0:0,0:0:0:0:
131,296,68469,2,0,L|116:203,1,95,8|0,0:0|0:0,0:0:0:0:
321,207,68704,2,0,L|228:223,1,95,0|0,0:0|0:0,0:0:0:0:
264,115,68938,5,4,0:0:0:0:
245,304,69055,1,0,0:0:0:0:
262,141,69172,1,10,0:0:0:0:
348,335,69290,1,0,0:0:0:0:
202,206,69407,2,0,P|178:164|187:94,1,95,10|0,0:0|0:0,0:0:0:0:
448,192,69641,2,0,P|447:238|423:279,1,95,2|0,0:0|0:0,0:0:0:0:
332,209,69876,6,0,B|321:142|347:112|347:112|318:70|324:26,1,190,4|0,0:0|0:0,0:0:0:0:
436,40,70227,1,0,0:0:0:0:
246,113,70344,2,0,L|51:93,1,190,8|0,0:0|0:0,0:0:0:0:
70,207,70696,1,0,0:0:0:0:
162,272,70813,6,0,P|182:228|179:175,1,95,4|0,0:0|0:0,0:0:0:0:
100,6,71047,2,0,P|94:53|101:100,1,95,0|0,0:0|0:0,0:0:0:0:
254,44,71282,2,0,P|213:45|251:63,1,95,8|0,0:0|0:0,0:0:0:0:
350,197,71516,2,0,P|354:150|343:105,1,95,0|0,0:0|0:0,0:0:0:0:
274,259,71751,6,0,P|370:295|445:222,1,190,4|0,0:0|0:0,0:0:0:0:
488,148,72102,1,0,0:0:0:0:
408,69,72219,2,0,L|205:88,1,190,8|0,0:0|0:0,0:0:0:0:
121,26,72571,1,0,0:0:0:0:
65,125,72688,6,0,L|79:229,1,95,4|0,0:0|0:0,0:0:0:0:
256,115,72922,2,0,P|221:147|179:168,1,95,10|0,0:0|0:0,0:0:0:0:
393,277,73157,2,0,P|350:256|315:224,1,95,10|0,0:0|0:0,0:0:0:0:
426,70,73391,2,0,P|425:118|411:163,1,95,2|0,0:0|0:0,0:0:0:0:
315,98,73626,6,0,B|273:89|273:89|163:96|163:96|117:83,1,190,4|0,0:0|0:0,0:0:0:0:
38,14,73977,1,0,0:0:0:0:
27,127,74094,2,0,L|51:330,1,190,8|0,0:0|0:0,0:0:0:0:
143,381,74446,1,0,0:0:0:0:
227,304,74563,6,0,L|246:202,1,95,4|0,0:0|0:0,0:0:0:0:
439,249,74797,2,0,L|345:262,1,95,0|0,0:0|0:0,0:0:0:0:
400,59,75032,2,0,L|383:153,1,95,8|0,0:0|0:0,0:0:0:0:
198,109,75266,2,0,L|293:97,1,95,0|0,0:0|0:0,0:0:0:0:
267,208,75501,6,0,L|67:237,1,190,4|0,0:0|0:0,0:0:0:0:
13,142,75852,1,0,0:0:0:0:
104,74,75969,2,0,L|220:55,1,95,8|0,0:0|0:0,0:0:0:0:
301,9,76204,2,0,L|394:24,1,95,0|0,0:0|0:0,0:0:0:0:
368,213,76438,6,0,P|348:170|341:124,1,95,4|0,0:0|0:0,0:0:0:0:
454,135,76672,1,10,0:0:0:0:
269,176,76790,1,0,0:0:0:0:
475,238,76907,1,10,0:0:0:0:
256,76,77024,1,0,0:0:0:0:
340,302,77141,2,0,P|360:259|367:213,1,95,2|0,0:0|0:0,0:0:0:0:
153,74,77376,6,0,P|173:164|252:213,1,190,4|0,0:0|0:0,0:0:0:0:
267,100,77727,1,0,0:0:0:0:
267,100,77844,2,0,L|91:233,1,190,8|0,0:0|0:0,0:0:0:0:
52,310,78196,1,0,0:0:0:0:
52,310,78313,6,0,B|154:348|153:266|256:313,1,190,4|0,0:0|0:0,0:0:0:0:
347,333,78665,1,0,0:0:0:0:
347,333,78782,2,0,B|371:232|371:232|351:121,1,190,8|0,0:0|0:0,0:0:0:0:
330,36,79133,1,0,0:0:0:0:
238,105,79251,6,0,L|130:92,1,95,4|0,0:0|0:0,0:0:0:0:
30,82,79485,1,0,0:0:0:0:
30,82,79602,1,0,0:0:0:0:
30,82,79719,2,0,L|53:197,1,95,8|0,0:0|0:0,0:0:0:0:
117,341,79954,2,0,L|136:248,1,95,0|0,0:0|0:0,0:0:0:0:
332,276,80188,6,0,L|239:295,1,95,4|0,0:0|0:0,0:0:0:0:
495,205,80422,2,0,L|402:187,1,95,10|0,0:0|0:0,0:0:0:0:
288,168,80657,1,10,0:0:0:0:
361,81,80774,1,0,0:0:0:0:
332,276,80891,1,2,0:0:0:0:
265,71,81008,1,0,0:0:0:0:
108,259,81126,6,0,B|235:251|235:251|166:185,1,190,4|0,0:0|0:0,0:0:0:0:
95,144,81477,1,0,0:0:0:0:
201,103,81594,2,0,L|420:117,1,190,8|0,0:0|0:0,0:0:0:0:
505,119,81946,1,0,0:0:0:0:
432,206,82063,6,0,B|286:197|286:197|239:251,1,190,4|0,0:0|0:0,0:0:0:0:
199,329,82415,1,0,0:0:0:0:
93,285,82532,2,0,P|57:184|82:100,1,190,8|0,0:0|0:0,0:0:0:0:
151,20,82883,1,0,0:0:0:0:
196,125,83001,6,0,P|291:142|387:92,1,190,4|0,0:0|0:0,0:0:0:0:
458,29,83352,1,0,0:0:0:0:
501,134,83469,2,0,L|482:260,1,95,8|0,0:0|0:0,0:0:0:0:
398,372,83704,2,0,L|384:279,1,95,0|0,0:0|0:0,0:0:0:0:
189,311,83938,6,0,P|232:328|280:327,1,95,4|0,0:0|0:0,0:0:0:0:
233,126,84172,2,0,P|231:173|249:217,1,95,10|0,0:0|0:0,0:0:0:0:
418,98,84407,2,0,P|387:133|345:155,1,95,10|0,0:0|0:0,0:0:0:0:
226,4,84641,2,0,P|271:17|309:46,1,95,2|0,0:0|0:0,0:0:0:0:
212,108,84876,6,0,L|-4:124,1,190,4|0,0:0|0:0,0:0:0:0:
71,224,85227,1,0,0:0:0:0:
71,224,85344,2,0,L|260:209,1,190,8|0,0:0|0:0,0:0:0:0:
322,306,85696,1,0,0:0:0:0:
425,258,85813,6,0,B|465:164|465:164|428:45,1,190,4|0,0:0|0:0,0:0:0:0:
355,1,86165,1,0,0:0:0:0:
294,97,86282,2,0,L|178:82,1,95,8|0,0:0|0:0,0:0:0:0:
87,65,86516,1,0,0:0:0:0:
87,65,86633,1,0,0:0:0:0:
87,65,86751,6,0,L|117:283,1,190,4|0,0:0|0:0,0:0:0:0:
47,346,87102,1,0,0:0:0:0:
159,364,87219,2,0,B|218:348|218:348|289:363|289:363|358:342,1,190,8|0,0:0|0:0,0:0:0:0:
452,311,87571,1,0,0:0:0:0:
366,236,87688,6,0,P|351:186|351:119,1,95,4|0,0:0|0:0,0:0:0:0:
261,3,87922,2,0,P|258:50|244:96,1,95,10|0,0:0|0:0,0:0:0:0:
53,63,88157,2,0,P|96:43|144:39,1,95,10|0,0:0|0:0,0:0:0:0:
260,209,88391,2,0,P|212:204|169:184,1,95,2|0,0:0|0:0,0:0:0:0:
377,121,88626,6,0,L|354:345,1,190,4|0,0:0|0:0,0:0:0:0:
256,362,88977,1,0,0:0:0:0:
177,279,89094,2,0,B|160:172|160:172|194:78,1,190,8|0,0:0|0:0,0:0:0:0:
285,34,89446,1,0,0:0:0:0:
269,146,89563,6,0,L|59:127,1,190,4|0,0:0|0:0,0:0:0:0:
26,27,89915,1,0,0:0:0:0:
134,61,90032,2,0,P|165:160|94:214,1,190,8|0,0:0|0:0,0:0:0:0:
1,248,90383,1,0,0:0:0:0:
84,326,90501,6,0,L|289:308,1,190,4|0,0:0|0:0,0:0:0:0:
386,299,90852,1,0,0:0:0:0:
316,208,90969,2,0,L|297:106,1,95,8|0,0:0|0:0,0:0:0:0:
205,48,91204,2,0,P|191:98|152:142,1,95,0|0,0:0|0:0,0:0:0:0:
136,306,91438,6,0,P|108:268|97:223,1,95,4|0,0:0|0:0,0:0:0:0:
293,177,91672,2,0,P|255:205|210:217,1,95,10|0,0:0|0:0,0:0:0:0:
211,102,91907,1,10,0:0:0:0:
320,270,92024,1,0,0:0:0:0:
306,29,92141,1,2,0:0:0:0:
210,217,92258,1,0,0:0:0:0:
411,97,92376,1,0,0:0:0:0:
