osu file format v14

[General]
AudioFilename: audio.mp3
AudioLeadIn: 0
PreviewTime: 61386
Countdown: 0
SampleSet: Soft
StackLeniency: 0.7
Mode: 0
LetterboxInBreaks: 0
WidescreenStoryboard: 0

[Editor]
Bookmarks: 14980,30449,45449,62324
DistanceSpacing: 1.4
BeatDivisor: 4
GridSize: 4
TimelineZoom: 1

[Metadata]
Title:Real
TitleUnicode:Rё∀˥
Artist:Cyua
ArtistUnicode:Cyua
Creator:Come[Back]Home
Version:Insane
Source:ギルティクラウン
Tags:Cellina Guilty Crown Original Soundtrack
BeatmapID:1001696
BeatmapSetID:468313

[Difficulty]
HPDrainRate:6
CircleSize:4
OverallDifficulty:7
ApproachRate:9
SliderMultiplier:1.7
SliderTickRate:1

[Events]
//Background and Video events
0,0,"BGccoly.jpg",0,0
//Break Periods
//Storyboard Layer 0 (Background)
//Storyboard Layer 1 (Fail)
//Storyboard Layer 2 (Pass)
//Storyboard Layer 3 (Foreground)
//Storyboard Sound Samples

[TimingPoints]
501,468.75,4,2,0,70,1,0
501,-117.647058823529,4,2,2,70,0,0
15501,-100,4,2,2,70,0,0
45501,-86.9565217391304,4,2,2,70,0,0
62376,-50,4,2,1,70,0,1
76438,-50,4,2,1,70,0,0
77376,-50,4,2,1,70,0,1
83938,-50,4,2,1,70,0,0
84876,-50,4,2,1,70,0,1
92376,-50,4,2,1,70,0,0

[Colours]
Combo1 : 255,128,192
Combo2 : 128,255,255
Combo3 : 192,192,192
Combo4 : 128,255,128

[HitObjects]
96,334,15501,6,0,L|84:216,1,85,2|0,0:0|0:0,0:0:0:0:
141,143,15969,2,0,L|149:58,1,85,2|0,0:0|0:0,0:0:0:0:
252,118,16438,2,0,P|293:127|349:106,1,85,2|0,0:0|0:0,0:0:0:0:
421,34,16907,1,2,0:0:0:0:
333,116,17141,1,0,0:0:0:0:
418,198,17376,6,0,B|435:248|435:248|416:333,1,127.5,2|0,0:0|0:0,0:0:0:0:
407,379,17844,2,0,L|313:361,1,85,2|0,0:0|0:0,0:0:0:0:
226,293,18313,2,0,L|142:308,1,85,2|0,0:0|0:0,0:0:0:0:
168,192,18782,1,2,0:0:0:0:
42,374,19016,1,0,0:0:0:0:
100,144,19251,6,0,P|133:115|247:173,1,170,2|2,0:0|0:0,0:0:0:0:
265,268,19954,1,0,0:0:0:0:
360,197,20188,2,0,L|353:101,1,85,2|0,0:0|0:0,0:0:0:0:
441,31,20657,1,2,0:0:0:0:
353,112,20891,1,0,0:0:0:0:
444,188,21126,6,0,L|462:371,1,170,2|2,0:0|0:0,0:0:0:0:
372,276,21829,1,0,0:0:0:0:
372,157,22063,2,0,P|403:121|458:114,1,85,2|0,0:0|0:0,0:0:0:0:
268,217,22532,1,2,0:0:0:0:
238,220,22649,1,0,0:0:0:0:
208,223,22766,1,0,0:0:0:0:
178,227,22883,1,0,0:0:0:0:
148,231,23001,6,0,L|163:43,1,170,2|2,0:0|0:0,0:0:0:0:
257,132,23704,1,0,0:0:0:0:
310,238,23938,2,0,L|413:232,1,85,2|0,0:0|0:0,0:0:0:0:
465,329,24407,1,2,0:0:0:0:
394,233,24641,1,0,0:0:0:0:
258,349,24876,6,0,L|270:195,1,127.5,2|0,0:0|0:0,0:0:0:0:
275,162,25344,1,2,0:0:0:0:
164,206,25579,1,0,0:0:0:0:
345,316,25813,2,0,L|434:300,1,85,2|0,0:0|0:0,0:0:0:0:
428,300,26165,1,0,0:0:0:0:
428,300,26282,1,2,0:0:0:0:
483,195,26516,1,0,0:0:0:0:
286,65,26751,6,0,L|300:243,1,170,2|2,0:0|0:0,0:0:0:0:
212,316,27454,1,0,0:0:0:0:
387,158,27688,2,0,P|396:114|380:65,1,85,2|0,0:0|0:0,0:0:0:0:
141,172,28157,2,0,P|131:213|140:254,1,85,2|0,0:0|0:0,0:0:0:0:
213,104,28626,6,0,P|164:76|72:105,1,127.5,2|0,0:0|0:0,0:0:0:0:
50,124,29094,1,2,0:0:0:0:
109,227,29329,1,0,0:0:0:0:
222,192,29563,1,2,0:0:0:0:
250,198,29680,1,0,0:0:0:0:
278,204,29797,1,0,0:0:0:0:
307,210,29915,1,0,0:0:0:0:
335,216,30032,2,0,B|445:236|445:236|408:172,1,170,2|2,0:0|0:0,0:0:0:0:
219,51,30969,6,0,L|128:64,1,85,2|0,0:0|0:0,0:0:0:0:
66,160,31438,2,0,L|150:172,1,85,2|0,0:0|0:0,0:0:0:0:
253,231,31907,2,0,P|269:280|261:333,1,85,2|0,0:0|0:0,0:0:0:0:
147,290,32376,6,0,B|127:243|127:243|161:113,1,170,2|2,0:0|0:0,0:0:0:0:
271,95,33079,1,0,0:0:0:0:
182,15,33313,2,0,L|127:20,2,42.5,2|0|0,0:0|0:0|0:0,0:0:0:0:
238,209,33782,2,0,L|325:218,1,85,2|0,0:0|0:0,0:0:0:0:
399,309,34251,5,2,0:0:0:0:
321,119,34485,1,0,0:0:0:0:
160,276,34719,2,0,P|133:217|216:122,1,170,2|2,0:0|0:0,0:0:0:0:
181,131,35305,1,0,0:0:0:0:
281,196,35540,1,0,0:0:0:0:
281,196,35657,1,2,0:0:0:0:
399,187,35891,1,0,0:0:0:0:
262,320,36126,6,0,B|216:326|216:326|177:314|177:314|126:321,1,127.5,2|0,0:0|0:0,0:0:0:0:
137,319,36594,2,0,B|131:273|131:273|143:234|143:234|136:183,1,127.5,2|0,0:0|0:0,0:0:0:0:
137,194,37063,2,0,B|176:188|176:188|215:200|215:200|261:194,1,127.5,2|0,0:0|0:0,0:0:0:0:
261,194,37532,2,0,L|281:281,1,85,2|0,0:0|0:0,0:0:0:0:
392,318,38001,6,0,L|399:271,1,42.5,2|0,0:0|0:0,0:0:0:0:
468,189,38235,2,0,L|461:146,1,42.5,0|0,0:0|0:0,0:0:0:0:
498,42,38469,2,0,L|401:28,1,85,2|0,0:0|0:0,0:0:0:0:
331,116,38938,1,2,0:0:0:0:
413,29,39172,1,0,0:0:0:0:
355,199,39407,2,0,P|299:199|257:156,1,85,2|0,0:0|0:0,0:0:0:0:
191,100,39876,5,2,0:0:0:0:
219,319,40110,1,0,0:0:0:0:
191,100,40344,2,0,L|102:110,1,85,2|0,0:0|0:0,0:0:0:0:
39,233,40813,5,2,0:0:0:0:
116,37,41047,1,0,0:0:0:0:
79,306,41282,2,0,P|111:273|119:205,1,85,2|0,0:0|0:0,0:0:0:0:
230,285,41751,5,2,0:0:0:0:
242,287,41868,1,0,0:0:0:0:
254,289,41985,1,0,0:0:0:0:
266,290,42102,1,0,0:0:0:0:
278,292,42219,1,2,0:0:0:0:
367,371,42454,1,0,0:0:0:0:
450,286,42688,5,2,0:0:0:0:
444,256,42805,1,0,0:0:0:0:
438,226,42922,1,0,0:0:0:0:
432,196,43040,1,0,0:0:0:0:
426,166,43157,1,2,0:0:0:0:
478,59,43391,1,0,0:0:0:0:
478,59,43508,1,0,0:0:0:0:
478,59,43626,5,2,0:0:0:0:
324,174,43860,1,0,0:0:0:0:
324,174,43977,1,0,0:0:0:0:
324,174,44095,1,2,0:0:0:0:
256,28,44329,1,0,0:0:0:0:
188,174,44563,1,2,0:0:0:0:
188,174,44680,1,0,0:0:0:0:
34,59,44915,1,0,0:0:0:0:
34,59,45032,1,2,0:0:0:0:
69,172,45266,1,0,0:0:0:0:
14,297,45501,5,10,0:0:0:0:
48,295,45618,1,0,0:0:0:0:
82,293,45735,1,0,0:0:0:0:
216,276,45969,2,0,L|206:201,1,48.8750009322167,2|0,0:0|0:0,0:0:0:0:
184,204,46204,2,0,L|194:129,1,48.8750009322167,8|0,0:0|0:0,0:0:0:0:
174,125,46438,1,2,0:0:0:0:
274,32,46672,1,8,0:0:0:0:
347,148,46907,2,0,P|404:150|452:122,1,97.7500018644333,2|0,0:0|0:0,0:0:0:0:
212,81,47376,6,0,L|194:218,1,97.7500018644333,10|0,0:0|0:0,0:0:0:0:
100,272,47844,1,10,0:0:0:0:
100,272,47961,1,0,0:0:0:0:
231,310,48196,1,0,0:0:0:0:
231,310,48313,1,10,0:0:0:0:
340,228,48547,2,0,L|334:176,1,48.8750009322167,0|0,0:0|0:0,0:0:0:0:
354,151,48782,1,2,0:0:0:0:
271,21,49016,1,8,0:0:0:0:
212,145,49251,5,2,0:0:0:0:
178,140,49368,1,0,0:0:0:0:
144,135,49485,1,0,0:0:0:0:
110,130,49602,1,8,0:0:0:0:
76,126,49719,1,2,0:0:0:0:
137,248,49954,1,0,0:0:0:0:
121,27,50188,1,10,0:0:0:0:
137,248,50422,1,0,0:0:0:0:
247,77,50657,1,10,0:0:0:0:
137,248,50891,1,0,0:0:0:0:
121,27,51126,6,0,B|141:129|141:129|110:182,1,146.62500279665,2|8,0:0|0:0,0:0:0:0:
119,165,51594,2,0,B|97:201|97:201|117:303,1,146.62500279665,2|0,0:0|0:0,0:0:0:0:
117,303,52063,2,0,L|223:282,1,97.7500018644333,2|0,0:0|0:0,0:0:0:0:
213,284,52415,1,8,0:0:0:0:
213,284,52532,1,2,0:0:0:0:
336,342,52766,1,0,0:0:0:0:
433,96,53001,6,0,L|337:110,1,97.7500018644333,10|0,0:0|0:0,0:0:0:0:
222,186,53469,2,0,L|154:176,1,48.8750009322167,2|0,0:0|0:0,0:0:0:0:
39,119,53704,2,0,L|88:112,1,48.8750009322167,8|0,0:0|0:0,0:0:0:0:
73,218,53938,2,0,L|60:335,1,97.7500018644333,2|0,0:0|0:0,0:0:0:0:
277,244,54407,2,0,P|302:196|290:149,1,97.7500018644333,2|0,0:0|0:0,0:0:0:0:
196,57,54876,5,10,0:0:0:0:
402,137,55110,1,0,0:0:0:0:
196,57,55344,2,0,L|91:74,1,97.7500018644333,10|0,0:0|0:0,0:0:0:0:
253,196,55813,2,0,P|298:173|326:122,1,97.7500018644333,10|0,0:0|0:0,0:0:0:0:
322,134,56165,1,0,0:0:0:0:
322,134,56282,1,2,0:0:0:0:
203,67,56516,1,8,0:0:0:0:
136,186,56751,5,2,0:0:0:0:
140,204,56868,1,0,0:0:0:0:
144,222,56985,1,0,0:0:0:0:
148,240,57102,1,8,0:0:0:0:
153,258,57219,1,2,0:0:0:0:
235,367,57454,1,8,0:0:0:0:
345,286,57688,5,2,0:0:0:0:
378,279,57805,1,0,0:0:0:0:
411,272,57922,1,0,0:0:0:0:
444,265,58040,1,0,0:0:0:0:
477,257,58157,1,10,0:0:0:0:
387,153,58391,1,0,0:0:0:0:
259,203,58626,5,10,0:0:0:0:
387,153,58860,1,0,0:0:0:0:
141,142,59094,5,2,0:0:0:0:
387,153,59329,1,0,0:0:0:0:
83,233,59563,5,10,0:0:0:0:
256,192,59680,12,0,61438,0:0:0:0:
148,327,61907,5,0,0:0:0:0:
357,256,62141,1,0,0:0:0:0:
148,327,62376,6,0,B|154:286|154:286|150:209|150:209|158:152,1,170,4|0,0:0|0:0,0:0:0:0:
248,82,62727,1,0,0:0:0:0:
276,197,62844,2,0,P|211:262|151:233,1,170,8|0,0:0|0:0,0:0:0:0:
83,133,63196,1,0,0:0:0:0:
92,118,63313,2,0,L|182:131,1,85,4|0,0:0|0:0,0:0:0:0:
349,37,63547,2,0,L|264:49,1,85,0|0,0:0|0:0,0:0:0:0:
325,152,63782,2,0,B|451:166|451:166|414:108,1,170,8|0,0:0|0:0,0:0:0:0:
242,179,64133,1,0,0:0:0:0:
243,196,64251,6,0,L|255:291,1,85,4|0,0:0|0:0,0:0:0:0:
84,168,64485,1,0,0:0:0:0:
87,151,64602,1,0,0:0:0:0:
89,134,64719,2,0,L|99:49,1,85,8|0,0:0|0:0,0:0:0:0:
206,102,64954,2,0,P|247:111|288:106,1,85,0|0,0:0|0:0,0:0:0:0:
454,26,65188,5,4,0:0:0:0:
464,39,65305,2,0,L|455:135,1,85,0|10,0:0|0:0,0:0:0:0:
494,259,65540,1,0,0:0:0:0:
481,271,65657,2,0,B|444:282|444:282|371:270,1,85,10|0,0:0|0:0,0:0:0:0:
230,198,65891,2,0,B|267:187|267:187|312:194,1,85,2|0,0:0|0:0,0:0:0:0:
151,251,66126,6,0,P|135:205|209:104,1,170,4|0,0:0|0:0,0:0:0:0:
312,115,66477,1,0,0:0:0:0:
230,197,66594,2,0,B|205:199|185:179|185:179|158:181|158:181|133:144|68:148,1,170,8|0,0:0|0:0,0:0:0:0:
273,275,66946,1,0,0:0:0:0:
285,263,67063,6,0,P|311:225|305:167,1,85,4|0,0:0|0:0,0:0:0:0:
181,267,67297,2,0,L|190:359,1,85,0|0,0:0|0:0,0:0:0:0:
45,202,67532,2,0,L|53:117,1,85,8|0,0:0|0:0,0:0:0:0:
236,30,67766,1,0,0:0:0:0:
219,34,67883,1,0,0:0:0:0:
202,39,68001,6,0,B|330:57|330:57|381:42,1,170,4|0,0:0|0:0,0:0:0:0:
383,36,68352,1,0,0:0:0:0:
397,44,68469,2,0,L|382:142,1,85,8|0,0:0|0:0,0:0:0:0:
258,281,68704,2,0,L|245:196,1,85,0|0,0:0|0:0,0:0:0:0:
87,73,68938,2,0,L|268:81,1,170,4|10,0:0|0:0,0:0:0:0:
435,61,69290,1,0,0:0:0:0:
428,76,69407,2,0,B|415:109|415:109|428:168,1,85,10|0,0:0|0:0,0:0:0:0:
353,346,69641,2,0,B|366:313|366:313|353:254,1,85,2|0,0:0|0:0,0:0:0:0:
246,184,69876,6,0,B|208:177|181:191|181:191|135:180|135:180|110:203|59:185,1,170,4|0,0:0|0:0,0:0:0:0:
22,88,70227,1,0,0:0:0:0:
137,113,70344,2,0,L|118:313,1,170,8|0,0:0|0:0,0:0:0:0:
312,363,70696,1,0,0:0:0:0:
297,354,70813,2,0,L|199:357,1,85,4|0,0:0|0:0,0:0:0:0:
368,205,71047,2,0,L|466:208,1,85,0|0,0:0|0:0,0:0:0:0:
276,105,71282,1,8,0:0:0:0:
259,108,71399,1,0,0:0:0:0:
242,111,71516,2,0,L|251:211,1,85,0|0,0:0|0:0,0:0:0:0:
202,60,71751,6,0,B|210:169|210:169|156:135,1,170,4|0,0:0|0:0,0:0:0:0:
95,35,72102,1,0,0:0:0:0:
210,170,72219,2,0,B|218:279|218:279|164:245,1,170,8|0,0:0|0:0,0:0:0:0:
84,159,72571,1,0,0:0:0:0:
99,152,72688,2,0,L|91:56,1,85,4|0,0:0|0:0,0:0:0:0:
295,28,72922,2,0,L|287:112,1,85,10|0,0:0|0:0,0:0:0:0:
209,324,73157,2,0,L|201:228,1,85,10|0,0:0|0:0,0:0:0:0:
405,200,73391,2,0,L|397:284,1,85,2|0,0:0|0:0,0:0:0:0:
181,346,73626,6,0,L|167:168,1,170,4|0,0:0|0:0,0:0:0:0:
75,101,73977,1,0,0:0:0:0:
186,61,74094,2,0,B|271:68|271:68|290:60|290:60|357:66,1,170,8|0,0:0|0:0,0:0:0:0:
429,158,74446,1,0,0:0:0:0:
429,158,74563,2,0,L|341:150,1,85,4|0,0:0|0:0,0:0:0:0:
260,162,74797,2,0,L|364:147,1,85,0|0,0:0|0:0,0:0:0:0:
326,318,75032,2,0,L|344:149,1,170,8|0,0:0|0:0,0:0:0:0:
256,68,75383,1,0,0:0:0:0:
271,60,75501,6,0,L|355:65,1,85,4|0,0:0|0:0,0:0:0:0:
123,149,75735,2,0,L|207:154,1,85,0|0,0:0|0:0,0:0:0:0:
403,202,75969,2,0,L|319:197,1,85,8|0,0:0|0:0,0:0:0:0:
171,286,76203,2,0,L|255:291,1,85,0|0,0:0|0:0,0:0:0:0:
95,342,76438,5,4,0:0:0:0:
78,293,76555,1,0,0:0:0:0:
89,243,76672,1,10,0:0:0:0:
127,209,76790,1,0,0:0:0:0:
177,202,76907,1,10,0:0:0:0:
225,153,77024,1,0,0:0:0:0:
238,86,77141,1,2,0:0:0:0:
198,31,77258,1,0,0:0:0:0:
129,28,77376,6,0,B|121:64|136:88|136:88|132:125|132:125|156:156|147:200,1,170,4|0,0:0|0:0,0:0:0:0:
53,262,77727,1,0,0:0:0:0:
143,339,77844,2,0,B|198:358|198:358|329:335,1,170,8|0,0:0|0:0,0:0:0:0:
417,149,78196,1,0,0:0:0:0:
400,154,78313,2,0,L|407:258,1,85,4|0,0:0|0:0,0:0:0:0:
205,118,78547,2,0,L|198:14,1,85,0|0,0:0|0:0,0:0:0:0:
301,174,78782,2,0,L|126:157,1,170,8|0,0:0|0:0,0:0:0:0:
30,218,79133,1,0,0:0:0:0:
151,237,79251,6,0,P|150:195|131:157,1,85,4|0,0:0|0:0,0:0:0:0:
68,332,79485,1,0,0:0:0:0:
84,334,79602,1,0,0:0:0:0:
100,336,79719,2,0,L|202:346,1,85,8|0,0:0|0:0,0:0:0:0:
358,260,79954,2,0,L|273:251,1,85,0|0,0:0|0:0,0:0:0:0:
178,91,80188,1,4,0:0:0:0:
191,100,80305,2,0,P|196:131|185:200,1,85,0|10,0:0|0:0,0:0:0:0:
33,293,80540,1,0,0:0:0:0:
43,306,80657,2,0,L|152:303,1,85,10|0,0:0|0:0,0:0:0:0:
260,257,80891,2,0,L|369:254,1,85,2|0,0:0|0:0,0:0:0:0:
438,317,81126,6,0,P|382:236|416:167,1,170,4|0,0:0|0:0,0:0:0:0:
504,111,81477,1,0,0:0:0:0:
394,63,81594,2,0,L|219:72,1,170,8|0,0:0|0:0,0:0:0:0:
65,14,81946,1,0,0:0:0:0:
73,28,82063,2,0,L|64:137,1,85,4|0,0:0|0:0,0:0:0:0:
72,196,82297,2,0,L|66:112,1,85,0|0,0:0|0:0,0:0:0:0:
72,196,82532,2,0,P|143:187|229:236,1,170,8|0,0:0|0:0,0:0:0:0:
261,346,82883,1,0,0:0:0:0:
379,322,83001,6,0,L|374:231,1,85,4|0,0:0|0:0,0:0:0:0:
262,82,83235,2,0,L|267:173,1,85,0|0,0:0|0:0,0:0:0:0:
203,355,83469,2,0,L|198:264,1,85,8|0,0:0|0:0,0:0:0:0:
86,115,83703,2,0,L|91:206,1,85,0|0,0:0|0:0,0:0:0:0:
198,270,83938,5,4,0:0:0:0:
248,277,84055,1,0,0:0:0:0:
297,265,84172,1,10,0:0:0:0:
332,228,84290,1,0,0:0:0:0:
347,179,84407,1,10,0:0:0:0:
402,218,84524,1,0,0:0:0:0:
467,198,84641,1,2,0:0:0:0:
484,132,84758,1,0,0:0:0:0:
440,79,84876,6,0,L|250:84,1,170,4|0,0:0|0:0,0:0:0:0:
160,36,85227,1,0,0:0:0:0:
270,83,85344,2,0,P|294:168|254:252,1,170,8|0,0:0|0:0,0:0:0:0:
84,300,85696,1,0,0:0:0:0:
92,314,85813,2,0,L|193:319,1,85,4|0,0:0|0:0,0:0:0:0:
349,236,86047,2,0,L|248:241,1,85,0|0,0:0|0:0,0:0:0:0:
151,202,86282,2,0,P|160:175|157:114,1,85,8|0,0:0|0:0,0:0:0:0:
283,6,86516,2,0,P|279:48|290:88,1,85,0|0,0:0|0:0,0:0:0:0:
316,205,86751,6,0,B|279:221|244:203|244:203|226:209|226:209|193:191|148:203,1,170,4|0,0:0|0:0,0:0:0:0:
63,281,87102,1,0,0:0:0:0:
178,310,87219,2,0,P|210:227|149:203,1,170,8|0,0:0|0:0,0:0:0:0:
32,88,87571,1,0,0:0:0:0:
45,77,87688,2,0,L|136:85,1,85,4|0,0:0|0:0,0:0:0:0:
273,32,87922,1,10,0:0:0:0:
287,41,88040,2,0,L|276:133,1,85,0|10,0:0|0:0,0:0:0:0:
368,252,88274,1,0,0:0:0:0:
363,268,88391,2,0,L|260:258,1,85,2|0,0:0|0:0,0:0:0:0:
171,313,88626,6,0,B|189:252|189:252|168:138,1,170,4|0,0:0|0:0,0:0:0:0:
68,85,88977,1,0,0:0:0:0:
97,200,89094,2,0,P|185:237|254:179,1,170,8|0,0:0|0:0,0:0:0:0:
292,92,89446,1,0,0:0:0:0:
306,101,89563,2,0,P|273:112|206:102,1,85,4|0,0:0|0:0,0:0:0:0:
349,22,89797,2,0,P|382:11|449:21,1,85,0|0,0:0|0:0,0:0:0:0:
401,165,90032,2,0,L|387:263,1,85,8|0,0:0|0:0,0:0:0:0:
243,364,90266,2,0,L|230:279,1,85,0|0,0:0|0:0,0:0:0:0:
102,141,90501,6,0,L|279:146,1,170,4|0,0:0|0:0,0:0:0:0:
372,82,90852,1,0,0:0:0:0:
443,176,90969,2,0,B|434:309|434:309|394:261,1,170,8|0,0:0|0:0,0:0:0:0:
344,180,91321,1,0,0:0:0:0:
360,178,91438,2,0,L|264:189,1,85,4|0,0:0|0:0,0:0:0:0:
107,89,91672,2,0,L|203:100,1,85,10|0,0:0|0:0,0:0:0:0:
114,235,91907,1,10,0:0:0:0:
117,251,92024,1,0,0:0:0:0:
120,267,92141,1,2,0:0:0:0:
123,283,92258,1,0,0:0:0:0:
126,299,92376,1,0,0:0:0:0:
