osu file format v14

[General]
AudioFilename: audio.mp3
AudioLeadIn: 0
PreviewTime: 61386
Countdown: 0
SampleSet: Soft
StackLeniency: 0.7
Mode: 0
LetterboxInBreaks: 0
WidescreenStoryboard: 0

[Editor]
Bookmarks: 14980,30449,45449,62324
DistanceSpacing: 1.2
BeatDivisor: 4
GridSize: 4
TimelineZoom: 1

[Metadata]
Title:Real
TitleUnicode:Rё∀˥
Artist:Cyua
ArtistUnicode:Cyua
Creator:Come[Back]Home
Version:Hard
Source:ギルティクラウン
Tags:Cellina Guilty Crown Original Soundtrack
BeatmapID:1207505
BeatmapSetID:468313

[Difficulty]
HPDrainRate:5
CircleSize:4
OverallDifficulty:6
ApproachRate:8
SliderMultiplier:1.4
SliderTickRate:1

[Events]
//Background and Video events
0,0,"BGccoly.jpg",0,0
//Break Periods
//Storyboard Layer 0 (Background)
//Storyboard Layer 1 (Fail)
//Storyboard Layer 2 (Pass)
//Storyboard Layer 3 (Foreground)
//Storyboard Sound Samples

[TimingPoints]
501,468.75,4,2,0,70,1,0
501,-117.647058823529,4,2,2,70,0,0
15501,-100,4,2,2,70,0,0
45501,-86.9565217391304,4,2,2,70,0,0
62376,-50,4,2,1,70,0,1
76438,-50,4,2,1,70,0,0
77376,-50,4,2,1,70,0,1
83938,-50,4,2,1,70,0,0
84876,-50,4,2,1,70,0,1
92376,-50,4,2,1,70,0,0

[Colours]
Combo1 : 255,128,192
Combo2 : 128,255,255
Combo3 : 192,192,192
Combo4 : 128,255,128

[HitObjects]
81,330,15501,6,0,L|67:182,1,140,2|2,0:0|0:0,0:0:0:0:
58,92,16204,1,0,0:0:0:0:
148,129,16438,2,0,L|231:121,1,70,2|0,0:0|0:0,0:0:0:0:
305,166,16907,2,0,L|374:172,1,70,2|0,0:0|0:0,0:0:0:0:
466,136,17376,6,0,P|474:180|433:251,1,105,2|0,0:0|0:0,0:0:0:0:
416,268,17844,1,2,0:0:0:0:
319,251,18079,1,0,0:0:0:0:
237,305,18313,2,0,L|154:313,1,70,2|0,0:0|0:0,0:0:0:0:
79,267,18782,2,0,P|85:225|113:185,1,70,2|0,0:0|0:0,0:0:0:0:
168,30,19251,6,0,P|200:91|186:158,1,140,2|2,0:0|0:0,0:0:0:0:
98,201,19954,1,0,0:0:0:0:
177,258,20188,2,0,L|257:253,1,70,2|0,0:0|0:0,0:0:0:0:
339,221,20657,1,2,0:0:0:0:
404,293,20891,1,0,0:0:0:0:
442,203,21126,6,0,B|448:158|448:158|427:65,1,140,2|2,0:0|0:0,0:0:0:0:
339,21,21829,1,0,0:0:0:0:
265,86,22063,2,0,L|189:80,1,70,2|0,0:0|0:0,0:0:0:0:
109,128,22532,1,2,0:0:0:0:
154,214,22766,1,0,0:0:0:0:
154,214,22883,1,0,0:0:0:0:
154,214,23001,6,0,L|298:230,1,140,2|2,0:0|0:0,0:0:0:0:
347,311,23704,1,0,0:0:0:0:
389,222,23938,2,0,P|376:180|348:150,1,70,2|0,0:0|0:0,0:0:0:0:
268,125,24407,2,0,P|245:98|237:64,1,70,2|0,0:0|0:0,0:0:0:0:
334,56,24876,6,0,L|450:64,1,105,2|0,0:0|0:0,0:0:0:0:
487,66,25344,1,2,0:0:0:0:
447,156,25579,1,0,0:0:0:0:
485,245,25813,2,0,P|487:288|478:317,1,70,2|0,0:0|0:0,0:0:0:0:
389,269,26282,2,0,P|380:235|383:201,1,70,2|0,0:0|0:0,0:0:0:0:
437,52,26751,6,0,L|292:65,1,140,2|2,0:0|0:0,0:0:0:0:
200,78,27454,1,0,0:0:0:0:
74,165,27688,2,0,B|56:211|56:211|81:319,1,140,2|2,0:0|0:0,0:0:0:0:
148,365,28391,1,0,0:0:0:0:
212,291,28626,6,0,L|222:174,1,105,2|0,0:0|0:0,0:0:0:0:
183,154,29094,1,2,0:0:0:0:
254,86,29329,1,0,0:0:0:0:
310,167,29563,2,0,B|349:176|349:176|412:171|412:171|453:178,1,140,2|2,0:0|0:0,0:0:0:0:
467,273,30266,1,0,0:0:0:0:
467,273,30383,1,0,0:0:0:0:
467,273,30501,6,0,L|397:257,1,70,2|0,0:0|0:0,0:0:0:0:
310,299,30969,2,0,L|241:314,1,70,2|0,0:0|0:0,0:0:0:0:
152,273,31438,2,0,L|167:115,1,140,2|2,0:0|0:0,0:0:0:0:
101,58,32141,1,0,0:0:0:0:
241,175,32376,6,0,L|348:158,1,105,2|0,0:0|0:0,0:0:0:0:
379,123,32844,2,0,L|275:106,1,105,2|0,0:0|0:0,0:0:0:0:
257,60,33313,2,0,L|349:48,1,70,2|0,0:0|0:0,0:0:0:0:
499,71,33782,1,2,0:0:0:0:
418,17,34016,1,0,0:0:0:0:
406,183,34251,6,0,P|401:149|411:116,1,70,2|0,0:0|0:0,0:0:0:0:
495,224,34719,2,0,L|369:240,1,105,2|0,0:0|0:0,0:0:0:0:
352,267,35188,2,0,L|279:260,1,70,2|0,0:0|0:0,0:0:0:0:
243,291,35540,1,0,0:0:0:0:
243,291,35657,1,2,0:0:0:0:
154,331,35891,1,0,0:0:0:0:
77,269,36126,6,0,L|91:116,1,140,2|2,0:0|0:0,0:0:0:0:
46,41,36829,1,0,0:0:0:0:
142,54,37063,2,0,L|250:47,1,105,2|0,0:0|0:0,0:0:0:0:
287,19,37532,1,2,0:0:0:0:
249,153,37766,1,0,0:0:0:0:
390,122,38001,6,0,L|381:263,1,140,2|2,0:0|0:0,0:0:0:0:
453,328,38704,1,0,0:0:0:0:
355,339,38938,2,0,P|318:335|281:343,1,70,2|0,0:0|0:0,0:0:0:0:
189,359,39407,2,0,P|154:365|120:361,1,70,2|0,0:0|0:0,0:0:0:0:
65,214,39876,6,0,L|58:284,2,70,2|0|2,0:0|0:0|0:0,0:0:0:0:
39,119,40579,1,0,0:0:0:0:
203,131,40813,2,0,L|134:139,2,70,2|0|2,0:0|0:0|0:0,0:0:0:0:
279,193,41516,1,0,0:0:0:0:
364,144,41751,6,0,L|352:-3,2,140,2|2|2,0:0|0:0|0:0,0:0:0:0:
440,204,42922,1,0,0:0:0:0:
375,277,43157,2,0,L|283:266,1,70,2|0,0:0|0:0,0:0:0:0:
256,265,43508,1,0,0:0:0:0:
256,265,43626,6,0,P|234:232|285:143,1,140,2|2,0:0|0:0,0:0:0:0:
366,126,44329,1,0,0:0:0:0:
291,62,44563,2,0,L|245:56,1,35,2|0,0:0|0:0,0:0:0:0:
163,24,44915,2,0,L|128:28,1,35,0|2,0:0|0:0,0:0:0:0:
62,101,45266,1,0,0:0:0:0:
62,101,45383,1,0,0:0:0:0:
62,101,45501,6,0,L|80:248,1,120.750002303124,10|8,0:0|0:0,0:0:0:0:
42,265,45969,1,2,0:0:0:0:
133,331,46204,1,8,0:0:0:0:
212,251,46438,2,0,L|197:131,1,120.750002303124,2|8,0:0|0:0,0:0:0:0:
191,74,46907,2,0,L|325:85,1,120.750002303124,2|0,0:0|0:0,0:0:0:0:
367,90,47376,6,0,L|384:175,1,80.5000015354157,10|0,0:0|0:0,0:0:0:0:
481,222,47844,2,0,L|465:300,1,80.5000015354157,10|0,0:0|0:0,0:0:0:0:
355,272,48313,2,0,P|314:250|288:135,1,161.000003070831,10|2,0:0|0:0,0:0:0:0:
320,39,49016,1,8,0:0:0:0:
211,69,49251,6,0,L|128:61,1,80.5000015354157,2|0,0:0|0:0,0:0:0:0:
53,143,49719,2,0,P|47:187|69:245,1,80.5000015354157,2|0,0:0|0:0,0:0:0:0:
141,294,50188,1,10,0:0:0:0:
175,187,50422,1,0,0:0:0:0:
141,294,50657,1,10,0:0:0:0:
175,187,50891,1,0,0:0:0:0:
255,266,51126,6,0,B|300:282|300:282|395:252,1,120.750002303124,2|8,0:0|0:0,0:0:0:0:
398,211,51594,2,0,B|414:166|414:166|384:71,1,120.750002303124,2|0,0:0|0:0,0:0:0:0:
351,56,52063,2,0,B|306:40|306:40|211:70,1,120.750002303124,2|8,0:0|0:0,0:0:0:0:
196,101,52532,2,0,L|186:186,1,80.5000015354157,2|0,0:0|0:0,0:0:0:0:
88,237,53001,5,10,0:0:0:0:
298,316,53469,2,0,L|393:310,1,80.5000015354157,2|8,0:0|0:0,0:0:0:0:
464,237,53938,2,0,P|443:193|480:95,1,120.750002303124,2|8,0:0|0:0,0:0:0:0:
475,71,54407,2,0,L|370:77,1,80.5000015354157,2|0,0:0|0:0,0:0:0:0:
275,196,54876,5,10,0:0:0:0:
291,84,55110,1,0,0:0:0:0:
195,24,55344,2,0,P|192:63|168:95,1,80.5000015354157,10|0,0:0|0:0,0:0:0:0:
66,145,55813,2,0,P|44:198|101:300,1,161.000003070831,10|2,0:0|0:0,0:0:0:0:
181,342,56516,1,8,0:0:0:0:
256,259,56751,6,0,L|269:212,1,40.2500007677078,2|0,0:0|0:0,0:0:0:0:
309,183,56985,2,0,L|296:136,1,40.2500007677078,0|8,0:0|0:0,0:0:0:0:
327,96,57219,1,2,0:0:0:0:
236,28,57454,1,8,0:0:0:0:
146,95,57688,2,0,L|137:144,1,40.2500007677078,2|0,0:0|0:0,0:0:0:0:
117,186,57922,2,0,L|126:235,1,40.2500007677078,0|0,0:0|0:0,0:0:0:0:
107,279,58157,1,10,0:0:0:0:
201,340,58391,1,0,0:0:0:0:
305,297,58626,6,0,L|409:285,1,80.5000015354157,10|0,0:0|0:0,0:0:0:0:
327,191,59094,2,0,L|317:111,1,80.5000015354157,2|0,0:0|0:0,0:0:0:0:
218,164,59563,2,0,L|138:173,1,80.5000015354157,10|0,0:0|0:0,0:0:0:0:
81,180,59915,1,0,0:0:0:0:
86,236,60032,2,0,L|95:315,1,80.5000015354157,2|0,0:0|0:0,0:0:0:0:
367,234,61907,5,0,0:0:0:0:
259,266,62141,1,0,0:0:0:0:
367,234,62376,6,0,L|352:63,1,140,4|0,0:0|0:0,0:0:0:0:
279,57,62727,1,0,0:0:0:0:
279,57,62844,2,0,B|207:49|207:49|134:76,1,140,8|0,0:0|0:0,0:0:0:0:
57,216,63313,2,0,B|129:224|129:224|202:197,1,140,4|0,0:0|0:0,0:0:0:0:
271,170,63665,1,0,0:0:0:0:
271,170,63782,2,0,B|334:146|334:146|406:154,1,140,8|0,0:0|0:0,0:0:0:0:
298,283,64251,5,4,0:0:0:0:
197,148,64485,1,0,0:0:0:0:
323,38,64719,2,0,L|315:196,1,140,8|0,0:0|0:0,0:0:0:0:
374,238,65071,1,0,0:0:0:0:
374,238,65188,2,0,P|282:253|278:100,1,280,4|10,0:0|0:0,0:0:0:0:
419,26,65891,1,2,0:0:0:0:
338,174,66126,6,0,L|193:167,1,140,4|0,0:0|0:0,0:0:0:0:
133,220,66477,1,0,0:0:0:0:
133,220,66594,2,0,P|117:143|170:88,1,140,8|0,0:0|0:0,0:0:0:0:
318,83,67063,2,0,P|334:160|281:215,1,140,4|0,0:0|0:0,0:0:0:0:
241,266,67415,1,0,0:0:0:0:
241,266,67532,2,0,L|410:257,1,140,8|0,0:0|0:0,0:0:0:0:
465,113,68001,6,0,B|390:101|390:101|335:122|335:122|274:98|274:98|184:122,1,280,4|8,0:0|0:0,0:0:0:0:
45,45,68704,1,0,0:0:0:0:
75,209,68938,2,0,L|55:360,2,140,4|10|10,0:0|0:0|0:0,0:0:0:0:
181,78,69641,1,2,0:0:0:0:
307,188,69876,6,0,B|384:184|384:184|433:133,1,140,4|0,0:0|0:0,0:0:0:0:
348,109,70227,1,0,0:0:0:0:
348,109,70344,2,0,L|208:116,1,140,8|0,0:0|0:0,0:0:0:0:
85,230,70813,2,0,L|225:237,1,140,4|0,0:0|0:0,0:0:0:0:
273,305,71165,1,0,0:0:0:0:
273,305,71282,2,0,P|305:237|272:162,1,140,8|0,0:0|0:0,0:0:0:0:
210,27,71751,6,0,P|178:87|196:153,1,140,4|0,0:0|0:0,0:0:0:0:
358,196,72219,2,0,L|378:46,1,140,8|0,0:0|0:0,0:0:0:0:
454,90,72571,1,0,0:0:0:0:
454,90,72688,2,0,P|391:148|325:2,1,280,4|10,0:0|0:0,0:0:0:0:
136,15,73391,1,2,0:0:0:0:
68,169,73626,6,0,L|88:319,1,140,4|0,0:0|0:0,0:0:0:0:
159,266,73977,1,0,0:0:0:0:
159,266,74094,2,0,L|177:127,1,140,8|0,0:0|0:0,0:0:0:0:
324,45,74563,2,0,L|344:195,1,140,4|0,0:0|0:0,0:0:0:0:
373,262,74915,1,0,0:0:0:0:
373,262,75032,2,0,L|221:241,1,140,8|0,0:0|0:0,0:0:0:0:
93,335,75501,6,0,B|74:264|111:233|111:233|93:192|93:192|136:139|118:31,1,280,4|8,0:0|0:0,0:0:0:0:
278,7,76204,1,0,0:0:0:0:
380,140,76438,2,0,L|371:226,3,70,4|0|10|0,0:0|0:0|0:0|0:0,0:0:0:0:
308,264,76907,2,0,L|300:194,3,70,10|0|2|0,0:0|0:0|0:0|0:0,0:0:0:0:
224,157,77376,6,0,L|203:303,1,140,4|0,0:0|0:0,0:0:0:0:
123,319,77727,1,0,0:0:0:0:
123,319,77844,2,0,L|147:175,1,140,8|0,0:0|0:0,0:0:0:0:
262,59,78313,2,0,B|341:50|341:50|396:84,1,140,4|0,0:0|0:0,0:0:0:0:
441,150,78665,1,0,0:0:0:0:
441,150,78782,2,0,L|425:295,1,140,8|0,0:0|0:0,0:0:0:0:
273,362,79251,6,0,L|257:222,1,140,4|0,0:0|0:0,0:0:0:0:
115,132,79719,2,0,P|56:187|60:268,1,140,8|0,0:0|0:0,0:0:0:0:
131,217,80071,1,0,0:0:0:0:
131,217,80188,2,0,B|274:158|266:271|417:197,1,280,4|10,0:0|0:0,0:0:0:0:
487,58,80891,1,2,0:0:0:0:
322,92,81126,6,0,L|176:81,1,140,4|0,0:0|0:0,0:0:0:0:
100,63,81477,1,0,0:0:0:0:
100,63,81594,2,0,P|113:133|178:169,1,140,8|0,0:0|0:0,0:0:0:0:
335,179,82063,2,0,P|391:216|402:283,1,140,4|0,0:0|0:0,0:0:0:0:
319,264,82415,1,0,0:0:0:0:
319,264,82532,2,0,L|180:255,1,140,8|0,0:0|0:0,0:0:0:0:
44,153,83001,6,0,B|232:127|232:127|310:186,1,280,4|8,0:0|0:0,0:0:0:0:
355,341,83704,1,0,0:0:0:0:
456,207,83938,2,0,L|448:130,3,70,4|0|10|0,0:0|0:0|0:0|0:0,0:0:0:0:
384,82,84407,2,0,L|376:151,3,70,10|0|2|0,0:0|0:0|0:0|0:0,0:0:0:0:
370,235,84876,6,0,P|310:195|297:114,1,140,4|0,0:0|0:0,0:0:0:0:
375,151,85227,1,0,0:0:0:0:
375,151,85344,2,0,P|435:191|448:272,1,140,8|0,0:0|0:0,0:0:0:0:
297,323,85813,2,0,L|156:313,1,140,4|0,0:0|0:0,0:0:0:0:
107,245,86165,1,0,0:0:0:0:
107,245,86282,2,0,L|248:235,1,140,8|0,0:0|0:0,0:0:0:0:
414,228,86751,6,0,P|429:154|406:84,1,140,4|0,0:0|0:0,0:0:0:0:
250,44,87219,2,0,L|89:55,1,140,8|0,0:0|0:0,0:0:0:0:
48,111,87571,1,0,0:0:0:0:
48,111,87688,2,0,B|81:285|81:285|142:171,1,280,4|10,0:0|0:0,0:0:0:0:
178,32,88391,1,2,0:0:0:0:
300,147,88626,6,0,L|278:299,1,140,4|0,0:0|0:0,0:0:0:0:
209,239,88977,1,0,0:0:0:0:
209,239,89094,2,0,L|57:217,1,140,8|0,0:0|0:0,0:0:0:0:
196,54,89563,2,0,L|348:32,1,140,4|0,0:0|0:0,0:0:0:0:
418,20,89915,1,0,0:0:0:0:
418,20,90032,2,0,L|401:183,1,140,8|0,0:0|0:0,0:0:0:0:
381,326,90501,6,0,B|251:316|251:316|212:328|212:328|92:316,1,280,4|8,0:0|0:0,0:0:0:0:
10,176,91204,1,0,0:0:0:0:
149,83,91438,2,0,L|239:93,3,70,4|0|10|0,0:0|0:0|0:0|0:0,0:0:0:0:
266,160,91907,2,0,L|177:175,1,70,10|0,0:0|0:0,0:0:0:0:
163,248,92141,2,0,L|252:263,1,70,2|0,0:0|0:0,0:0:0:0:
314,276,92376,1,0,0:0:0:0:
