osu file format v14

[General]
AudioFilename: audio.mp3
AudioLeadIn: 0
PreviewTime: 61386
Countdown: 0
SampleSet: Soft
StackLeniency: 0.3
Mode: 0
LetterboxInBreaks: 0
WidescreenStoryboard: 0

[Editor]
Bookmarks: 14980,30449,45449,62324
DistanceSpacing: 1.4
BeatDivisor: 4
GridSize: 4
TimelineZoom: 1

[Metadata]
Title:Real
TitleUnicode:Rё∀˥
Artist:Cyua
ArtistUnicode:Cyua
Creator:Come[Back]Home
Version:Extra
Source:ギルティクラウン
Tags:Cellina Guilty Crown Original Soundtrack
BeatmapID:1207298
BeatmapSetID:468313

[Difficulty]
HPDrainRate:6.5
CircleSize:3.3
OverallDifficulty:9
ApproachRate:9.3
SliderMultiplier:2.1
SliderTickRate:1

[Events]
//Background and Video events
0,0,"BGccoly.jpg",0,0
//Break Periods
//Storyboard Layer 0 (Background)
//Storyboard Layer 1 (Fail)
//Storyboard Layer 2 (Pass)
//Storyboard Layer 3 (Foreground)
//Storyboard Sound Samples

[TimingPoints]
501,468.75,4,2,0,70,1,0
501,-117.647058823529,4,2,2,70,0,0
15501,-100,4,2,2,70,0,0
45501,-86.9565217391304,4,2,2,70,0,0
62376,-50,4,2,1,70,0,1
76438,-50,4,2,1,70,0,0
77376,-50,4,2,1,70,0,1
83938,-50,4,2,1,70,0,0
84876,-50,4,2,1,70,0,1
92376,-50,4,2,1,70,0,0

[Colours]
Combo1 : 255,128,192
Combo2 : 128,255,255
Combo3 : 192,192,192
Combo4 : 128,255,128

[HitObjects]
97,324,15501,6,0,L|88:202,1,105,2|0,0:0|0:0,0:0:0:0:
71,73,15969,1,2,0:0:0:0:
206,130,16204,2,0,L|271:124,1,52.5
331,116,16438,1,2,0:0:0:0:
282,254,16672,1,0,0:0:0:0:
281,51,16907,1,2,0:0:0:0:
372,298,17141,1,0,0:0:0:0:
132,210,17376,6,0,L|247:197,1,105,2|0,0:0|0:0,0:0:0:0:
308,186,17727,1,0,0:0:0:0:
308,186,17844,1,2,0:0:0:0:
240,54,18079,1,0,0:0:0:0:
279,265,18313,2,0,P|332:270|379:230,1,105,2|0,0:0|0:0,0:0:0:0:
414,100,18782,1,2,0:0:0:0:
372,241,19016,1,0,0:0:0:0:
280,65,19251,6,0,B|223:75|223:75|141:62|141:62|62:79,1,210,2|2,0:0|0:0,0:0:0:0:
4,206,19954,1,0,0:0:0:0:
96,319,20188,2,0,L|206:296,1,105,2|0,0:0|0:0,0:0:0:0:
344,268,20657,2,0,L|446:289,1,105,2|0,0:0|0:0,0:0:0:0:
231,187,21126,6,0,L|222:16,1,157.5,2|0,0:0|0:0,0:0:0:0:
222,29,21594,1,2,0:0:0:0:
86,203,21829,1,0,0:0:0:0:
306,219,22063,2,0,P|310:163|274:118,1,105,2|0,0:0|0:0,0:0:0:0:
158,46,22532,1,2,0:0:0:0:
283,124,22766,1,0,0:0:0:0:
189,317,23001,6,0,B|163:353|163:353|150:188,1,210,2|2,0:0|0:0,0:0:0:0:
135,41,23704,1,0,0:0:0:0:
268,101,23938,2,0,L|395:88,1,105,2|0,0:0|0:0,0:0:0:0:
506,321,24407,2,0,L|379:308,1,105,2|0,0:0|0:0,0:0:0:0:
166,320,24876,6,0,P|172:262|205:214,1,105,2|0,0:0|0:0,0:0:0:0:
255,180,25227,1,0,0:0:0:0:
255,180,25344,1,2,0:0:0:0:
278,325,25579,1,0,0:0:0:0:
178,143,25813,1,2,0:0:0:0:
386,243,26047,1,0,0:0:0:0:
98,227,26282,2,0,L|15:219,1,52.5,2|0,0:0|0:0,0:0:0:0:
279,131,26516,1,0,0:0:0:0:
282,335,26751,6,0,B|257:187|257:187|290:106,1,210,2|2,0:0|0:0,0:0:0:0:
381,24,27454,1,0,0:0:0:0:
279,131,27688,2,0,P|223:123|192:75,1,105,2|0,0:0|0:0,0:0:0:0:
39,235,28157,2,0,P|95:227|126:179,1,105,2|0,0:0|0:0,0:0:0:0:
294,315,28626,6,0,P|238:307|207:259,1,105,2|0,0:0|0:0,0:0:0:0:
279,246,28977,1,0,0:0:0:0:
279,246,29094,1,2,0:0:0:0:
388,344,29329,1,0,0:0:0:0:
358,118,29563,1,2,0:0:0:0:
388,344,29797,1,0,0:0:0:0:
458,47,30032,2,0,L|470:105,1,52.5,2|0,0:0|0:0,0:0:0:0:
279,246,30266,2,0,P|281:219|289:194,1,52.5
500,268,30501,5,2,0:0:0:0:
122,36,30969,2,0,L|141:152,1,105,2|0,0:0|0:0,0:0:0:0:
62,265,31438,2,0,P|112:290|221:262,1,157.5,2|0,0:0|0:0,0:0:0:0:
264,223,31907,1,2,0:0:0:0:
357,336,32141,1,0,0:0:0:0:
472,243,32376,6,0,B|459:188|459:188|469:137|469:137|459:68,1,157.5,2|0,0:0|0:0,0:0:0:0:
394,116,32844,2,0,B|339:129|339:129|288:119|288:119|219:129,1,157.5,2|0,0:0|0:0,0:0:0:0:
182,79,33313,1,2,0:0:0:0:
314,327,33547,1,0,0:0:0:0:
316,11,33782,2,0,L|308:181,1,157.5,2|0,0:0|0:0,0:0:0:0:
301,241,34251,5,2,0:0:0:0:
413,146,34485,1,0,0:0:0:0:
274,97,34719,2,0,L|156:109,1,105,2|0,0:0|0:0,0:0:0:0:
38,40,35188,1,2,0:0:0:0:
38,40,35305,1,0,0:0:0:0:
92,262,35540,1,0,0:0:0:0:
92,262,35657,1,2,0:0:0:0:
214,181,35891,1,0,0:0:0:0:
285,309,36126,6,0,B|343:333|343:333|445:307,1,157.5,2|0,0:0|0:0,0:0:0:0:
477,250,36594,2,0,B|500:158|500:158|476:100,1,157.5,2|0,0:0|0:0,0:0:0:0:
407,128,37063,2,0,P|344:144|261:79,1,157.5,2|0,0:0|0:0,0:0:0:0:
232,33,37532,2,0,L|123:49,1,105,2|0,0:0|0:0,0:0:0:0:
59,178,38001,6,0,L|72:235,1,52.5,2|0,0:0|0:0,0:0:0:0:
85,300,38235,1,0,0:0:0:0:
85,300,38352,1,0,0:0:0:0:
140,252,38469,2,0,L|177:140,1,105,2|0,0:0|0:0,0:0:0:0:
287,59,38938,1,2,0:0:0:0:
56,106,39172,1,0,0:0:0:0:
331,165,39407,1,2,0:0:0:0:
56,106,39641,1,0,0:0:0:0:
225,295,39876,5,2,0:0:0:0:
142,23,40110,1,0,0:0:0:0:
9,358,40344,2,0,L|173:340,1,157.5,2|0,0:0|0:0,0:0:0:0:
225,295,40813,5,2,0:0:0:0:
475,358,41047,1,0,0:0:0:0:
165,341,41282,2,0,P|149:288|203:226,1,105,2|0,0:0|0:0,0:0:0:0:
371,83,41751,5,2,0:0:0:0:
377,124,41868,1,0,0:0:0:0:
383,165,41985,1,0,0:0:0:0:
343,150,42102,1,0,0:0:0:0:
303,135,42219,1,2,0:0:0:0:
147,61,42454,1,0,0:0:0:0:
85,194,42688,5,2,0:0:0:0:
94,266,42805,1,0,0:0:0:0:
103,338,42922,1,0,0:0:0:0:
163,294,43040,1,0,0:0:0:0:
224,254,43157,1,2,0:0:0:0:
350,328,43391,2,0,L|422:313,1,52.5
467,350,43626,6,0,P|470:290|399:243,1,105,2|0,0:0|0:0,0:0:0:0:
375,226,43977,1,0,0:0:0:0:
305,201,44094,2,0,P|276:158|280:106,1,105,2|0,0:0|0:0,0:0:0:0:
403,25,44563,1,2,0:0:0:0:
413,97,44680,1,0,0:0:0:0:
185,177,44915,1,0,0:0:0:0:
175,104,45032,1,2,0:0:0:0:
320,126,45266,1,0,0:0:0:0:
108,306,45501,6,0,L|300:283,1,181.125003454685,10|8,0:0|0:0,0:0:0:0:
355,335,45969,1,2,0:0:0:0:
406,66,46204,1,8,0:0:0:0:
355,335,46438,2,0,P|369:268|268:205,1,181.125003454685,2|8,0:0|0:0,0:0:0:0:
209,229,46907,2,0,P|136:182|143:96,1,181.125003454685,2|0,0:0|0:0,0:0:0:0:
211,44,47376,5,10,0:0:0:0:
114,300,47610,1,0,0:0:0:0:
376,250,47844,2,0,B|304:208|304:208|199:230,1,181.125003454685,10|0,0:0|0:0,0:0:0:0:
125,248,48313,1,10,0:0:0:0:
202,79,48547,2,0,L|187:12,1,60.3750011515618
65,101,48782,1,2,0:0:0:0:
322,35,49016,1,8,0:0:0:0:
235,322,49251,6,0,L|256:127,1,181.125003454685,2|8,0:0|0:0,0:0:0:0:
329,104,49719,2,0,L|348:284,1,181.125003454685,2|0,0:0|0:0,0:0:0:0:
424,322,50188,1,10,0:0:0:0:
113,243,50422,1,0,0:0:0:0:
424,322,50657,1,10,0:0:0:0:
93,104,50891,1,0,0:0:0:0:
258,355,51126,6,0,B|279:293|279:293|265:250|265:250|289:167,1,181.125003454685,2|8,0:0|0:0,0:0:0:0:
364,154,51594,1,2,0:0:0:0:
175,274,51829,1,8,0:0:0:0:
430,204,52063,2,0,P|450:141|360:71,1,181.125003454685,2|8,0:0|0:0,0:0:0:0:
288,66,52532,2,0,L|267:206,1,120.750002303124,2|0,0:0|0:0,0:0:0:0:
373,319,53001,6,0,L|181:296,1,181.125003454685,10|8,0:0|0:0,0:0:0:0:
125,347,53469,1,2,0:0:0:0:
88,62,53704,1,8,0:0:0:0:
125,347,53938,2,0,P|115:273|212:221,1,181.125003454685,2|8,0:0|0:0,0:0:0:0:
280,219,54407,2,0,P|354:176|350:90,1,181.125003454685,2|0,0:0|0:0,0:0:0:0:
302,19,54876,5,10,0:0:0:0:
268,309,55110,1,0,0:0:0:0:
96,145,55344,2,0,B|154:113|154:113|269:136,1,181.125003454685,10|0,0:0|0:0,0:0:0:0:
316,204,55813,1,10,0:0:0:0:
457,111,56047,2,0,L|450:40,1,60.3750011515618
470,291,56282,1,2,0:0:0:0:
350,87,56516,1,8,0:0:0:0:
219,345,56751,5,2,0:0:0:0:
213,297,56868,1,0,0:0:0:0:
208,248,56985,1,0,0:0:0:0:
171,279,57102,1,8,0:0:0:0:
138,314,57219,1,2,0:0:0:0:
31,181,57454,1,8,0:0:0:0:
162,75,57688,5,2,0:0:0:0:
245,90,57805,1,0,0:0:0:0:
328,105,57922,1,0,0:0:0:0:
272,169,58040,1,0,0:0:0:0:
208,224,58157,1,10,0:0:0:0:
286,373,58391,1,0,0:0:0:0:
194,139,58626,5,10,0:0:0:0:
286,373,58860,1,0,0:0:0:0:
282,49,59094,5,2,0:0:0:0:
286,373,59329,1,0,0:0:0:0:
393,2,59563,5,10,0:0:0:0:
256,192,59680,12,0,61438,0:0:0:0:
131,312,61907,5,0,0:0:0:0:
424,177,62141,1,0,0:0:0:0:
131,312,62376,6,0,B|104:235|104:235|131:102,1,210,4|0,0:0|0:0,0:0:0:0:
257,36,62727,1,0,0:0:0:0:
129,109,62844,1,8,0:0:0:0:
381,74,62961,1,0,0:0:0:0:
156,105,63079,1,0,0:0:0:0:
441,182,63196,1,0,0:0:0:0:
182,101,63313,6,0,B|224:198|224:198|190:305,1,210,4|0,0:0|0:0,0:0:0:0:
72,210,63665,1,0,0:0:0:0:
102,202,63782,2,0,L|322:218,1,210,8|0,0:0|0:0,0:0:0:0:
415,321,64133,1,0,0:0:0:0:
488,192,64251,6,0,L|475:77,1,105,4|0,0:0|0:0,0:0:0:0:
351,9,64485,2,0,L|339:113,1,105
252,231,64719,2,0,L|239:116,1,105,8|0,0:0|0:0,0:0:0:0:
115,48,64953,2,0,L|103:152,1,105
17,272,65188,5,4,0:0:0:0:
196,183,65305,1,0,0:0:0:0:
41,261,65422,1,10,0:0:0:0:
262,326,65540,1,0,0:0:0:0:
103,152,65657,1,10,0:0:0:0:
161,373,65774,1,0,0:0:0:0:
280,162,65891,2,0,L|267:49,1,105,2|0,0:0|0:0,0:0:0:0:
208,242,66126,6,0,P|314:264|388:168,1,210,4|0,0:0|0:0,0:0:0:0:
115,52,66477,1,0,0:0:0:0:
100,80,66594,2,0,L|121:304,1,210,8|0,0:0|0:0,0:0:0:0:
249,359,66946,1,0,0:0:0:0:
256,328,67063,6,0,L|276:168,1,105,4|0,0:0|0:0,0:0:0:0:
256,119,67297,2,0,L|269:223,1,105
269,223,67532,2,0,L|489:204,1,210,8|0,0:0|0:0,0:0:0:0:
394,84,67883,1,0,0:0:0:0:
362,88,68001,6,0,L|152:106,1,210,4|0,0:0|0:0,0:0:0:0:
48,210,68352,1,0,0:0:0:0:
168,294,68469,2,0,L|187:186,1,105,8|0,0:0|0:0,0:0:0:0:
281,77,68704,2,0,P|283:115|336:164,1,105
442,252,68938,6,0,B|387:241|368:263|368:263|317:246|317:246|302:274|215:263,1,210,4|10,0:0|0:0,0:0:0:0:
121,346,69290,1,0,0:0:0:0:
34,227,69407,2,0,L|51:94,1,105,10|0,0:0|0:0,0:0:0:0:
161,30,69641,2,0,L|174:134,1,105,2|0,0:0|0:0,0:0:0:0:
317,171,69876,6,0,B|461:155|461:155|408:95,1,210,4|0,0:0|0:0,0:0:0:0:
288,37,70227,1,0,0:0:0:0:
216,235,70344,2,0,B|360:219|360:219|307:159,1,210,8|0,0:0|0:0,0:0:0:0:
185,102,70696,1,0,0:0:0:0:
86,210,70813,6,0,L|98:328,1,105,4|0,0:0|0:0,0:0:0:0:
264,112,71047,2,0,L|274:7,1,105
105,65,71282,2,0,L|0:75,1,105,8|0,0:0|0:0,0:0:0:0:
251,257,71516,2,0,L|355:267,1,105
468,362,71751,6,0,B|493:246|493:246|439:139,1,210,4|0,0:0|0:0,0:0:0:0:
362,47,72102,1,0,0:0:0:0:
243,133,72219,2,0,P|211:128|156:72,1,105,8|0,0:0|0:0,0:0:0:0:
17,245,72454,2,0,P|50:205|100:192,1,105
127,336,72688,5,4,0:0:0:0:
65,118,72805,1,0,0:0:0:0:
120,311,72922,1,10,0:0:0:0:
213,153,73040,1,0,0:0:0:0:
17,245,73157,1,10,0:0:0:0:
252,316,73274,1,0,0:0:0:0:
170,72,73391,2,0,L|179:192,1,105,2|0,0:0|0:0,0:0:0:0:
346,342,73626,6,0,B|366:162|366:162|331:192,1,210,4|0,0:0|0:0,0:0:0:0:
218,256,73977,1,0,0:0:0:0:
88,324,74094,2,0,B|66:342|66:342|86:162,1,210,8|0,0:0|0:0,0:0:0:0:
217,93,74446,1,0,0:0:0:0:
73,58,74563,5,4,0:0:0:0:
298,109,74680,1,0,0:0:0:0:
98,65,74797,1,0,0:0:0:0:
277,229,74915,1,0,0:0:0:0:
207,43,75032,1,8,0:0:0:0:
168,259,75149,1,0,0:0:0:0:
374,177,75266,2,0,L|484:170,1,105
383,283,75501,6,0,P|280:235|285:128,1,210,4|0,0:0|0:0,0:0:0:0:
380,49,75852,1,0,0:0:0:0:
235,24,75969,2,0,L|106:40,1,105,8|0,0:0|0:0,0:0:0:0:
37,151,76204,2,0,L|166:167,1,105
259,250,76438,5,4,0:0:0:0:
47,310,76555,1,0,0:0:0:0:
235,255,76672,1,10,0:0:0:0:
78,89,76790,1,0,0:0:0:0:
155,297,76907,1,10,0:0:0:0:
72,64,77024,1,0,0:0:0:0:
160,320,77141,1,2,0:0:0:0:
68,40,77258,1,0,0:0:0:0:
64,16,77376,6,0,B|76:158|76:158|157:93,1,210,4|0,0:0|0:0,0:0:0:0:
272,80,77727,1,0,0:0:0:0:
420,92,77844,2,0,L|408:331,1,210,8|0,0:0|0:0,0:0:0:0:
280,376,78196,1,0,0:0:0:0:
224,240,78313,6,0,L|342:222,1,105,4|0,0:0|0:0,0:0:0:0:
168,87,78547,2,0,L|50:69,1,105
70,260,78782,2,0,L|97:369,1,105,8|0,0:0|0:0,0:0:0:0:
285,117,79016,2,0,L|310:15,1,105
128,182,79251,6,0,B|171:172|203:195|203:195|236:187|236:187|253:203|300:217|349:174,1,210,4|0,0:0|0:0,0:0:0:0:
384,54,79602,1,0,0:0:0:0:
237,66,79719,2,0,L|260:302,1,210,8|0,0:0|0:0,0:0:0:0:
387,345,80071,1,0,0:0:0:0:
257,275,80188,6,0,L|143:290,1,105,4|0,0:0|0:0,0:0:0:0:
48,274,80422,2,0,L|153:288,1,105,10|0,0:0|0:0,0:0:0:0:
153,288,80657,2,0,B|176:172|176:172|149:84,1,210,10|2,0:0|0:0,0:0:0:0:
15,25,81008,1,0,0:0:0:0:
89,152,81126,6,0,P|198:168|239:55,1,210,4|0,0:0|0:0,0:0:0:0:
365,10,81477,1,0,0:0:0:0:
380,37,81594,2,0,L|375:141,1,105,8|0,0:0|0:0,0:0:0:0:
253,322,81829,2,0,L|248:218,1,105
108,172,82063,6,0,L|325:186,1,210,4|0,0:0|0:0,0:0:0:0:
405,304,82415,1,0,0:0:0:0:
485,181,82532,2,0,L|475:65,1,105,8|0,0:0|0:0,0:0:0:0:
349,1,82766,2,0,L|339:105,1,105
240,215,83001,6,0,L|216:-14,1,210,4|0,0:0|0:0,0:0:0:0:
113,109,83352,1,0,0:0:0:0:
114,140,83469,2,0,L|125:254,1,105,8|0,0:0|0:0,0:0:0:0:
230,347,83704,2,0,P|239:293|291:249,1,105
414,219,83938,5,4,0:0:0:0:
265,65,84055,1,0,0:0:0:0:
360,296,84172,1,10,0:0:0:0:
275,90,84290,1,0,0:0:0:0:
414,219,84407,1,10,0:0:0:0:
238,348,84524,1,0,0:0:0:0:
346,143,84641,1,2,0:0:0:0:
411,381,84758,1,0,0:0:0:0:
256,182,84876,6,0,B|195:187|195:187|107:177|107:177|42:186,1,210,4|0,0:0|0:0,0:0:0:0:
266,341,85227,1,0,0:0:0:0:
297,338,85344,2,0,B|358:333|358:333|446:343|446:343|511:334,1,210,8|0,0:0|0:0,0:0:0:0:
469,191,85696,1,0,0:0:0:0:
352,101,85813,6,0,L|227:107,1,105,4|0,0:0|0:0,0:0:0:0:
57,308,86047,2,0,L|182:302,1,105
125,159,86282,2,0,P|114:113|140:50,1,105,8|0,0:0|0:0,0:0:0:0:
301,266,86516,2,0,P|312:312|286:375,1,105
216,238,86751,6,0,P|257:189|385:238,1,210,4|0,0:0|0:0,0:0:0:0:
424,367,87102,1,0,0:0:0:0:
494,238,87219,2,0,B|503:55|503:55|455:83,1,210,8|0,0:0|0:0,0:0:0:0:
360,156,87571,1,0,0:0:0:0:
331,168,87688,6,0,L|219:157,1,105,4|0,0:0|0:0,0:0:0:0:
106,73,87922,1,10,0:0:0:0:
94,102,88040,2,0,L|105:214,1,105,0|10,0:0|0:0,0:0:0:0:
194,321,88274,1,0,0:0:0:0:
225,324,88391,2,0,L|329:334,1,105,2|0,0:0|0:0,0:0:0:0:
446,243,88626,6,0,B|420:81|420:81|381:133,1,210,4|0,0:0|0:0,0:0:0:0:
327,249,88977,1,0,0:0:0:0:
233,135,89094,2,0,L|-1:149,1,210,8|0,0:0|0:0,0:0:0:0:
116,262,89446,1,0,0:0:0:0:
246,329,89563,6,0,L|388:314,1,105,4|0,0:0|0:0,0:0:0:0:
444,205,89797,2,0,L|302:190,1,105
128,146,90032,2,0,L|270:131,1,105,8|0,0:0|0:0,0:0:0:0:
326,22,90266,2,0,L|184:7,1,105
310,129,90501,6,0,L|328:340,1,210,4|0,0:0|0:0,0:0:0:0:
469,375,90852,1,0,0:0:0:0:
408,241,90969,2,0,P|290:207|224:301,1,210,8|0,0:0|0:0,0:0:0:0:
146,378,91321,1,0,0:0:0:0:
63,256,91438,6,0,L|73:143,1,105,4|0,0:0|0:0,0:0:0:0:
179,50,91672,2,0,L|188:154,1,105,10|0,0:0|0:0,0:0:0:0:
304,268,91907,1,10,0:0:0:0:
501,207,92024,1,0,0:0:0:0:
308,180,92141,1,2,0:0:0:0:
512,126,92258,1,0,0:0:0:0:
445,345,92376,1,0,0:0:0:0:
