osu file format v14

[General]
AudioFilename: audio.mp3
AudioLeadIn: 0
PreviewTime: 61386
Countdown: 0
SampleSet: Soft
StackLeniency: 0.7
Mode: 0
LetterboxInBreaks: 0
WidescreenStoryboard: 0

[Editor]
Bookmarks: 14980,30449,45449,62324
DistanceSpacing: 1
BeatDivisor: 4
GridSize: 4
TimelineZoom: 1

[Metadata]
Title:Real
TitleUnicode:Rё∀˥
Artist:Cyua
ArtistUnicode:Cyua
Creator:Come[Back]Home
Version:Easy
Source:ギルティクラウン
Tags:Cellina Guilty Crown Original Soundtrack
BeatmapID:1207226
BeatmapSetID:468313

[Difficulty]
HPDrainRate:4
CircleSize:2
OverallDifficulty:2
ApproachRate:4
SliderMultiplier:0.999999999999999
SliderTickRate:1

[Events]
//Background and Video events
0,0,"BGccoly.jpg",0,0
//Break Periods
//Storyboard Layer 0 (Background)
//Storyboard Layer 1 (Fail)
//Storyboard Layer 2 (Pass)
//Storyboard Layer 3 (Foreground)
//Storyboard Sound Samples

[TimingPoints]
501,468.75,4,2,0,70,1,0
501,-100,4,2,2,70,0,0
15501,-100,4,2,2,70,0,0
45501,-100,4,2,2,70,0,0
62376,-100,4,2,1,70,0,1
76438,-100,4,2,1,70,0,0
77376,-100,4,2,1,70,0,1
83938,-100,4,2,1,70,0,0
84876,-100,4,2,1,70,0,1
92376,-100,4,2,1,70,0,0

[Colours]
Combo1 : 255,128,192
Combo2 : 128,255,255
Combo3 : 192,192,192
Combo4 : 128,255,128

[HitObjects]
132,269,15501,6,0,B|197:278|197:278|259:266|259:266|336:275,1,200,2|2,0:0|0:0,0:0:0:0:
412,330,16907,1,2,0:0:0:0:
487,263,17376,2,0,L|478:150,1,99.9999999999999,2|2,0:0|0:0,0:0:0:0:
395,108,18313,2,0,L|387:207,1,99.9999999999999,2|2,0:0|0:0,0:0:0:0:
395,307,19251,6,0,B|352:316|309:286|296:258|296:258|269:269|235:263|207:248,1,200,2|2,0:0|0:0,0:0:0:0:
121,222,20657,1,2,0:0:0:0:
189,149,21126,2,0,L|204:38,1,99.9999999999999,2|2,0:0|0:0,0:0:0:0:
292,92,22063,2,0,P|327:101|393:88,1,99.9999999999999,2|2,0:0|0:0,0:0:0:0:
452,12,23001,6,0,L|434:230,1,200,2|2,0:0|0:0,0:0:0:0:
475,303,24407,1,2,0:0:0:0:
380,334,24876,2,0,L|277:319,1,99.9999999999999,2|2,0:0|0:0,0:0:0:0:
183,340,25813,2,0,P|153:343|82:318,1,99.9999999999999,2|2,0:0|0:0,0:0:0:0:
152,245,26751,6,0,B|188:170|188:170|168:39,1,200,2|2,0:0|0:0,0:0:0:0:
77,17,28157,1,2,0:0:0:0:
36,108,28626,2,0,L|51:215,1,99.9999999999999,2|2,0:0|0:0,0:0:0:0:
14,300,29563,1,2,0:0:0:0:
98,353,30032,1,2,0:0:0:0:
192,319,30501,6,0,L|209:116,1,200,2|2,0:0|0:0,0:0:0:0:
294,67,31907,1,2,0:0:0:0:
363,138,32376,2,0,L|468:132,2,99.9999999999999,2|2|2,0:0|0:0|0:0,0:0:0:0:
303,218,33782,1,2,0:0:0:0:
220,273,34251,6,0,P|207:238|218:166,1,99.9999999999999,2|2,0:0|0:0,0:0:0:0:
296,121,35188,2,0,P|303:72|289:24,1,99.9999999999999,2|2,0:0|0:0,0:0:0:0:
205,80,36126,2,0,B|144:88|144:88|79:72|79:72|0:83,1,200,2|2,0:0|0:0,0:0:0:0:
42,175,37532,1,2,0:0:0:0:
128,226,38001,6,0,L|240:207,1,99.9999999999999,2|2,0:0|0:0,0:0:0:0:
298,278,38938,2,0,L|396:294,1,99.9999999999999,2|2,0:0|0:0,0:0:0:0:
475,232,39876,2,0,B|490:165|490:165|448:37,1,200,2|2,0:0|0:0,0:0:0:0:
352,13,41282,1,2,0:0:0:0:
301,99,41751,6,0,B|204:147|204:70|97:116,1,200,2|2,0:0|0:0,0:0:0:0:
20,161,43157,1,2,0:0:0:0:
88,234,43626,2,0,P|110:287|111:341,1,99.9999999999999,2|2,0:0|0:0,0:0:0:0:
205,291,44563,2,0,P|209:241|229:195,1,99.9999999999999,2|2,0:0|0:0,0:0:0:0:
329,198,45501,6,0,P|304:130|173:112,1,200,10|2,0:0|0:0,0:0:0:0:
97,143,46907,1,2,0:0:0:0:
134,235,47376,2,0,B|206:228|206:228|253:245|253:245|353:237,1,200,10|10,0:0|0:0,0:0:0:0:
420,281,48782,1,2,0:0:0:0:
485,203,49251,6,0,L|471:97,1,99.9999999999999,2|2,0:0|0:0,0:0:0:0:
382,58,50188,2,0,P|346:72|280:58,1,99.9999999999999,10|10,0:0|0:0,0:0:0:0:
188,44,51126,2,0,P|139:32|92:48,1,99.9999999999999,2|2,0:0|0:0,0:0:0:0:
45,136,52063,2,0,L|59:242,1,99.9999999999999,2|2,0:0|0:0,0:0:0:0:
28,330,53001,5,10,0:0:0:0:
126,313,53469,2,0,B|190:306|190:306|238:317|238:317|332:304,1,200,2|2,0:0|0:0,0:0:0:0:
406,360,54876,2,0,P|422:316|315:206,1,200,10|10,0:0|0:0,0:0:0:0:
239,187,56282,1,2,0:0:0:0:
305,112,56751,6,0,L|309:4,1,99.9999999999999,2|2,0:0|0:0,0:0:0:0:
213,40,57688,2,0,P|169:52|115:37,1,99.9999999999999,2|10,0:0|0:0,0:0:0:0:
22,7,58626,1,10,0:0:0:0:
49,103,59094,1,2,0:0:0:0:
32,201,59563,6,0,B|77:208|131:184|139:142|144:126|144:126|182:172|219:180|255:172|292:140,1,300,10|0,0:0|0:0,0:0:0:0:
428,313,62376,6,0,L|325:326,1,99.9999999999999,4|8,0:0|0:0,0:0:0:0:
229,338,63313,1,4,0:0:0:0:
266,245,63782,2,0,L|278:145,1,99.9999999999999,8|4,0:0|0:0,0:0:0:0:
374,117,64719,1,8,0:0:0:0:
302,47,65188,2,0,L|85:60,1,200,4|4,0:0|0:0,0:0:0:0:
53,146,66594,6,0,L|62:253,1,99.9999999999999,8|4,0:0|0:0,0:0:0:0:
26,339,67532,1,8,0:0:0:0:
124,323,68001,2,0,B|206:315|206:315|245:327|245:327|332:319,1,200,4|4,0:0|0:0,0:0:0:0:
420,306,69407,1,10,0:0:0:0:
358,227,69876,6,0,P|349:191|363:122,1,99.9999999999999,4|8,0:0|0:0,0:0:0:0:
421,51,70813,1,4,0:0:0:0:
321,39,71282,2,0,L|211:49,1,99.9999999999999,8|4,0:0|0:0,0:0:0:0:
125,18,72219,1,8,0:0:0:0:
146,115,72688,2,0,B|165:181|165:181|128:324,1,200,4|4,0:0|0:0,0:0:0:0:
39,345,74094,5,8,0:0:0:0:
61,247,74563,2,0,P|91:222|166:220,1,99.9999999999999,4|8,0:0|0:0,0:0:0:0:
230,275,75501,2,0,P|274:284|387:173,1,200,4|4,0:0|0:0,0:0:0:0:
400,94,76907,1,10,0:0:0:0:
318,36,77376,6,0,L|205:47,1,99.9999999999999,4|8,0:0|0:0,0:0:0:0:
119,58,78313,1,4,0:0:0:0:
180,136,78782,2,0,P|191:168|184:245,1,99.9999999999999,8|4,0:0|0:0,0:0:0:0:
114,300,79719,1,8,0:0:0:0:
209,331,80188,2,0,L|432:327,1,200,4|4,0:0|0:0,0:0:0:0:
477,254,81594,5,8,0:0:0:0:
386,211,82063,2,0,L|280:213,1,99.9999999999999,4|8,0:0|0:0,0:0:0:0:
186,227,83001,2,0,P|188:186|330:124,1,200,4|4,0:0|0:0,0:0:0:0:
401,165,84407,1,10,0:0:0:0:
368,259,84876,6,0,L|351:358,1,99.9999999999999,4|8,0:0|0:0,0:0:0:0:
252,364,85813,1,4,0:0:0:0:
232,265,86282,2,0,L|215:166,1,99.9999999999999,8|4,0:0|0:0,0:0:0:0:
196,68,87219,1,8,0:0:0:0:
112,117,87688,2,0,L|101:322,1,200,4|4,0:0|0:0,0:0:0:0:
187,367,89094,6,0,P|218:368|298:335,1,99.9999999999999,8|4,0:0|0:0,0:0:0:0:
368,295,90032,2,0,L|359:190,1,99.9999999999999,8|4,0:0|0:0,0:0:0:0:
398,103,90969,1,8,0:0:0:0:
297,102,91438,2,0,L|78:88,1,200,4|0,0:0|0:0,0:0:0:0:
