osu file format v14

[General]
AudioFilename: Blumenkranz.mp3
AudioLeadIn: 0
PreviewTime: 120363
Countdown: 0
SampleSet: Normal
StackLeniency: 0.7
Mode: 0
LetterboxInBreaks: 0
WidescreenStoryboard: 1

[Editor]
Bookmarks: 240363
DistanceSpacing: 1
BeatDivisor: 4
GridSize: 8
TimelineZoom: 0.6999998

[Metadata]
Title:Blumenkranz
TitleUnicode:Blumenkranz
Artist:Cyua
ArtistUnicode:Cyua
Creator:Wormar
Version:Normal
Source:Kill la Kill
Tags:Anime hiroyuki sawano
BeatmapID:567860
BeatmapSetID:242144

[Difficulty]
HPDrainRate:2
CircleSize:2
OverallDifficulty:2
ApproachRate:3
SliderMultiplier:1.3
SliderTickRate:1

[Events]
//Background and Video events
0,0,"background.jpg",0,0
//Break Periods
2,32863,34223
2,96613,118973
2,152863,153848
2,165237,166973
2,177425,178973
//Storyboard Layer 0 (Background)
//Storyboard Layer 1 (Fail)
//Storyboard Layer 2 (Pass)
//Storyboard Layer 3 (Foreground)
//Storyboard Sound Samples

[TimingPoints]
413,375,4,1,0,70,1,0
24413,-200,4,2,0,70,0,0
36413,-100,4,1,0,70,0,0
48413,-200,4,2,0,50,0,0
72413,-100,4,1,1,70,0,1
96413,-133.333333333333,4,1,0,40,0,0
108413,-100,4,1,0,50,0,0
120413,-100,4,1,1,70,0,1
144413,-133.333333333333,4,2,0,50,0,0
168413,-200,4,2,0,60,0,0
180225,-200,4,2,0,80,0,0
192413,-100,4,1,1,70,0,0
216413,-100,4,1,1,70,0,1
240413,-100,4,1,0,30,0,0

[Colours]
Combo1 : 192,192,192
Combo2 : 0,0,0
Combo3 : 255,0,0
Combo4 : 128,0,0
Combo5 : 255,255,255

[HitObjects]
120,72,12413,5,0,0:0:0:0:
208,304,13163,1,0,0:0:0:0:
280,72,13913,1,0,0:0:0:0:
352,304,14663,1,0,0:0:0:0:
128,64,15413,2,0,P|128:192|256:256,1,260
352,64,16913,2,0,P|352:192|480:256,1,260
128,96,18413,1,0,0:0:0:0:
192,288,19163,1,0,0:0:0:0:
128,128,19913,1,0,0:0:0:0:
128,128,20288,1,0,0:0:0:0:
128,128,20663,2,0,P|192:256|320:256,1,260,0|0,0:0|0:0,0:0:0:0:
256,144,21788,1,0,0:0:0:0:
256,144,22163,1,0,0:0:0:0:
256,144,22538,1,0,0:0:0:0:
256,144,22913,2,0,P|192:272|64:272,1,260
96,96,24413,1,0,0:0:0:0:
160,288,25163,1,0,0:0:0:0:
240,96,25913,1,0,0:0:0:0:
200,192,26288,1,0,0:0:0:0:
160,288,26663,1,0,0:0:0:0:
96,96,27413,1,0,0:0:0:0:
120,192,27788,1,0,0:0:0:0:
160,288,28163,1,0,0:0:0:0:
64,96,30413,1,0,0:0:0:0:
160,224,31163,1,0,0:0:0:0:
256,96,31913,1,0,0:0:0:0:
344,224,32663,1,0,0:0:0:0:
104,112,35663,5,0,0:0:0:0:
160,232,36413,1,0,0:0:0:0:
280,272,37163,1,0,0:0:0:0:
328,232,37538,1,0,0:0:0:0:
344,168,37913,1,0,0:0:0:0:
328,104,38288,1,0,0:0:0:0:
280,64,38663,1,0,0:0:0:0:
256,224,39788,2,0,L|320:192,10,65,0|0|0|0|0|0|0|0|0|0|0,0:0|0:0|0:0|0:0|0:0|0:0|0:0|0:0|0:0|0:0|0:0,0:0:0:0:
64,128,42413,2,0,L|128:160,8,65,0|0|0|0|0|0|0|0|0,0:0|0:0|0:0|0:0|0:0|0:0|0:0|0:0|0:0,0:0:0:0:
80,64,44288,1,0,0:0:0:0:
136,24,44663,1,0,0:0:0:0:
264,40,45413,1,0,0:0:0:0:
352,136,46163,1,0,0:0:0:0:
344,264,46913,1,0,0:0:0:0:
264,360,47663,1,0,0:0:0:0:
136,360,48413,1,0,0:0:0:0:
56,256,49163,1,0,0:0:0:0:
80,128,49913,1,0,0:0:0:0:
184,48,50663,1,0,0:0:0:0:
312,40,51413,1,0,0:0:0:0:
432,80,52163,1,0,0:0:0:0:
432,208,52913,1,0,0:0:0:0:
392,256,53288,1,0,0:0:0:0:
328,280,53663,1,0,0:0:0:0:
192,16,54413,2,0,P|128:48|96:112,1,130
88,224,55913,1,0,0:0:0:0:
152,336,56663,1,0,0:0:0:0:
280,368,57413,1,0,0:0:0:0:
392,304,58163,1,0,0:0:0:0:
424,176,58913,2,0,L|424:112,3,65,0|0|0|0,0:0|0:0|0:0|0:0,0:0:0:0:
368,144,60413,1,0,0:0:0:0:
264,64,61163,1,0,0:0:0:0:
136,56,61913,1,0,0:0:0:0:
8,96,62663,1,0,0:0:0:0:
136,128,63413,1,0,0:0:0:0:
256,184,64163,1,0,0:0:0:0:
360,264,64913,1,0,0:0:0:0:
408,312,65288,1,0,0:0:0:0:
432,376,65663,1,0,0:0:0:0:
304,376,66413,2,0,L|176:375|144:375,1,130,0|0,0:0|0:0,0:0:0:0:
88,280,67913,1,0,0:0:0:0:
88,152,68663,1,0,0:0:0:0:
192,72,69413,1,0,0:0:0:0:
320,72,70163,1,0,0:0:0:0:
392,136,70725,1,0,0:0:0:0:
256,192,70913,8,0,72038,0:0:0:0:
256,192,72413,5,0,0:0:0:0:
208,312,73163,2,0,P|360:264|368:128,1,260
344,56,74663,1,0,0:0:0:0:
288,32,75038,1,0,0:0:0:0:
176,96,75788,1,0,0:0:0:0:
136,144,76163,1,0,0:0:0:0:
144,272,76913,1,0,0:0:0:0:
240,360,77663,1,0,0:0:0:0:
304,360,78038,1,0,0:0:0:0:
416,304,78413,2,0,L|416:152,1,130
328,176,79163,2,0,L|328:312,1,130
240,304,79913,2,0,L|240:160,1,130
264,112,80663,1,0,0:0:0:0:
320,88,81038,1,0,0:0:0:0:
352,88,81225,1,0,0:0:0:0:
24,88,82538,1,0,0:0:0:0:
56,208,82913,1,0,0:0:0:0:
144,296,83288,1,0,0:0:0:0:
272,320,83663,1,0,0:0:0:0:
392,304,84038,1,0,0:0:0:0:
416,200,84413,2,0,L|240:168,2,130
432,120,85538,2,0,L|296:96,1,130
176,176,86663,1,0,0:0:0:0:
136,256,87038,1,0,0:0:0:0:
216,288,87788,2,0,L|280:160,1,130
416,176,88913,1,0,0:0:0:0:
336,48,89663,2,0,L|192:48,1,130
72,48,90413,2,0,L|72:192,1,130
152,184,91163,2,0,L|152:40,1,130
232,56,91913,2,0,L|232:200,1,130
232,272,92663,1,0,0:0:0:0:
360,64,93413,1,0,0:0:0:0:
360,96,93600,1,0,0:0:0:0:
360,192,94163,1,0,0:0:0:0:
360,224,94350,1,0,0:0:0:0:
280,280,94913,1,0,0:0:0:0:
216,280,95288,1,0,0:0:0:0:
152,280,95663,1,0,0:0:0:0:
88,280,96038,1,0,0:0:0:0:
40,280,96413,1,0,0:0:0:0:
256,200,120413,5,0,0:0:0:0:
256,136,120788,2,0,L|112:136,1,130
128,200,121538,1,0,0:0:0:0:
128,264,121913,2,0,L|264:264,1,130
320,264,122663,1,0,0:0:0:0:
384,264,123038,1,0,0:0:0:0:
448,264,123413,2,0,L|448:0,1,260
320,0,124913,2,0,L|320:136,1,130
320,128,125663,1,0,0:0:0:0:
320,256,126413,2,0,P|200:208|192:88,1,260
280,0,127913,1,0,0:0:0:0:
216,0,128288,1,0,0:0:0:0:
152,0,128663,1,0,0:0:0:0:
24,0,129413,2,0,P|80:120|208:112,1,260
312,72,130913,1,0,0:0:0:0:
352,40,131288,2,0,L|488:40,1,130
376,128,132413,2,0,L|320:384,1,260
192,384,133913,1,0,0:0:0:0:
128,360,134288,1,0,0:0:0:0:
72,328,134663,1,0,0:0:0:0:
8,216,135413,2,0,P|43:87|200:104,1,260
192,120,136913,2,0,L|264:128,1,65
344,160,137288,1,0,0:0:0:0:
408,224,137663,1,0,0:0:0:0:
464,288,138413,2,0,P|352:360|248:288,1,260
216,176,139913,1,0,0:0:0:0:
216,112,140288,1,0,0:0:0:0:
248,56,140663,1,0,0:0:0:0:
368,0,141413,2,0,P|456:64|352:152,1,260
248,168,142913,1,0,0:0:0:0:
184,152,143288,1,0,0:0:0:0:
136,112,143663,1,0,0:0:0:0:
136,352,145538,2,0,L|136:240,1,97.50000371933
136,208,146288,1,0,0:0:0:0:
216,152,147038,2,0,L|216:352,1,195.00000743866
264,344,148163,1,0,0:0:0:0:
312,344,148538,1,0,0:0:0:0:
400,304,150038,2,0,L|456:224,1,97.50000371933
464,200,150788,2,0,L|432:88,1,97.50000371933
416,88,151538,2,0,L|320:40,1,97.50000371933
304,40,152288,2,0,L|176:64,1,97.50000371933
104,152,155288,5,0,0:0:0:0:
104,200,155663,1,0,0:0:0:0:
120,248,156038,1,0,0:0:0:0:
152,288,156413,2,0,P|384:344|448:40,1,585.00002231598
232,128,160538,1,0,0:0:0:0:
192,160,160913,1,0,0:0:0:0:
184,208,161288,1,0,0:0:0:0:
208,256,161663,1,0,0:0:0:0:
256,272,162038,1,0,0:0:0:0:
304,264,162413,2,0,P|392:184|360:40,1,243.750009298325
368,48,163538,2,0,P|172:48|144:216,1,390.00001487732
72,264,168413,5,0,0:0:0:0:
104,208,168788,1,0,0:0:0:0:
144,160,169163,1,0,0:0:0:0:
248,80,169913,1,0,0:0:0:0:
368,40,170663,1,0,0:0:0:0:
432,32,171038,1,0,0:0:0:0:
440,264,171788,1,0,0:0:0:0:
400,216,172163,1,0,0:0:0:0:
304,128,172913,1,0,0:0:0:0:
184,72,173663,1,0,0:0:0:0:
120,48,174038,1,0,0:0:0:0:
56,24,174413,2,0,L|56:89,2,65
56,152,175913,2,0,L|56:248,2,65
56,216,177038,1,0,0:0:0:0:
56,216,177225,1,0,0:0:0:0:
72,320,180413,6,0,L|112:240,1,65
136,208,181163,1,0,0:0:0:0:
232,120,181913,1,0,0:0:0:0:
352,72,182663,1,0,0:0:0:0:
416,64,183038,1,0,0:0:0:0:
72,320,183788,2,0,L|112:240,1,65,0|0,0:0|0:0,0:0:0:0:
232,120,184913,1,0,0:0:0:0:
352,72,185663,1,0,0:0:0:0:
416,64,186038,1,0,0:0:0:0:
424,128,186413,1,0,0:0:0:0:
408,192,186788,1,0,0:0:0:0:
368,240,187163,2,0,L|296:280,1,65
264,232,187913,2,0,L|320:200,1,65
288,144,188663,1,0,0:0:0:0:
168,88,189413,2,0,L|168:136,1,32.5
264,128,190163,2,0,L|264:160,1,32.5
168,176,190913,2,0,L|168:216,1,32.5
168,304,191663,2,0,L|168:369,1,65
296,336,192413,1,0,0:0:0:0:
400,256,192788,1,0,0:0:0:0:
464,144,193163,1,0,0:0:0:0:
456,16,193538,2,0,L|296:16,1,130
64,312,195038,1,0,0:0:0:0:
72,184,195413,2,0,L|72:119,1,65
264,120,196163,2,0,L|264:256,1,130
256,376,196913,2,0,L|400:376,1,130
432,256,197663,2,0,L|432:120,1,130
344,32,198413,1,0,0:0:0:0:
280,32,198600,2,0,L|200:32,1,65
88,48,199163,2,0,L|0:160,1,130
24,280,199913,1,0,0:0:0:0:
104,384,200288,2,0,L|256:384|240:384,1,130
352,328,201038,1,0,0:0:0:0:
408,208,201413,2,0,L|263:94,1,130
184,80,202163,1,0,0:0:0:0:
64,120,202538,1,0,0:0:0:0:
24,240,202913,1,0,0:0:0:0:
72,360,203288,1,0,0:0:0:0:
200,376,203663,1,0,0:0:0:0:
448,304,204413,2,0,L|447:165,1,130
368,72,205163,1,0,0:0:0:0:
256,0,205538,1,0,0:0:0:0:
128,8,205913,1,0,0:0:0:0:
376,312,207038,1,0,0:0:0:0:
304,208,207413,2,0,L|264:152,1,65
296,344,208163,2,0,L|208:224,1,130
200,176,208725,2,0,L|280:176,1,65
392,176,209288,1,0,0:0:0:0:
296,88,209663,1,0,0:0:0:0:
176,40,210038,1,0,0:0:0:0:
56,88,210413,1,0,0:0:0:0:
16,216,210788,2,0,L|48:368,1,130
80,360,211538,2,0,L|192:280,1,130
376,104,212663,2,0,L|376:240,1,130
248,232,213413,1,0,0:0:0:0:
24,104,214163,2,0,L|24:248,1,130
152,232,214913,1,0,0:0:0:0:
248,144,215288,1,0,0:0:0:0:
336,232,215663,1,0,0:0:0:0:
