osu file format v14

[General]
AudioFilename: Blumenkranz.mp3
AudioLeadIn: 0
PreviewTime: 120363
Countdown: 0
SampleSet: Normal
StackLeniency: 0.7
Mode: 0
LetterboxInBreaks: 0
WidescreenStoryboard: 0

[Editor]
Bookmarks: 92288,240363
DistanceSpacing: 1.5
BeatDivisor: 4
GridSize: 8
TimelineZoom: 1.2

[Metadata]
Title:Blumenkranz
TitleUnicode:Blumenkranz
Artist:Cyua
ArtistUnicode:Cyua
Creator:Wormar
Version:Insane
Source:Kill la Kill
Tags:hiroyuki sawano
BeatmapID:567276
BeatmapSetID:242144

[Difficulty]
HPDrainRate:8
CircleSize:4.5
OverallDifficulty:9
ApproachRate:9
SliderMultiplier:1.8
SliderTickRate:1

[Events]
//Background and Video events
0,0,"background.jpg",0,0
//Break Periods
2,23863,24938
2,96613,101813
//Storyboard Layer 0 (Background)
//Storyboard Layer 1 (Fail)
//Storyboard Layer 2 (Pass)
//Storyboard Layer 3 (Foreground)
//Storyboard Sound Samples

[TimingPoints]
413,375,4,1,0,70,1,0
2251,-125,4,1,0,70,0,0
24413,-200,4,2,0,70,0,0
36413,-100,4,1,0,70,0,0
48413,-200,4,1,0,50,0,0
72413,-100,4,1,0,70,0,1
96413,-200,4,1,0,40,0,0
108413,-100,4,1,0,50,0,0
120413,-100,4,1,0,70,0,1
144413,-133.333333333333,4,2,0,50,0,0
168413,-200,4,2,0,60,0,0
180225,-200,4,2,0,80,0,0
192413,-100,4,1,0,70,0,0
216413,-100,4,1,0,70,0,1
240413,-100,4,1,0,30,0,0

[Colours]
Combo1 : 192,192,192
Combo2 : 0,0,0
Combo3 : 255,0,0
Combo4 : 128,0,0
Combo5 : 255,255,255

[HitObjects]
88,136,12225,5,0,0:0:0:0:
88,272,12413,1,0,0:0:0:0:
88,80,12788,2,0,L|88:224,1,144
88,176,13725,1,0,1:0:0:0:
88,48,13913,1,0,0:0:0:0:
88,256,14288,2,0,L|88:112,1,144
200,192,15225,1,0,0:0:0:0:
320,192,15413,1,0,0:0:0:0:
200,192,15788,1,0,0:0:0:0:
200,72,16163,1,8,0:0:0:0:
360,112,16538,1,0,0:0:0:0:
352,88,16725,2,0,P|232:24|200:32,1,144,8|8,0:0|0:0,0:0:0:0:
152,64,17288,1,0,0:0:0:0:
224,296,17663,1,8,0:0:0:0:
152,64,18038,1,8,0:0:0:0:
152,64,18225,1,8,0:0:0:0:
272,176,18413,1,0,0:0:0:0:
400,280,18788,1,0,0:0:0:0:
200,248,19163,1,8,0:0:0:0:
400,280,19538,1,0,0:0:0:0:
368,192,19725,2,8,B|288:248|208:248,1,144
144,248,20288,2,0,B|96:248|32:200|24:144,1,144,0|8,0:0|0:0,0:0:0:0:
144,144,21225,1,0,0:0:0:0:
360,48,21413,2,0,P|336:136|272:144,1,144
344,128,21975,1,8,0:0:0:0:
168,136,22163,2,0,P|224:208|296:200,1,144,8|0,0:0|0:0,0:0:0:0:
344,128,22725,2,0,P|384:192|344:264,1,144,8|0,0:0|0:0,0:0:0:0:
256,312,23288,1,0,0:0:0:0:
256,136,23663,1,8,0:0:0:0:
344,288,25538,6,0,L|352:184,1,90
368,16,26288,1,0,0:0:0:0:
192,48,27038,2,0,L|152:136,1,90
88,224,27788,1,0,0:0:0:0:
224,328,27975,1,0,0:0:0:0:
176,176,28163,1,0,2:0:0:0:
112,320,28350,1,0,0:0:0:0:
256,240,28538,1,0,2:0:0:0:
384,0,30038,1,0,2:0:0:0:
296,8,30225,1,0,0:0:0:0:
232,72,30413,1,0,0:0:0:0:
200,160,30600,1,0,0:0:0:0:
224,336,30788,2,0,L|264:256,1,90
200,160,31350,1,0,0:0:0:0:
112,328,31538,2,0,L|174:264,1,90
200,160,32100,1,0,0:0:0:0:
8,248,32288,2,0,L|95:231,1,90
80,136,35288,1,0,0:0:0:0:
80,224,35475,1,0,0:0:0:0:
144,104,35663,1,0,2:0:0:0:
80,224,35850,1,0,0:0:0:0:
208,72,36038,1,0,2:0:0:0:
80,224,36225,1,0,0:0:0:0:
264,40,36413,1,0,0:0:0:0:
360,0,36788,1,0,0:0:0:0:
172,152,37350,1,0,0:0:0:0:
264,116,37538,1,0,0:0:0:0:
180,100,37725,1,8,0:0:0:0:
260,168,37913,1,0,0:0:0:0:
224,88,38100,1,8,0:0:0:0:
212,172,38288,2,0,P|268:228|372:212,2,180,0|8|0,0:0|0:0|0:0,0:0:0:0:
344,96,39225,1,8,0:0:0:0:
256,120,39413,1,0,0:0:0:0:
96,208,39788,1,0,0:0:0:0:
256,296,40163,1,8,0:0:0:0:
168,144,40538,1,0,0:0:0:0:
216,224,40725,1,8,0:0:0:0:
128,64,41100,1,8,0:0:0:0:
168,144,41288,1,0,0:0:0:0:
328,64,41663,1,8,0:0:0:0:
360,144,41850,1,0,0:0:0:0:
264,152,42038,1,0,1:0:0:0:
296,236,42225,1,8,0:0:0:0:
176,304,42413,2,0,P|248:352|320:304,1,180
176,216,43163,2,0,P|107:244|101:343,1,180,8|0,0:0|0:0,0:0:0:0:
272,208,43725,2,0,P|237:142|138:144,1,180,8|0,0:0|0:0,0:0:0:0:
224,200,44288,2,0,P|248:130|179:59,1,180,8|0,0:0|0:0,0:3:0:0:
32,128,45038,1,0,0:0:0:0:
176,56,45413,1,0,0:0:0:0:
352,72,45788,1,0,0:0:0:0:
312,152,45975,1,8,0:0:0:0:
240,96,46163,1,8,0:0:0:0:
424,32,46538,1,0,0:3:0:0:
432,120,46725,1,8,0:3:0:0:
344,104,46913,1,8,0:3:0:0:
280,296,47288,1,4,1:0:0:0:
104,248,47663,1,8,1:0:0:0:
32,112,48038,1,0,1:0:0:0:
72,320,48413,1,0,1:0:0:0:
180,176,48788,1,0,0:0:0:0:
288,320,49163,1,0,1:0:0:0:
392,172,49538,1,0,0:0:0:0:
400,104,49913,2,0,L|333:164,1,90
256,208,50663,1,0,1:0:0:0:
168,216,51038,1,0,0:0:0:0:
80,240,51413,1,0,0:0:0:0:
120,264,51600,1,0,0:0:0:0:
168,272,51788,1,0,0:0:0:0:
208,264,51975,1,0,0:0:0:0:
240,232,52163,1,0,0:0:0:0:
240,184,52350,1,0,0:0:0:0:
200,160,52538,1,0,0:0:0:0:
160,176,52725,1,0,0:0:0:0:
144,216,52913,1,0,0:0:0:0:
168,304,53288,1,0,0:0:0:0:
192,344,53663,1,0,0:0:0:0:
232,368,54038,1,0,0:0:0:0:
368,48,54413,1,0,0:0:0:0:
356,136,54788,2,0,P|316:232|244:284,1,180
96,304,55913,1,0,0:0:0:0:
192,176,56288,1,0,0:0:0:0:
336,48,56663,2,0,L|264:112,1,90
144,240,57413,1,0,0:0:0:0:
424,48,58163,1,0,0:0:0:0:
144,240,58913,1,0,0:0:0:0:
80,128,59288,1,0,0:0:0:0:
208,128,59663,1,0,0:0:0:0:
296,32,60038,1,0,0:0:0:0:
144,32,60413,1,0,0:0:0:0:
32,192,60788,1,0,0:0:0:0:
208,248,61163,1,8,1:0:0:0:
288,88,61538,1,0,0:0:0:0:
120,16,61913,1,0,0:0:0:0:
0,128,62288,1,0,0:0:0:0:
184,80,62663,1,8,0:0:0:0:
232,256,63038,1,0,0:0:0:0:
64,312,63413,1,0,0:0:0:0:
64,136,63788,1,0,0:0:0:0:
240,136,64163,1,8,0:0:0:0:
240,320,64538,1,0,0:0:0:0:
240,136,64913,1,0,0:0:0:0:
64,136,65288,1,0,0:0:0:0:
64,312,65663,1,8,0:0:0:0:
312,48,66413,1,0,0:0:0:0:
192,104,66788,1,0,0:0:0:0:
104,200,67163,1,8,0:0:0:0:
64,328,67538,1,0,0:0:0:0:
168,240,67913,1,0,0:0:0:0:
296,192,68288,1,0,0:0:0:0:
240,312,68663,1,8,0:0:0:0:
368,280,69038,1,0,0:0:0:0:
256,192,69413,8,0,70725,2:0:0:0:
208,104,72413,5,4,0:0:0:0:
160,336,72788,2,0,P|72:336|32:256,2,180,0|8|0,0:0|0:0|0:0,0:0:0:0:
176,240,73725,1,0,0:0:0:0:
208,104,73913,1,0,0:0:0:0:
304,200,74100,1,0,0:0:0:0:
328,336,74288,2,0,P|416:312|440:232,2,180,0|8|0,0:0|0:0|0:0,0:0:0:0:
200,296,75225,1,0,0:0:0:0:
136,176,75413,1,0,0:0:0:0:
392,88,75788,1,0,0:0:0:0:
328,216,76163,2,0,B|280:287|176:311,1,180,8|0,0:0|0:0,0:0:0:0:
88,312,76725,1,0,0:0:0:0:
88,224,76913,1,0,0:0:0:0:
144,160,77100,1,0,0:0:0:0:
232,136,77288,1,0,0:0:0:0:
224,224,77663,2,0,P|312:288|408:296,1,180,8|0,0:0|0:0,0:0:0:0:
440,224,78225,1,0,0:0:0:0:
400,144,78413,1,0,0:0:0:0:
464,80,78600,2,0,P|425:58|368:56,1,90
304,200,79163,1,8,0:0:0:0:
216,232,79350,2,0,P|248:272|312:304,1,90
360,128,79913,1,0,0:0:0:0:
448,96,80100,2,0,P|416:56|360:32,1,90
376,288,80663,2,0,P|300:247|298:161,1,180,8|0,0:0|0:0,0:0:0:0:
336,88,81225,1,0,0:0:0:0:
256,72,81413,2,0,P|347:102|359:176,2,180,0|0|8,0:0|0:0|0:0,0:0:0:0:
152,352,82538,2,0,P|200:320|232:256,1,90
336,152,82913,2,0,P|296:184|272:224,1,90,0|0,0:0|0:0,0:0:0:0:
352,352,83288,2,0,P|304:312|288:280,1,90
184,184,83663,2,0,P|120:112|16:120,1,180
40,200,84225,1,0,0:0:0:0:
88,272,84413,1,4,0:0:0:0:
176,280,84600,1,0,0:0:0:0:
208,192,84788,2,0,P|135:140|96:60,2,180,0|8|0,0:0|0:0|0:0,0:0:0:0:
296,208,85725,1,0,0:0:0:0:
385,72,85913,2,0,P|382:117|368:160,2,90
328,240,86475,1,0,0:0:0:0:
296,328,86663,2,0,P|224:264|248:192,1,180,8|0,0:0|0:0,0:0:0:0:
160,216,87225,1,0,0:0:0:0:
48,72,87413,2,0,P|88:80|120:144,1,90
256,216,87788,2,0,P|304:216|344:176,1,90
160,216,88163,2,0,P|230:157|272:64,1,180,8|0,0:0|0:0,0:0:0:0:
344,64,88725,1,0,0:0:0:0:
344,64,88913,1,0,0:0:0:0:
352,152,89100,1,0,0:0:0:0:
328,240,89288,1,0,0:0:0:0:
256,296,89475,1,0,0:0:0:0:
264,200,89663,2,0,P|208:216|168:328,1,180,8|0,0:0|0:0,0:0:0:0:
112,152,90413,1,0,0:0:0:0:
256,48,90788,1,0,0:0:0:0:
400,160,91163,1,8,0:0:0:0:
352,176,91538,2,0,L|416:272,1,90
255,265,91913,2,0,L|256:176,1,90
160,176,92288,2,0,L|96:272,1,90
160,176,92663,1,8,0:0:0:0:
312,272,93038,1,0,0:0:0:0:
336,184,93413,2,0,P|376:208|400:256,2,90
312,272,94163,2,0,P|272:288|192:280,2,90,8|0|0,0:0|0:0|0:0,0:0:0:0:
248,208,94725,2,0,P|296:192|360:200,1,90
416,232,95100,2,0,P|424:176|408:128,1,90
336,192,95475,2,0,P|336:248|360:296,1,90,0|8,0:0|0:0,0:0:0:0:
256,280,95850,1,0,0:0:0:0:
136,216,96038,1,0,0:0:0:0:
256,156,96225,1,0,0:0:0:0:
140,88,96413,1,4,0:0:0:0:
128,128,102413,5,0,0:0:0:0:
128,128,102600,1,8,0:0:0:0:
56,80,102975,1,0,0:0:0:0:
88,48,103163,1,0,0:0:0:0:
136,40,103350,1,8,0:0:0:0:
32,120,103725,1,0,0:0:0:0:
40,160,103913,1,8,0:0:0:0:
64,200,104100,1,8,0:0:0:0:
104,216,104288,1,0,0:0:0:0:
152,216,104475,1,8,0:0:0:0:
192,200,104663,1,8,0:0:0:0:
216,176,104850,1,0,0:0:0:0:
256,80,105225,1,0,0:0:0:0:
304,72,105413,1,8,0:0:0:0:
352,72,105600,1,0,0:0:0:0:
424,104,105975,1,0,0:0:0:0:
448,144,106163,1,8,0:0:0:0:
448,192,106350,1,0,0:0:0:0:
336,136,106725,1,0,0:0:0:0:
320,176,106913,1,8,0:0:0:0:
288,208,107100,1,8,0:0:0:0:
248,224,107288,1,8,0:0:0:0:
200,224,107475,1,8,0:0:0:0:
160,216,107663,1,8,0:0:0:0:
128,200,107850,1,0,0:0:0:0:
96,168,108038,1,0,0:0:0:0:
72,200,108225,1,0,0:0:0:0:
80,256,108413,2,0,P|192:288|288:280,1,180,8|8,0:0|0:0,0:0:0:0:
256,336,108975,1,0,0:0:0:0:
432,216,109163,2,0,P|320:184|224:192,1,180,8|8,0:0|0:0,0:0:0:0:
256,128,109725,1,0,0:0:0:0:
256,336,109913,1,0,0:0:0:0:
96,344,110100,1,0,0:0:0:0:
176,224,110288,2,0,B|176:120,1,90,8|0,0:0|0:0,0:0:0:0:
88,56,110663,2,0,B|176:16|288:56,1,180,8|8,0:0|0:0,0:0:0:0:
336,104,111225,1,0,0:0:0:0:
256,144,111413,2,0,P|320:200|400:168,1,180,8|0,0:0|0:0,0:0:0:0:
288,312,111975,1,8,0:0:0:0:
368,272,112163,2,0,P|304:216|224:248,1,180,8|0,0:0|0:0,0:0:0:0:
152,304,112725,1,8,0:0:0:0:
72,264,112913,1,0,0:0:0:0:
152,216,113100,1,8,0:0:0:0:
72,176,113288,1,0,0:0:0:0:
152,128,113475,1,8,0:0:0:0:
216,64,113663,2,0,P|136:31|72:88,1,180,8|0,0:0|0:0,0:0:0:0:
72,176,114225,1,0,0:0:0:0:
88,264,114413,2,0,P|180:328|258:291,1,180,8|8,0:0|0:0,0:0:0:0:
312,264,114975,1,0,0:0:0:0:
368,192,115163,1,8,0:0:0:0:
192,216,115538,1,0,0:0:0:0:
224,136,115725,1,8,0:0:0:0:
96,256,116100,1,0,0:0:0:0:
184,264,116288,2,0,B|184:152|48:160,1,180,8|8,0:0|0:0,0:0:0:0:
128,96,116850,1,8,0:0:0:0:
208,48,117038,1,0,0:0:0:0:
296,56,117225,1,0,0:0:0:0:
368,112,117413,1,8,0:0:0:0:
272,152,117600,1,0,0:0:0:0:
368,200,117788,1,0,0:0:0:0:
272,248,117975,1,8,0:0:0:0:
368,296,118163,1,8,0:0:0:0:
96,256,118538,1,0,0:0:0:0:
184,272,118725,1,8,0:0:0:0:
264,224,118913,1,8,0:0:0:0:
184,272,119100,1,0,0:0:0:0:
96,256,119288,1,8,0:0:0:0:
168,184,119475,2,0,L|184:280,1,90
208,120,120413,2,0,B|256:48|368:56,1,180
256,280,120975,1,0,0:0:0:0:
376,256,121163,2,0,B|456:296|456:296|360:344,1,180,8|0,0:0|0:0,0:0:0:0:
256,280,121725,1,0,0:0:0:0:
272,352,121913,2,0,P|224:344|184:312,1,90
192,240,122288,2,0,P|232:208|296:208,1,90
360,192,122663,2,0,P|320:128|208:128,1,180,8|0,0:0|0:0,0:0:0:0:
120,240,123413,2,0,P|160:312|272:360,1,180
192,208,123975,1,0,0:0:0:0:
357,20,124163,2,0,P|311:96|232:136,1,180,8|0,0:0|0:0,0:0:0:0:
192,208,124725,1,0,0:0:0:0:
128,152,124913,2,0,P|86:118|80:64,1,90
160,80,125288,2,0,P|200:104|232:160,1,90
256,216,125663,2,0,P|297:279|401:319,1,180,8|0,0:0|0:0,0:0:0:0:
472,320,126225,1,0,0:0:0:0:
448,184,126413,1,0,0:0:0:0:
208,56,126788,1,0,0:0:0:0:
448,184,127163,1,8,0:0:0:0:
208,56,127538,1,0,0:0:0:0:
328,120,127725,1,0,0:0:0:0:
274,335,127913,2,0,L|296:248,1,90
231,129,128288,2,0,L|208:216,1,90
66,350,128663,2,0,L|112:176,1,180,8|0,0:0|0:0,0:0:0:0:
64,232,129225,1,0,0:0:0:0:
156,40,129413,2,0,B|64:40|64:40|64:128,1,180
68,304,130163,2,0,B|152:304|152:304|152:208,1,180,8|0,0:0|0:0,0:0:0:0:
64,216,130725,1,0,0:0:0:0:
64,128,130913,1,0,0:0:0:0:
152,128,131100,1,0,0:0:0:0:
152,40,131288,2,0,B|248:40,1,90
328,40,131663,1,8,0:0:0:0:
456,88,131850,1,8,0:0:0:0:
328,176,132038,1,0,0:0:0:0:
456,224,132225,1,0,0:0:0:0:
207,327,132413,2,0,P|252:328|295:316,1,90,4|0,0:0|0:0,0:0:0:0:
349,155,132788,2,0,P|290:222|208:256,2,180,0|8|0,0:0|0:0|0:0,0:0:0:0:
120,256,133725,1,0,0:0:0:0:
72,176,133913,2,0,P|56:96|112:16,2,180,0|8|0,0:0|0:0|0:0,0:0:0:0:
120,256,134850,1,0,0:0:0:0:
240,192,135038,1,0,0:0:0:0:
280,320,135225,1,0,0:0:0:0:
487,192,135413,2,0,P|449:271|368:304,2,180,0|0|8,0:0|0:0|0:0,0:0:0:0:
192,312,136538,1,0,0:0:0:0:
120,256,136725,1,0,0:0:0:0:
200,232,136913,1,0,0:0:0:0:
104,336,137100,1,0,0:0:0:0:
200,232,137288,1,0,0:0:0:0:
280,144,137475,1,0,0:0:0:0:
375,55,137663,2,0,P|445:110|465:196,1,180,8|0,0:0|0:0,0:0:0:0:
448,248,138225,1,0,0:0:0:0:
450,351,138413,2,0,P|377:302|368:216,1,180,4|0,0:0|0:0,0:0:0:0:
285,80,139163,2,0,P|358:129|368:216,1,180,8|0,0:0|0:0,0:0:0:0:
200,104,139725,1,0,0:0:0:0:
200,32,139913,1,0,0:0:0:0:
160,184,140100,1,0,0:0:0:0:
160,256,140288,2,0,P|168:184|80:128,1,180,0|8,0:0|0:0,0:0:0:0:
96,40,140850,1,8,0:0:0:0:
184,64,141038,1,0,0:0:0:0:
240,136,141225,1,0,0:0:0:0:
152,112,141413,2,0,P|168:176|272:232,2,180,0|0|8,0:0|0:0|0:0,0:0:0:0:
352,232,142538,1,0,0:0:0:0:
472,192,142725,1,0,0:0:0:0:
472,80,142913,1,0,0:0:0:0:
352,24,143100,1,0,0:0:0:0:
256,128,143288,1,0,0:0:0:0:
368,128,143475,1,0,0:0:0:0:
368,128,143663,1,8,0:0:0:0:
48,32,144038,1,0,0:0:0:0:
96,104,144225,1,0,0:0:0:0:
144,24,144413,1,2,0:0:0:0:
287,327,145538,2,0,P|270:263|294:201,1,135.000005149842
371,245,146288,2,0,P|336:127|216:152,2,270.000010299683
72,352,148163,2,0,L|146:239,1,135.000005149842
168,280,150038,1,0,2:0:0:0:
224,264,150225,1,0,0:0:0:0:
280,240,150413,1,0,2:0:0:0:
232,200,150600,2,0,L|160:168,1,67.5000025749208
120,152,150975,1,0,0:0:0:0:
168,112,151163,1,0,2:0:0:0:
216,72,151350,2,0,L|272:24,1,67.5000025749208
296,80,151725,1,0,0:0:0:0:
336,128,151913,1,0,2:0:0:0:
376,184,152100,2,0,L|304:192,1,67.5000025749208
248,200,152475,1,0,0:0:0:0:
184,208,152663,1,0,2:0:0:0:
168,192,155288,1,0,2:0:0:0:
168,192,155475,1,0,0:0:0:0:
256,192,155663,2,0,L|256:120,1,67.5000025749208
344,192,156038,2,0,L|344:272,1,67.5000025749208
256,192,156413,8,0,159413,0:0:0:0:
192,240,160538,5,0,2:0:0:0:
168,176,160725,1,0,0:0:0:0:
152,112,160913,1,0,2:0:0:0:
200,152,161100,1,0,0:0:0:0:
248,192,161288,1,0,2:0:0:0:
296,152,161475,1,0,0:0:0:0:
336,104,161663,1,0,2:0:0:0:
328,168,161850,1,0,0:0:0:0:
312,224,162038,1,0,2:0:0:0:
280,168,162225,1,0,0:0:0:0:
248,112,162413,1,0,2:0:0:0:
256,192,162506,8,0,163538,0:0:0:0:
256,192,163631,8,0,165413,2:0:0:0:
184,272,168413,5,0,2:0:0:0:
248,208,168788,1,0,2:0:0:0:
288,128,169163,2,0,P|344:160|464:160,2,180
304,40,171038,1,0,0:0:0:0:
120,128,171788,1,0,2:0:0:0:
32,160,172163,2,0,B|64:208|96:240|144:256|184:268,2,180
120,128,174038,1,0,2:0:0:0:
160,152,174413,1,0,2:0:0:0:
352,152,174600,2,0,L|352:200,1,45
160,224,175163,1,0,2:0:0:0:
352,224,175350,2,0,L|288:224,1,45
160,296,175913,1,0,2:0:0:0:
352,296,176100,2,0,L|352:248,1,45
256,144,176475,1,0,0:0:0:0:
256,296,176663,1,0,2:0:0:0:
256,296,177038,1,0,2:0:0:0:
256,144,177225,1,0,2:0:0:0:
312,40,178538,1,0,2:0:0:0:
224,40,178913,2,0,L|160:48,1,45
128,56,179288,2,0,L|88:80,1,45
64,104,179663,2,0,L|40:144,1,45
32,192,180038,2,0,L|32:248,1,45
48,288,180413,1,8,0:0:0:0:
104,320,180600,1,0,0:0:0:0:
104,320,180788,1,0,0:0:0:0:
192,344,180975,1,0,0:0:0:0:
192,344,181163,2,0,P|272:352|368:304,2,180
168,256,182850,1,0,0:0:0:0:
168,256,183038,2,0,P|240:272|296:264,1,90,0|8,0:0|0:0,0:0:0:0:
336,240,183600,1,0,0:0:0:0:
336,240,183788,1,0,0:0:0:0:
392,168,183975,1,0,0:0:0:0:
392,168,184163,2,0,P|432:240|360:328,1,180
208,320,185663,1,0,0:0:0:0:
160,320,185850,1,0,0:0:0:0:
128,280,186038,1,0,0:0:0:0:
80,216,186413,1,8,1:0:0:0:
56,112,186788,1,0,1:0:0:0:
136,40,187163,1,0,0:0:0:0:
168,136,187538,1,0,0:0:0:0:
200,240,187913,1,0,0:0:0:0:
288,144,188288,1,0,0:0:0:0:
248,40,188663,1,0,1:0:0:0:
416,48,189413,1,8,1:0:0:0:
440,88,189600,1,0,0:0:0:0:
440,136,189788,1,0,1:0:0:0:
416,224,190163,1,0,0:0:0:0:
384,256,190350,1,0,0:0:0:0:
352,288,190538,1,0,0:0:0:0:
312,304,190725,1,0,0:0:0:0:
216,304,191100,2,0,P|144:280|88:216,1,135
64,160,192038,1,0,0:0:0:0:
120,88,192225,1,0,0:0:0:0:
120,88,192413,2,0,P|184:144|184:200,1,90,4|0,0:0|0:0,0:0:0:0:
200,232,192788,2,0,P|264:168|240:72,2,180,0|8|0,0:0|0:0|0:0,0:0:0:0:
112,216,193725,1,0,0:0:0:0:
136,304,193913,1,0,0:0:0:0:
208,352,194100,1,0,0:0:0:0:
296,352,194288,1,0,0:0:0:0:
288,176,194663,1,8,0:0:0:0:
456,240,195038,2,0,P|472:192|456:136,1,90
384,192,195413,2,0,P|376:144|400:96,1,90
464,152,195788,2,0,P|450:246|356:286,2,180,0|8|0,0:0|0:0|0:0,0:0:0:0:
384,192,196725,2,0,P|352:160|280:160,1,90
224,184,197100,1,0,0:0:0:0:
296,240,197288,2,0,P|192:272|136:216,1,180,0|8,0:0|0:0,0:0:0:0:
56,48,198038,1,0,0:0:0:0:
120,112,198225,1,0,0:0:0:0:
56,176,198413,1,0,0:0:0:0:
184,176,198600,1,0,0:0:0:0:
184,48,198788,2,0,P|256:88|280:184,2,180,0|8|0,0:0|0:0|0:0,0:0:0:0:
120,112,199725,1,0,0:0:0:0:
192,168,199913,1,0,0:0:0:0:
120,216,200100,1,0,0:0:0:0:
192,264,200288,2,0,P|280:304|376:288,1,180,0|8,0:0|0:0,0:0:0:0:
496,168,201038,1,0,0:0:0:0:
440,96,201225,1,0,0:0:0:0:
368,40,201413,2,0,B|314:11|240:8|168:48,1,180,0|0,0:0|0:0,0:0:0:0:
152,112,201975,1,8,0:0:0:0:
112,192,202163,2,0,B|144:232|224:264|274:253,1,180,8|0,0:0|0:0,0:0:0:0:
400,176,202725,1,0,0:0:0:0:
376,88,202913,1,0,0:0:0:0:
296,40,203100,1,0,0:0:0:0:
208,24,203288,1,0,0:0:0:0:
296,40,203475,1,0,0:0:0:0:
376,88,203663,1,8,0:0:0:0:
312,152,203850,1,8,0:0:0:0:
224,184,204038,1,0,0:0:0:0:
136,168,204225,1,0,0:0:0:0:
160,80,204413,2,0,P|72:104|64:232,1,180,4|0,0:0|0:0,0:0:0:0:
200,272,205163,1,8,0:0:0:0:
376,272,205538,2,0,P|448:200|416:160,1,90
376,192,205913,1,0,0:0:0:0:
448,144,206100,1,0,0:0:0:0:
368,104,206288,2,0,P|304:136|304:248,1,180,0|8,0:0|0:0,0:0:0:0:
144,328,207038,1,0,0:0:0:0:
80,272,207225,1,0,0:0:0:0:
48,192,207413,1,0,0:0:0:0:
80,112,207600,1,0,0:0:0:0:
144,56,207788,2,0,P|240:32|320:64,2,180,0|8|0,0:0|0:0|0:0,0:0:0:0:
400,320,208913,1,0,0:0:0:0:
224,280,209100,1,0,0:0:0:0:
400,232,209288,1,0,0:0:0:0:
224,192,209475,1,0,0:0:0:0:
400,136,209663,2,0,P|304:112|216:88,2,180,8|0|0,0:0|0:0|0:0,0:0:0:0:
336,200,210600,1,0,0:0:0:0:
320,288,210788,2,0,P|257:236|305:116,1,180,0|8,0:0|0:0,0:0:0:0:
96,88,211538,1,0,0:0:0:0:
88,176,211725,1,0,0:0:0:0:
176,168,211913,2,0,P|168:216|120:264,1,90
56,280,212288,2,0,P|64:216|104:184,2,90,0|0|8,0:0|0:0|0:0,0:0:0:0:
176,240,213038,1,0,0:0:0:0:
176,240,213225,1,0,0:0:0:0:
176,312,213413,2,0,L|376:312,1,180
176,240,213975,1,8,0:0:0:0:
360,168,214163,2,0,L|180:168,1,180,8|0,0:0|0:0,0:0:0:0:
184,96,214725,1,0,0:0:0:0:
112,152,214913,1,0,0:0:0:0:
256,192,215100,1,0,0:0:0:0:
112,248,215288,1,0,0:0:0:0:
256,288,215475,1,0,0:0:0:0:
256,288,215663,1,8,0:0:0:0:
112,248,215850,1,8,0:0:0:0:
256,192,216038,1,0,0:0:0:0:
112,152,216225,1,0,0:0:0:0:
184,96,216413,2,0,P|304:88|312:8,2,180,4|0|8,0:0|0:0|0:0,0:0:0:0:
152,256,217350,2,0,P|88:184|80:72,1,180
168,96,217913,1,0,0:0:0:0:
256,120,218100,1,0,0:0:0:0:
320,184,218288,2,0,P|344:104|272:32,2,180,0|8|0,0:0|0:0|0:0,0:0:0:0:
256,248,219225,1,0,0:0:0:0:
168,272,219413,1,0,0:0:0:0:
88,232,219600,1,0,0:0:0:0:
80,144,219788,2,0,P|168:104|256:128,1,180,0|8,0:0|0:0,0:0:0:0:
392,232,220538,1,0,0:0:0:0:
320,288,220725,1,0,0:0:0:0:
232,296,220913,1,0,0:0:0:0:
144,272,221100,1,0,0:0:0:0:
88,208,221288,1,0,0:0:0:0:
80,120,221475,1,0,0:0:0:0:
80,32,221663,2,0,L|200:32|264:32,1,180,8|0,0:0|0:0,0:0:0:0:
328,96,222225,1,0,0:0:0:0:
392,160,222413,2,0,P|360:184|296:168,1,90
256,248,222788,2,0,P|200:168|280:56,1,180,0|8,0:0|0:0,0:0:0:0:
288,152,223350,2,0,P|344:72|440:32,1,180
416,128,223913,1,0,0:0:0:0:
376,208,224100,1,0,0:0:0:0:
320,280,224288,2,0,P|192:280|136:240,1,180,0|8,0:0|0:0,0:0:0:0:
432,216,225038,1,0,0:0:0:0:
360,272,225225,1,0,0:0:0:0:
352,184,225413,1,0,0:0:0:0:
352,184,225788,1,0,0:0:0:0:
512,248,225975,1,8,0:0:0:0:
368,360,226163,1,8,0:0:0:0:
192,336,226538,1,0,0:0:0:0:
128,272,226725,1,0,0:0:0:0:
88,192,226913,1,0,0:0:0:0:
80,104,227100,1,0,0:0:0:0:
152,152,227288,1,0,0:0:0:0:
232,200,227475,1,0,0:0:0:0:
320,232,227663,1,8,0:0:0:0:
240,280,227850,1,8,0:0:0:0:
152,272,228038,1,0,0:0:0:0:
72,232,228225,1,0,0:0:0:0:
160,208,228413,1,4,0:0:0:0:
240,160,228600,1,0,0:0:0:0:
304,96,228788,1,0,0:0:0:0:
344,16,228975,1,0,0:0:0:0:
344,16,229163,1,8,0:0:0:0:
136,304,229538,1,0,0:0:0:0:
136,184,229725,1,0,0:0:0:0:
256,192,229913,1,0,0:0:0:0:
256,304,230100,1,0,0:0:0:0:
256,184,230288,2,0,B|256:328|128:328|136:288,1,180,0|8,0:0|0:0,0:0:0:0:
72,288,231038,1,0,0:0:0:0:
24,216,231225,1,0,0:0:0:0:
40,128,231413,1,0,0:0:0:0:
96,64,231600,1,0,0:0:0:0:
184,64,231788,1,0,0:0:0:0:
320,184,232163,1,8,0:0:0:0:
184,160,232538,1,0,0:0:0:0:
256,64,232725,1,0,0:0:0:0:
328,160,232913,1,0,0:0:0:0:
328,288,233100,1,0,0:0:0:0:
184,288,233288,1,0,0:0:0:0:
256,232,233475,1,0,0:0:0:0:
256,232,233663,1,8,0:0:0:0:
256,320,234038,1,0,0:0:0:0:
144,104,234413,2,0,P|142:192|187:269,1,180
144,104,234975,1,0,0:0:0:0:
315,118,235163,2,0,P|231:87|144:104,1,180,8|0,0:0|0:0,0:0:0:0:
360,104,235725,1,0,0:0:0:0:
280,136,235913,1,0,0:0:0:0:
440,72,236100,1,0,0:0:0:0:
440,160,236288,1,0,0:0:0:0:
352,200,236475,1,0,0:0:0:0:
432,248,236663,1,8,0:0:0:0:
272,328,237038,1,0,0:0:0:0:
184,336,237225,1,0,0:0:0:0:
104,304,237413,1,0,0:0:0:0:
34,151,237600,2,0,P|31:195|40:240,2,90
136,232,238163,2,0,B|128:32,1,180,8|0,0:0|0:0,0:0:0:0:
48,72,238725,1,0,0:0:0:0:
132,53,238913,1,0,0:0:0:0:
216,72,239100,1,0,0:0:0:0:
136,56,239288,1,0,0:0:0:0:
144,232,239475,1,0,0:0:0:0:
216,72,239663,1,8,0:0:0:0:
80,184,239850,1,0,0:0:0:0:
248,144,240038,1,0,0:0:0:0:
72,104,240225,1,0,0:0:0:0:
216,216,240413,1,4,0:0:0:0:
