osu file format v14

[General]
AudioFilename: 09. AL-@.mp3
AudioLeadIn: 0
PreviewTime: 72220
Countdown: 0
SampleSet: None
StackLeniency: 0.7
Mode: 0
LetterboxInBreaks: 1
WidescreenStoryboard: 1

[Editor]
Bookmarks: 24244,46732,72220,96208,126193
DistanceSpacing: 1
BeatDivisor: 4
GridSize: 4
TimelineZoom: 1

[Metadata]
Title:Aldnoah
TitleUnicode:AL℃-@
Artist:Cyua
ArtistUnicode:Cyua
Creator:Aoko
Version:Normal
Source:アルドノア・ゼロ
Tags:澤野弘之 Aldnoah.Zero Hiroyuki Sawano
BeatmapID:679428
BeatmapSetID:303161

[Difficulty]
HPDrainRate:3
CircleSize:4
OverallDifficulty:4
ApproachRate:3
SliderMultiplier:1.4
SliderTickRate:2

[Events]
//Background and Video events
0,0,"lunar_occupation__wallpaper_version__aldnoah_zero_by_jonathan_n_b-d7yyt2d.jpg",0,0
//Break Periods
2,120436,124796
//Storyboard Layer 0 (Background)
//Storyboard Layer 1 (Fail)
//Storyboard Layer 2 (Pass)
//Storyboard Layer 3 (Foreground)
//Storyboard Sound Samples

[TimingPoints]
236,750,4,3,0,100,1,0
46923,-100,4,3,0,25,0,0
47298,-100,4,3,0,100,0,0
72236,-100,4,3,0,100,0,1
96423,-100,4,3,0,100,0,0

[Colours]
Combo1 : 128,128,255
Combo2 : 0,128,255
Combo3 : 192,192,192
Combo4 : 128,255,128

[HitObjects]
40,228,24236,6,0,P|64:292|124:328,1,140
193,327,25361,1,0,0:0:0:0:
263,327,25736,2,0,P|319:298|319:210,1,140
229,128,27236,1,0,0:0:0:0:
129,227,27986,1,0,0:0:0:0:
40,120,28736,2,0,P|88:72|163:77,1,140
156,143,29861,1,0,0:0:0:0:
205,192,30236,6,0,P|257:228|333:216,1,140
379,168,31361,1,0,0:0:0:0:
415,108,31736,2,0,L|520:164,2,105
450,243,33236,1,0,0:0:0:0:
359,352,33986,1,0,0:0:0:0:
248,284,34736,2,0,P|184:268|144:284,2,105
300,240,36236,6,0,P|348:224|404:248,2,105
244,196,37736,1,0,0:0:0:0:
360,116,38486,1,0,0:0:0:0:
344,48,38861,1,0,0:0:0:0:
276,36,39236,1,0,0:0:0:0:
156,108,39986,1,0,0:0:0:0:
100,220,40736,2,0,L|12:220,2,70
170,220,41861,1,0,0:0:0:0:
240,220,42236,6,0,L|340:220,2,70
136,312,43736,2,0,P|48:272|36:160,1,210
88,128,45236,1,0,0:0:0:0:
116,192,45611,1,0,0:0:0:0:
184,180,45986,1,0,0:0:0:0:
276,68,46736,5,0,0:0:0:0:
340,40,47111,2,0,P|412:64|452:124,1,140
398,163,48236,1,0,0:0:0:0:
447,212,48611,2,0,L|395:284,1,70
335,268,49361,6,0,L|283:196,1,70
244,260,50111,1,0,0:0:0:0:
181,290,50486,2,0,P|113:290|57:222,1,140
32,180,51611,2,0,L|-8:132,2,35
84,132,52361,5,0,0:0:0:0:
144,96,52736,2,0,P|208:68|276:100,1,140
192,212,54236,2,0,P|240:264|324:264,1,140
369,241,55361,1,0,0:0:0:0:
432,270,55736,1,0,0:0:0:0:
492,232,56111,2,0,P|476:160|392:124,1,140
373,76,57236,2,0,P|305:104|217:88,1,140
104,68,58736,6,0,L|32:128,1,70
50,183,59486,2,0,L|105:243,1,70
124,300,60236,6,0,L|280:300,1,140
328,328,61361,1,0,0:0:0:0:
360,264,61736,2,0,P|384:196|448:184,1,140
504,148,62861,1,0,0:0:0:0:
504,148,63236,2,0,P|496:80|424:48,1,140
367,47,64361,5,0,0:0:0:0:
308,88,64736,1,0,0:0:0:0:
372,212,65486,1,0,0:0:0:0:
237,172,66236,2,0,P|193:144|121:144,1,105
141,174,66986,2,0,P|157:238|133:290,1,105
120,298,67736,2,0,P|72:270|8:278,2,105
190,298,69236,6,0,P|238:326|302:318,2,105
190,227,70736,2,0,B|96:227|96:143|96:39|202:39,1,280
300,128,72986,5,0,0:0:0:0:
340,184,73361,1,0,0:0:0:0:
400,148,73736,1,0,0:0:0:0:
468,128,74111,2,0,P|492:196|448:268,1,140
408,296,75236,2,0,P|344:264|268:280,1,140
212,300,76361,1,0,0:0:0:0:
148,268,76736,6,0,P|98:190|154:94,1,210
220,112,78236,1,0,0:0:0:0:
192,176,78611,1,0,0:0:0:0:
252,208,78986,1,0,0:0:0:0:
252,278,79361,6,0,P|304:330|364:338,1,105
356,312,80111,2,0,P|396:272|452:276,1,105
476,272,80861,2,0,P|492:236|492:188,1,70
468,140,81611,1,0,0:0:0:0:
404,164,81986,1,0,0:0:0:0:
300,72,82736,6,0,P|272:124|184:144,1,140
136,116,83861,1,0,0:0:0:0:
112,180,84236,1,0,0:0:0:0:
168,220,84611,1,0,0:0:0:0:
196,284,84986,2,0,P|260:268|336:324,1,140
360,360,86111,2,0,P|420:344|468:292,2,105
308,312,87611,2,0,P|260:280|212:280,2,105
372,280,89111,6,0,L|456:232,1,70
432,175,89861,2,0,L|361:124,1,70
325,183,90611,2,0,L|250:230,1,70
288,288,91361,2,0,P|228:320|156:304,1,140
92,328,92486,5,0,0:0:0:0:
92,328,92861,1,0,0:0:0:0:
92,328,93236,1,0,0:0:0:0:
40,280,93611,2,0,L|13:332,2,35
68,216,94361,6,0,P|136:180|172:128,1,140
240,144,95486,2,0,P|308:92|372:108,1,140
432,224,96986,5,0,0:0:0:0:
364,348,97736,1,0,0:0:0:0:
228,312,98486,1,0,0:0:0:0:
172,268,98861,1,0,0:0:0:0:
104,276,99236,1,0,0:0:0:0:
40,152,99986,6,0,P|88:116|148:116,1,105
160,132,100736,2,0,P|208:172|276:168,1,105
272,152,101486,2,0,P|316:144|344:152,1,70
388,200,102236,5,0,0:0:0:0:
416,264,102611,1,0,0:0:0:0:
360,308,102986,1,0,0:0:0:0:
292,296,103361,2,0,P|224:256|144:256,1,140
112,303,104486,1,0,0:0:0:0:
44,280,104861,2,0,P|20:224|80:152,1,140
120,132,105986,1,0,0:0:0:0:
240,60,106736,6,0,L|316:60,2,70
240,130,107861,1,0,0:0:0:0:
169,130,108236,2,0,L|1:129,1,140
29,199,109361,1,0,0:0:0:0:
29,269,109736,2,0,L|190:269,1,140
169,339,110861,1,0,0:0:0:0:
239,339,111236,2,0,L|406:339,1,140
449,339,112361,2,0,L|526:338,2,70
449,268,113486,1,0,0:0:0:0:
416,204,113861,5,0,0:0:0:0:
416,204,114236,2,0,P|352:168|300:160,1,105
300,188,114986,2,0,P|248:216|180:208,1,105
172,200,115736,2,0,P|124:168|60:152,2,105
144,264,117236,5,0,0:0:0:0:
144,264,117611,1,0,0:0:0:0:
193,313,117986,1,0,0:0:0:0:
193,313,118361,1,0,0:0:0:0:
260,300,118736,1,0,0:0:0:0:
260,300,119111,2,0,P|328:300|388:252,1,140
383,188,120236,1,0,0:0:0:0:
52,64,126236,5,0,0:0:0:0:
32,132,126611,1,0,0:0:0:0:
84,180,126986,1,0,0:0:0:0:
44,240,127361,2,0,P|68:308|136:344,1,140
160,280,128486,2,0,P|216:244|296:256,1,140
336,300,129611,1,0,0:0:0:0:
392,260,129986,1,0,0:0:0:0:
460,280,130361,2,0,P|496:224|472:152,1,140
422,102,131486,2,0,L|340:49,2,70
422,172,132611,5,0,0:0:0:0:
422,242,132986,2,0,L|504:295,2,70
302,315,134486,1,0,0:0:0:0:
168,268,135236,1,0,0:0:0:0:
28,284,135986,1,0,0:0:0:0:
72,152,136736,2,0,P|128:108|196:104,1,140
228,168,137861,5,0,0:0:0:0:
256,232,138236,2,0,P|328:296|396:304,1,140
476,212,139736,1,0,0:0:0:0:
420,84,140486,1,0,0:0:0:0:
296,148,141236,1,0,0:0:0:0:
256,88,141611,1,0,0:0:0:0:
188,96,141986,1,0,0:0:0:0:
60,152,142736,2,0,P|44:228|76:300,1,140
136,292,143861,1,0,0:0:0:0:
192,336,144236,5,0,0:0:0:0:
241,286,144611,1,0,0:0:0:0:
364,272,145736,2,0,P|428:288|492:216,1,140
496,108,147236,1,0,0:0:0:0:
372,40,147986,1,0,0:0:0:0:
248,108,148736,1,0,0:0:0:0:
248,108,149111,2,0,L|96:108,1,140
256,192,150236,12,0,151736,0:0:0:0:
