osu file format v14

[General]
AudioFilename: 09. AL-@.mp3
AudioLeadIn: 0
PreviewTime: 72220
Countdown: 0
SampleSet: None
StackLeniency: 0.7
Mode: 0
LetterboxInBreaks: 1
WidescreenStoryboard: 0

[Editor]
Bookmarks: 24244,46732,72220,96208,126193
DistanceSpacing: 0.8
BeatDivisor: 4
GridSize: 4
TimelineZoom: 1

[Metadata]
Title:Aldnoah
TitleUnicode:AL℃-@
Artist:Cyua
ArtistUnicode:Cyua
Creator:Aoko
Version:Easy
Source:アルドノア・ゼロ
Tags:澤野弘之 Aldnoah.Zero Hiroyuki Sawano
BeatmapID:679426
BeatmapSetID:303161

[Difficulty]
HPDrainRate:2
CircleSize:3
OverallDifficulty:2
ApproachRate:3
SliderMultiplier:1.2
SliderTickRate:2

[Events]
//Background and Video events
0,0,"lunar_occupation__wallpaper_version__aldnoah_zero_by_jonathan_n_b-d7yyt2d.jpg",0,0
//Break Periods
2,120436,124796
//Storyboard Layer 0 (Background)
//Storyboard Layer 1 (Fail)
//Storyboard Layer 2 (Pass)
//Storyboard Layer 3 (Foreground)
//Storyboard Sound Samples

[TimingPoints]
236,750,4,3,0,100,1,0
72236,-100,4,3,0,100,0,1
96423,-100,4,3,0,100,0,0

[Colours]
Combo1 : 128,128,255
Combo2 : 0,128,255
Combo3 : 192,192,192
Combo4 : 128,255,128

[HitObjects]
64,144,24236,6,0,P|152:80|260:149,1,240
187,205,26486,1,0,0:0:0:0:
187,301,27236,2,0,P|275:365|383:296,1,240
378,211,29486,2,0,L|379:77,1,120
282,91,30986,1,0,0:0:0:0:
185,91,31736,6,0,P|145:119|129:167,2,90
227,133,33236,2,0,P|267:161|283:209,2,90
184,175,34736,2,0,L|84:175,2,90
184,235,36236,5,0,0:0:0:0:
112,296,36986,1,0,0:0:0:0:
44,228,37736,1,0,0:0:0:0:
96,148,38486,1,0,0:0:0:0:
84,52,39236,2,0,P|140:40|200:72,1,120
188,164,40736,2,0,P|244:176|304:144,1,120
356,72,42236,5,0,0:0:0:0:
428,136,42986,1,0,0:0:0:0:
404,228,43736,2,0,P|344:208|280:224,1,120
264,312,45236,2,0,P|164:340|84:232,1,240
84,54,48236,5,0,0:0:0:0:
167,101,48986,2,0,P|152:164|91:205,1,120
148,284,50486,2,0,P|257:317|377:281,1,240
428,192,52736,1,0,0:0:0:0:
388,104,53486,1,0,0:0:0:0:
300,64,54236,6,0,L|116:64,1,180
72,64,55736,1,0,0:0:0:0:
72,160,56486,1,0,0:0:0:0:
139,227,57236,2,0,L|331:227,1,180
352,260,58736,2,0,L|468:192,1,120
455,103,60236,5,0,0:0:0:0:
387,35,60986,1,0,0:0:0:0:
319,102,61736,1,0,0:0:0:0:
251,169,62486,2,0,L|123:169,1,120
131,73,63986,1,0,0:0:0:0:
84,156,64736,6,0,L|40:268,2,120
151,223,66986,1,0,0:0:0:0:
218,290,67736,2,0,P|270:306|354:278,1,120
278,213,69236,2,0,P|330:197|414:225,1,120
460,142,70736,2,0,L|460:70,2,60
364,116,72236,6,0,P|304:112|252:156,1,120
324,216,73736,2,0,P|328:276|284:328,1,120
236,248,75236,2,0,P|200:240|136:252,2,90
236,296,76736,2,0,P|272:304|336:292,2,90
212,256,78236,6,0,P|144:196|40:208,1,180
58,54,80486,1,0,0:0:0:0:
125,121,81236,2,0,P|193:61|297:73,1,180
312,97,82736,2,0,L|448:97,1,120
464,187,84236,5,0,0:0:0:0:
417,270,84986,1,0,0:0:0:0:
336,217,85736,1,0,0:0:0:0:
268,284,86486,2,0,P|228:245|148:241,1,120
98,303,87986,2,0,P|50:271|26:195,1,120
26,119,89486,6,0,L|70:55,2,60
93,186,90986,2,0,P|165:218|225:214,1,120
168,129,92486,2,0,P|232:113|288:125,1,120
351,191,93986,2,0,L|411:191,2,60
387,279,95486,1,0,0:0:0:0:
304,328,96236,6,0,L|104:328,2,180
260,244,99236,2,0,L|460:244,2,180
304,160,102236,2,0,L|104:160,2,180
260,76,105236,2,0,L|460:76,2,180
164,68,108236,5,0,0:0:0:0:
88,128,108986,1,0,0:0:0:0:
120,220,109736,1,0,0:0:0:0:
200,168,110486,1,0,0:0:0:0:
248,252,111236,2,0,P|312:276|384:264,1,120
348,176,112736,2,0,P|416:164|476:200,1,120
512,104,114236,6,0,P|428:20|316:44,1,240
352,132,116486,1,0,0:0:0:0:
284,199,117236,2,0,P|200:283|88:259,1,240
38,180,119486,1,0,0:0:0:0:
84,96,120236,1,0,0:0:0:0:
128,88,126236,5,0,0:0:0:0:
40,52,126986,1,0,0:0:0:0:
20,148,127736,1,0,0:0:0:0:
68,228,128486,2,0,P|67:291|136:309,1,120
180,246,129986,2,0,P|240:247|278:296,1,120
360,321,131486,2,0,L|429:286,2,60
332,228,132986,5,0,0:0:0:0:
404,164,133736,1,0,0:0:0:0:
364,76,134486,1,0,0:0:0:0:
296,143,135236,2,0,L|219:84,2,90
296,191,136736,2,0,L|376:247,2,90
296,142,138236,6,0,P|224:104|136:144,1,180
240,242,140486,1,0,0:0:0:0:
160,296,141236,2,0,P|196:348|256:372,1,120
246,274,142736,2,0,P|294:242|358:242,1,120
422,308,144236,5,0,0:0:0:0:
489,240,144986,1,0,0:0:0:0:
457,149,145736,1,0,0:0:0:0:
362,168,146486,1,0,0:0:0:0:
294,235,147236,2,0,P|214:271|126:231,2,180
256,192,150236,12,0,151736,0:0:0:0:
