osu file format v14

[General]
AudioFilename: audio.mp3
AudioLeadIn: 0
PreviewTime: 88949
Countdown: 0
SampleSet: Normal
StackLeniency: 0.2
Mode: 0
LetterboxInBreaks: 0
WidescreenStoryboard: 0

[Editor]
DistanceSpacing: 1
BeatDivisor: 4
GridSize: 4
TimelineZoom: 2.799999

[Metadata]
Title:Abysm Nucleus
TitleUnicode:Abysm Nucleus
Artist:Cytotoxin
ArtistUnicode:Cytotoxin
Creator:HML
Version:Neverending Fall
Source:
Tags:technical death metal stream rsi stamina radiophobia
BeatmapID:1192232
BeatmapSetID:563840

[Difficulty]
HPDrainRate:6
CircleSize:4
OverallDifficulty:10
ApproachRate:10
SliderMultiplier:2
SliderTickRate:1

[Events]
//Background and Video events
0,0,"BG.jpg",0,0
//Break Periods
2,102449,107999
//Storyboard Layer 0 (Background)
//Storyboard Layer 1 (Fail)
//Storyboard Layer 2 (Pass)
//Storyboard Layer 3 (Foreground)
//Storyboard Sound Samples

[TimingPoints]
285,250,4,1,1,50,1,0
476,240,4,1,1,50,1,0
956,-100,4,1,1,35,0,0
1436,-100,4,1,1,50,0,0
1916,-100,4,1,1,35,0,0
2396,-100,4,1,1,50,0,0
8876,-100,4,2,1,5,0,0
9596,-133.333333333333,4,1,1,50,0,0
10016,-133.333333333333,4,2,1,5,0,0
10076,-133.333333333333,4,1,1,50,0,1
26396,-133.333333333333,4,1,1,50,0,0
27356,-133.333333333333,4,1,1,50,0,1
29516,-133.333333333333,4,1,1,30,0,1
29576,-133.333333333333,4,1,1,50,0,1
34076,-133.333333333333,4,1,1,50,0,0
34796,-133.333333333333,4,1,1,65,0,0
35036,-133.333333333333,4,1,1,50,0,1
40796,-133.333333333333,4,1,1,50,0,0
54716,250,4,1,1,50,1,0
54966,260.869565217391,4,1,1,50,1,0
55226,272.727272727273,4,1,1,50,1,0
55498,285.714285714286,4,1,1,50,1,0
56069,300,4,1,1,50,1,0
56369,300,4,1,1,50,1,0
75569,240,4,1,1,50,1,0
77489,-100,4,1,1,50,0,1
79409,-100,4,1,1,50,0,0
81329,-100,4,1,1,50,0,1
83249,-100,4,1,1,50,0,0
84689,-100,4,1,1,50,0,1
89009,-100,4,1,1,50,0,0
90929,-100,4,1,1,50,0,1
98609,-133.333333333333,4,1,1,50,0,0
98729,-133.333333333333,4,2,1,5,0,0
108449,-133.333333333333,4,2,1,10,0,0
108689,-133.333333333333,4,2,1,20,0,0
108929,-133.333333333333,4,2,1,30,0,0
109169,-133.333333333333,4,2,1,40,0,0
109409,-133.333333333333,4,2,1,60,0,0
109649,-133.333333333333,4,2,1,80,0,0
109889,-133.333333333333,4,2,1,100,0,0
110969,-133.333333333333,4,2,1,5,0,0
111089,-100,4,1,1,50,0,1
118289,-100,4,1,1,50,0,0
118769,-100,4,1,1,50,0,1
126449,-100,4,1,1,50,0,0
145649,-100,4,1,1,50,0,1
146609,-100,4,1,1,50,0,0
149489,-100,4,1,1,50,0,1
151409,-100,4,1,1,50,0,0
176369,-100,4,1,1,50,0,1
177329,-100,4,1,1,50,0,0
180209,-100,4,1,1,50,0,1
182129,-100,4,1,1,50,0,0
191729,-133.333333333333,4,1,1,50,0,0
191909,-100,4,2,1,5,0,0
191969,-100,4,1,1,50,0,0
192703,240,4,1,1,50,1,0
192703,-100,4,1,1,50,0,1
197503,-100,4,1,1,50,0,0
199423,-200,4,1,1,50,0,0
199783,-200,4,2,1,5,0,0
199903,-100,4,1,1,50,0,0
200383,-100,4,1,1,50,0,1
205183,-100,4,1,1,50,0,0
205363,-100,4,2,1,5,0,0
205423,-100,4,1,1,50,0,0
208063,-100,4,1,1,50,0,1
212863,-100,4,1,1,50,0,0
214783,-133.333333333333,4,1,1,50,0,0
215503,-100,4,1,1,50,0,0
215743,-100,4,1,1,50,0,1
220543,-100,4,1,1,50,0,0
220723,-100,4,2,1,5,0,0
220783,-100,4,1,1,50,0,0
222463,-400,4,1,1,50,0,0
222883,-200,4,2,1,5,0,0
222943,240,4,1,1,50,1,0
228223,-100,4,1,1,50,0,1
230143,-400,4,1,1,50,0,0
230563,-200,4,2,1,5,0,0
230623,240,4,1,1,50,1,0
235903,240,4,1,1,50,1,0
235903,-100,4,1,1,50,0,1
237823,-133.333333333333,4,1,1,50,0,0
243583,-100,4,1,1,50,0,1
245503,-133.333333333333,4,1,1,50,0,0
251263,-100,4,1,1,50,0,1
253183,-100,4,1,1,50,0,0
253423,-200,4,2,1,30,0,0
253603,-200,4,2,1,5,0,0
253663,-200,4,2,1,30,0,0
253843,-200,4,2,1,5,0,0
253903,-200,4,2,1,30,0,0
255103,-133.333333333333,4,1,1,50,0,0
255283,-133.333333333333,4,2,1,5,0,0
255343,-100,4,1,1,50,0,0
257263,-100,4,1,1,50,0,1
260863,-100,4,1,1,50,0,0
264703,-100,4,1,1,50,0,1
266383,-133.333333333333,4,1,1,50,0,1
266563,-100,4,2,1,5,0,1
266623,-100,4,1,1,50,0,1
280063,-133.333333333333,4,1,1,50,0,0
295423,-100,4,1,1,50,0,1
296383,-66.6666666666667,4,1,1,50,0,1
296623,-100,4,1,1,50,0,1
297343,-100,4,1,1,50,0,0
299263,-100,4,1,1,50,0,1
301183,-100,4,1,1,50,0,0
303103,-100,4,1,1,50,0,1
304063,-66.6666666666667,4,1,1,50,0,1
304243,-66.6666666666667,4,2,1,5,0,1
304303,-100,4,1,1,50,0,1
308863,-100,4,1,1,50,0,0
310783,-100,4,1,1,50,0,1
317983,-100,4,1,1,50,0,0
318463,-100,4,1,1,50,0,1
325183,260.869565217391,4,1,1,50,1,1
326226,-100,4,1,1,50,0,0
326291,-100,4,2,1,50,0,0
327269,-100,4,2,1,40,0,0
329356,-100,4,2,1,30,0,0
331443,-100,4,2,1,20,0,0
333530,-100,4,2,1,10,0,0
335617,-100,4,2,1,5,0,0

[Colours]
Combo1 : 141,46,173
Combo2 : 203,133,250
Combo3 : 192,15,202

[HitObjects]
80,76,285,5,0,0:0:0:0:
84,84,347,1,0,0:0:0:0:
88,92,410,1,0,0:0:0:0:
92,100,476,6,0,B|64:92|64:92|84:151|84:151|92:212|92:212|112:256,1,200,12|0,0:0|0:0,0:0:0:0:
76,68,956,5,4,0:0:0:0:
112,268,1196,1,4,0:0:0:0:
420,100,1436,6,0,B|448:92|448:92|428:151|428:151|420:212|420:212|400:256,1,200,12|0,0:0|0:0,0:0:0:0:
436,68,1916,5,4,0:0:0:0:
400,268,2156,1,4,0:0:0:0:
256,48,2396,5,6,0:0:0:0:
256,192,2456,12,0,9116,0:0:0:0:
240,68,9596,6,0,B|252:104|244:140|244:140|256:184|256:184|248:232|220:248|224:304|276:336,1,275.000010490418,4|0,0:0|0:0,0:0:0:0:
312,264,10076,5,4,0:0:0:0:
301,248,10136,1,0,0:0:0:0:
287,236,10196,1,8,0:0:0:0:
270,227,10256,1,0,0:0:0:0:
252,223,10316,1,8,0:0:0:0:
233,224,10376,1,0,0:0:0:0:
215,229,10436,1,8,0:0:0:0:
199,238,10496,1,0,0:0:0:0:
186,252,10556,1,8,0:0:0:0:
172,265,10616,1,0,0:0:0:0:
156,274,10676,1,8,0:0:0:0:
138,280,10736,1,0,0:0:0:0:
120,280,10796,1,8,0:0:0:0:
101,276,10856,1,0,0:0:0:0:
85,268,10916,1,8,0:0:0:0:
71,255,10976,1,0,0:0:0:0:
60,240,11036,5,12,0:0:0:0:
81,234,11096,1,0,0:0:0:0:
104,235,11156,1,8,0:0:0:0:
125,242,11216,1,0,0:0:0:0:
143,255,11276,1,8,0:0:0:0:
157,273,11336,1,0,0:0:0:0:
165,294,11396,1,8,0:0:0:0:
167,316,11456,1,0,0:0:0:0:
162,338,11516,5,2,0:0:0:0:
181,327,11576,1,0,0:0:0:0:
202,319,11636,1,8,0:0:0:0:
224,313,11696,1,0,0:0:0:0:
246,311,11756,1,8,0:0:0:0:
269,313,11816,1,0,0:0:0:0:
291,317,11876,1,8,0:0:0:0:
312,324,11936,1,0,0:0:0:0:
332,334,11996,5,2,0:0:0:0:
307,350,12056,1,0,0:0:0:0:
277,353,12116,1,8,0:0:0:0:
250,342,12176,1,0,0:0:0:0:
230,320,12236,1,8,0:0:0:0:
224,291,12296,1,0,0:0:0:0:
231,262,12356,1,8,0:0:0:0:
252,240,12416,1,0,0:0:0:0:
280,230,12476,5,10,0:0:0:0:
307,220,12536,1,0,0:0:0:0:
328,198,12596,1,8,0:0:0:0:
335,169,12656,1,0,0:0:0:0:
329,140,12716,1,8,0:0:0:0:
309,118,12776,1,0,0:0:0:0:
282,107,12836,1,8,0:0:0:0:
252,110,12896,1,0,0:0:0:0:
228,126,12956,5,12,0:0:0:0:
259,146,13016,1,0,0:0:0:0:
295,155,13076,1,8,0:0:0:0:
332,151,13136,1,8,0:0:0:0:
366,135,13196,1,8,0:0:0:0:
400,119,13256,1,0,0:0:0:0:
437,115,13316,1,8,0:0:0:0:
473,124,13376,1,0,0:0:0:0:
504,144,13436,5,2,0:0:0:0:
493,147,13496,1,0,0:0:0:0:
482,147,13556,1,8,0:0:0:0:
471,144,13616,1,0,0:0:0:0:
461,138,13676,1,8,0:0:0:0:
454,129,13736,1,0,0:0:0:0:
449,119,13796,1,8,0:0:0:0:
448,108,13856,1,0,0:0:0:0:
449,97,13916,6,0,L|432:56,1,37.5000014305115,2|0,0:0|0:0,0:0:0:0:
288,40,14036,2,0,L|302:74,1,37.5000014305115,8|0,0:0|0:0,0:0:0:0:
404,228,14156,2,0,L|387:187,3,37.5000014305115,8|8|8|0,0:0|0:0|0:0|0:0,0:0:0:0:
243,171,14396,5,10,0:0:0:0:
226,161,14456,1,0,0:0:0:0:
208,158,14516,1,8,0:0:0:0:
189,160,14576,1,0,0:0:0:0:
172,168,14636,5,8,0:0:0:0:
155,159,14696,1,0,0:0:0:0:
137,155,14756,1,8,0:0:0:0:
118,157,14816,1,0,0:0:0:0:
101,166,14876,5,12,0:0:0:0:
140,205,14936,1,0,0:0:0:0:
195,207,14996,1,8,0:0:0:0:
236,170,15056,1,8,0:0:0:0:
240,116,15116,1,8,0:0:0:0:
255,62,15176,1,8,0:0:0:0:
299,29,15236,1,8,0:0:0:0:
354,30,15296,1,0,0:0:0:0:
396,65,15356,1,10,0:0:0:0:
423,113,15416,1,8,0:0:0:0:
419,169,15476,1,8,0:0:0:0:
384,212,15536,1,8,0:0:0:0:
328,225,15596,1,8,0:0:0:0:
289,264,15656,1,0,0:0:0:0:
279,319,15716,1,8,0:0:0:0:
301,369,15776,1,0,0:0:0:0:
357,372,15836,5,4,0:0:0:0:
355,346,15896,1,0,0:0:0:0:
363,321,15956,1,8,0:0:0:0:
379,301,16016,1,0,0:0:0:0:
403,290,16076,1,2,0:0:0:0:
426,278,16136,1,0,0:0:0:0:
443,258,16196,1,8,0:0:0:0:
452,233,16256,1,0,0:0:0:0:
450,208,16316,5,6,0:0:0:0:
424,215,16376,1,0,0:0:0:0:
407,235,16436,1,8,0:0:0:0:
401,259,16496,1,0,0:0:0:0:
408,284,16556,1,8,0:0:0:0:
426,302,16616,1,0,0:0:0:0:
452,308,16676,1,8,0:0:0:0:
477,301,16736,1,0,0:0:0:0:
495,282,16796,5,6,0:0:0:0:
457,280,16856,1,0,0:0:0:0:
424,263,16916,1,8,0:0:0:0:
399,236,16976,1,0,0:0:0:0:
386,201,17036,1,8,0:0:0:0:
386,164,17096,1,0,0:0:0:0:
371,129,17156,1,8,0:0:0:0:
345,103,17216,1,0,0:0:0:0:
312,88,17276,6,0,P|319:65|334:57,3,37.5000014305115,4|0|0|0,0:0|0:0|0:0|0:0,0:0:0:0:
299,182,17516,2,0,P|278:193|262:189,3,37.5000014305115,4|0|0|0,0:0|0:0|0:0|0:0,0:0:0:0:
192,64,17756,5,6,0:0:0:0:
140,43,17816,1,0,0:0:0:0:
85,52,17876,1,8,0:0:0:0:
42,87,17936,1,8,0:0:0:0:
24,140,17996,1,2,0:0:0:0:
34,194,18056,1,0,0:0:0:0:
71,236,18116,1,8,0:0:0:0:
124,253,18176,1,8,0:0:0:0:
178,240,18236,1,10,0:0:0:0:
229,215,18296,1,0,0:0:0:0:
284,206,18356,1,8,0:0:0:0:
340,214,18416,1,8,0:0:0:0:
390,237,18476,1,2,0:0:0:0:
399,292,18536,1,0,0:0:0:0:
374,341,18596,1,8,0:0:0:0:
325,367,18656,1,8,0:0:0:0:
270,360,18716,5,12,0:0:0:0:
277,343,18776,1,0,0:0:0:0:
289,329,18836,1,8,0:0:0:0:
306,322,18896,1,8,0:0:0:0:
325,322,18956,6,0,P|341:302|345:274,3,37.5000014305115,2|0|8|0,0:0|0:0|0:0|0:0,0:0:0:0:
303,175,19196,2,0,P|287:195|283:223,3,37.5000014305115,8|0|8|0,0:0|0:0|0:0|0:0,0:0:0:0:
404,176,19436,2,0,P|420:156|424:128,3,37.5000014305115,8|0|8|0,0:0|0:0|0:0|0:0,0:0:0:0:
385,29,19676,5,6,0:0:0:0:
352,75,19736,1,0,0:0:0:0:
303,103,19796,1,8,0:0:0:0:
247,103,19856,1,8,0:0:0:0:
198,78,19916,1,8,0:0:0:0:
148,52,19976,1,0,0:0:0:0:
92,53,20036,1,8,0:0:0:0:
44,80,20096,1,8,0:0:0:0:
14,127,20156,1,2,0:0:0:0:
19,182,20216,1,0,0:0:0:0:
52,227,20276,1,8,0:0:0:0:
103,249,20336,1,8,0:0:0:0:
158,242,20396,1,8,0:0:0:0:
202,208,20456,1,0,0:0:0:0:
223,156,20516,1,8,0:0:0:0:
214,101,20576,1,8,0:0:0:0:
179,58,20636,5,12,0:0:0:0:
169,78,20696,1,0,0:0:0:0:
167,100,20756,1,8,0:0:0:0:
172,122,20816,1,0,0:0:0:0:
184,140,20876,1,8,0:0:0:0:
202,154,20936,1,0,0:0:0:0:
223,160,20996,1,8,0:0:0:0:
246,160,21056,1,0,0:0:0:0:
266,151,21116,5,4,0:0:0:0:
281,172,21176,1,0,0:0:0:0:
287,197,21236,1,8,0:0:0:0:
284,223,21296,1,0,0:0:0:0:
271,245,21356,1,8,0:0:0:0:
251,262,21416,1,0,0:0:0:0:
226,269,21476,1,0,0:0:0:0:
200,267,21536,1,0,0:0:0:0:
176,256,21596,5,6,0:0:0:0:
121,264,21656,1,0,0:0:0:0:
69,242,21716,1,8,0:0:0:0:
36,198,21776,1,8,0:0:0:0:
31,142,21836,1,2,0:0:0:0:
55,92,21896,1,0,0:0:0:0:
101,62,21956,1,8,0:0:0:0:
157,59,22016,1,8,0:0:0:0:
206,86,22076,1,2,0:0:0:0:
257,107,22136,1,0,0:0:0:0:
313,106,22196,1,8,0:0:0:0:
365,85,22256,1,8,0:0:0:0:
404,45,22316,6,0,P|427:36|458:38,2,50.0000019073487,4|8|0,0:0|0:0|0:0,0:0:0:0:
272,176,22556,5,12,0:0:0:0:
256,197,22616,1,0,0:0:0:0:
245,221,22676,1,8,0:0:0:0:
240,246,22736,1,8,0:0:0:0:
240,272,22796,1,8,0:0:0:0:
247,298,22856,1,0,0:0:0:0:
258,321,22916,1,8,0:0:0:0:
274,342,22976,1,8,0:0:0:0:
298,351,23036,5,2,0:0:0:0:
292,314,23096,1,0,0:0:0:0:
268,286,23156,1,8,0:0:0:0:
233,274,23216,1,0,0:0:0:0:
197,283,23276,1,4,0:0:0:0:
161,291,23336,1,0,0:0:0:0:
125,280,23396,1,8,0:0:0:0:
102,251,23456,1,0,0:0:0:0:
96,215,23516,5,6,0:0:0:0:
103,216,23576,1,0,0:0:0:0:
110,218,23636,1,8,0:0:0:0:
116,222,23696,1,0,0:0:0:0:
122,227,23756,1,8,0:0:0:0:
126,233,23816,1,0,0:0:0:0:
130,240,23876,1,8,0:0:0:0:
132,247,23936,1,0,0:0:0:0:
132,254,23996,1,0,0:0:0:0:
131,262,24056,1,0,0:0:0:0:
128,269,24116,1,8,0:0:0:0:
125,275,24176,1,0,0:0:0:0:
119,281,24236,1,8,0:0:0:0:
113,285,24296,1,0,0:0:0:0:
107,288,24356,1,8,0:0:0:0:
99,290,24416,1,0,0:0:0:0:
92,290,24476,5,12,0:0:0:0:
98,253,24536,1,0,0:0:0:0:
119,222,24596,1,8,0:0:0:0:
151,204,24656,1,8,0:0:0:0:
188,200,24716,1,2,0:0:0:0:
225,196,24776,1,0,0:0:0:0:
257,178,24836,1,8,0:0:0:0:
278,147,24896,1,8,0:0:0:0:
284,110,24956,5,2,0:0:0:0:
250,126,25016,1,0,0:0:0:0:
224,153,25076,1,8,0:0:0:0:
208,186,25136,1,8,0:0:0:0:
203,223,25196,1,2,0:0:0:0:
211,260,25256,1,0,0:0:0:0:
230,292,25316,1,8,0:0:0:0:
258,316,25376,1,8,0:0:0:0:
293,330,25436,5,6,0:0:0:0:
305,316,25496,1,0,0:0:0:0:
320,305,25556,1,8,0:0:0:0:
337,297,25616,1,0,0:0:0:0:
356,293,25676,1,8,0:0:0:0:
374,292,25736,1,0,0:0:0:0:
393,295,25796,1,8,0:0:0:0:
410,302,25856,1,0,0:0:0:0:
426,312,25916,5,6,0:0:0:0:
443,306,25976,1,0,0:0:0:0:
459,295,26036,1,8,0:0:0:0:
470,280,26096,1,0,0:0:0:0:
477,263,26156,1,8,0:0:0:0:
479,244,26216,1,0,0:0:0:0:
475,226,26276,1,8,0:0:0:0:
466,210,26336,1,0,0:0:0:0:
452,197,26396,1,12,0:0:0:0:
292,68,26636,5,12,0:0:0:0:
195,161,26876,1,12,0:0:0:0:
289,258,27116,1,12,0:0:0:0:
488,120,27356,5,6,0:0:0:0:
474,106,27416,1,0,0:0:0:0:
458,97,27476,1,8,0:0:0:0:
441,90,27536,1,0,0:0:0:0:
422,88,27596,1,2,0:0:0:0:
403,89,27656,1,0,0:0:0:0:
386,94,27716,1,8,0:0:0:0:
369,104,27776,1,0,0:0:0:0:
355,116,27836,1,2,0:0:0:0:
340,128,27896,1,0,0:0:0:0:
324,137,27956,1,8,0:0:0:0:
306,142,28016,1,0,0:0:0:0:
288,144,28076,1,8,0:0:0:0:
269,141,28136,1,8,0:0:0:0:
251,135,28196,1,8,0:0:0:0:
236,125,28256,1,8,0:0:0:0:
222,112,28316,5,12,0:0:0:0:
245,100,28376,1,0,0:0:0:0:
271,97,28436,1,8,0:0:0:0:
296,104,28496,1,8,0:0:0:0:
317,120,28556,1,2,0:0:0:0:
331,142,28616,1,0,0:0:0:0:
336,167,28676,1,8,0:0:0:0:
332,193,28736,1,8,0:0:0:0:
319,216,28796,1,10,0:0:0:0:
305,238,28856,1,0,0:0:0:0:
301,264,28916,1,8,0:0:0:0:
306,289,28976,1,8,0:0:0:0:
321,311,29036,1,2,0:0:0:0:
342,327,29096,1,0,0:0:0:0:
367,334,29156,1,8,0:0:0:0:
393,331,29216,1,8,0:0:0:0:
416,320,29276,6,0,L|416:280,1,37.5000014305115,4|0,0:0|0:0,0:0:0:0:
488,176,29396,2,0,L|488:216,1,37.5000014305115,8|0,0:0|0:0,0:0:0:0:
416,69,29516,2,0,L|416:109,3,37.5000014305115,2|0|8|0,0:0|0:0|0:0|0:0,0:0:0:0:
260,168,29756,5,10,0:0:0:0:
238,152,29816,1,0,0:0:0:0:
213,146,29876,1,8,0:0:0:0:
187,150,29936,1,0,0:0:0:0:
164,163,29996,5,12,0:0:0:0:
142,147,30056,1,0,0:0:0:0:
117,141,30116,1,8,0:0:0:0:
91,145,30176,1,0,0:0:0:0:
68,158,30236,5,12,0:0:0:0:
42,207,30296,1,0,0:0:0:0:
43,263,30356,1,8,0:0:0:0:
70,311,30416,1,8,0:0:0:0:
116,342,30476,1,8,0:0:0:0:
172,347,30536,1,0,0:0:0:0:
223,325,30596,1,8,0:0:0:0:
258,281,30656,1,8,0:0:0:0:
268,227,30716,1,10,0:0:0:0:
285,173,30776,1,0,0:0:0:0:
326,135,30836,1,8,0:0:0:0:
379,120,30896,1,8,0:0:0:0:
433,133,30956,1,8,0:0:0:0:
475,170,31016,1,0,0:0:0:0:
495,221,31076,1,8,0:0:0:0:
487,277,31136,1,8,0:0:0:0:
455,323,31196,5,6,0:0:0:0:
432,326,31256,1,0,0:0:0:0:
410,323,31316,1,8,0:0:0:0:
390,314,31376,1,0,0:0:0:0:
373,300,31436,1,2,0:0:0:0:
361,281,31496,1,0,0:0:0:0:
355,259,31556,1,8,0:0:0:0:
355,237,31616,1,0,0:0:0:0:
362,215,31676,5,6,0:0:0:0:
376,231,31736,1,0,0:0:0:0:
381,253,31796,1,8,0:0:0:0:
376,275,31856,1,0,0:0:0:0:
362,292,31916,1,4,0:0:0:0:
342,301,31976,1,0,0:0:0:0:
320,299,32036,1,8,0:0:0:0:
300,288,32096,1,0,0:0:0:0:
288,269,32156,5,14,0:0:0:0:
288,245,32216,1,0,0:0:0:0:
276,226,32276,1,8,0:0:0:0:
259,212,32336,1,0,0:0:0:0:
238,209,32396,1,2,0:0:0:0:
216,214,32456,1,0,0:0:0:0:
199,230,32516,1,8,0:0:0:0:
194,251,32576,1,0,0:0:0:0:
196,273,32636,6,0,P|206:290|237:301,3,37.5000014305115,6|0|8|0,0:0|0:0|0:0|0:0,0:0:0:0:
362,240,32876,2,0,P|374:264|374:288,3,37.5000014305115,8|0|8|8,0:0|0:0|0:0|0:0,0:0:0:0:
320,116,33116,5,4,0:0:0:0:
289,94,33176,1,0,0:0:0:0:
253,85,33236,1,8,0:0:0:0:
216,90,33296,1,0,0:0:0:0:
183,108,33356,1,8,0:0:0:0:
150,126,33416,1,0,0:0:0:0:
113,131,33476,1,8,0:0:0:0:
77,122,33536,1,0,0:0:0:0:
46,100,33596,5,6,0:0:0:0:
89,92,33656,1,0,0:0:0:0:
129,112,33716,1,8,0:0:0:0:
148,151,33776,1,8,0:0:0:0:
140,195,33836,1,8,0:0:0:0:
132,238,33896,1,8,0:0:0:0:
151,278,33956,1,8,0:0:0:0:
191,297,34016,1,8,0:0:0:0:
234,290,34076,5,14,0:0:0:0:
234,51,34316,1,6,0:0:0:0:
212,32,34796,5,12,0:0:0:0:
193,80,34856,1,8,0:0:0:0:
187,132,34916,1,0,0:0:0:0:
194,184,34976,1,8,0:0:0:0:
213,233,35036,5,6,0:0:0:0:
229,217,35096,1,0,0:0:0:0:
237,196,35156,1,8,0:0:0:0:
238,174,35216,1,0,0:0:0:0:
229,153,35276,5,4,0:0:0:0:
214,137,35336,1,0,0:0:0:0:
193,128,35396,1,8,0:0:0:0:
171,127,35456,1,0,0:0:0:0:
150,135,35516,5,2,0:0:0:0:
134,145,35576,1,0,0:0:0:0:
117,153,35636,1,8,0:0:0:0:
99,159,35696,1,0,0:0:0:0:
81,162,35756,1,8,0:0:0:0:
62,163,35816,1,0,0:0:0:0:
43,161,35876,1,8,0:0:0:0:
25,157,35936,1,0,0:0:0:0:
8,150,35996,5,12,0:0:0:0:
25,131,36056,1,0,0:0:0:0:
49,120,36116,1,8,0:0:0:0:
75,119,36176,1,0,0:0:0:0:
100,129,36236,1,8,0:0:0:0:
118,147,36296,1,0,0:0:0:0:
129,171,36356,1,8,0:0:0:0:
129,197,36416,1,0,0:0:0:0:
120,221,36476,5,2,0:0:0:0:
105,242,36536,1,0,0:0:0:0:
101,267,36596,1,8,0:0:0:0:
107,293,36656,1,8,0:0:0:0:
123,314,36716,1,8,0:0:0:0:
145,327,36776,1,0,0:0:0:0:
171,331,36836,1,8,0:0:0:0:
196,325,36896,1,8,0:0:0:0:
217,309,36956,5,4,0:0:0:0:
248,288,37016,1,0,0:0:0:0:
284,279,37076,1,8,0:0:0:0:
321,283,37136,1,0,0:0:0:0:
353,302,37196,1,8,0:0:0:0:
385,321,37256,1,0,0:0:0:0:
422,325,37316,1,8,0:0:0:0:
458,316,37376,1,0,0:0:0:0:
489,295,37436,1,2,0:0:0:0:
509,263,37496,1,0,0:0:0:0:
512,227,37556,1,8,0:0:0:0:
512,190,37616,1,0,0:0:0:0:
498,156,37676,1,8,0:0:0:0:
472,129,37736,1,0,0:0:0:0:
438,112,37796,1,8,0:0:0:0:
401,108,37856,1,0,0:0:0:0:
365,115,37916,5,12,0:0:0:0:
364,127,37976,1,0,0:0:0:0:
365,138,38036,1,8,0:0:0:0:
368,149,38096,1,0,0:0:0:0:
373,159,38156,1,8,0:0:0:0:
380,168,38216,1,0,0:0:0:0:
388,176,38276,1,8,0:0:0:0:
397,182,38336,1,0,0:0:0:0:
407,187,38396,5,2,0:0:0:0:
406,198,38456,1,0,0:0:0:0:
407,209,38516,1,8,0:0:0:0:
410,220,38576,1,0,0:0:0:0:
415,230,38636,5,4,0:0:0:0:
422,239,38696,1,0,0:0:0:0:
430,247,38756,1,8,0:0:0:0:
439,253,38816,1,0,0:0:0:0:
449,258,38876,6,0,L|465:214,1,37.5000014305115,6|0,0:0|0:0,0:0:0:0:
452,68,38996,2,0,L|432:25,1,37.5000014305115
468,260,39116,2,0,L|484:216,1,37.5000014305115
471,70,39236,2,0,L|451:27,1,37.5000014305115,8|0,0:0|0:0,0:0:0:0:
340,136,39356,6,0,L|324:180,1,37.5000014305115,6|0,0:0|0:0,0:0:0:0:
337,326,39476,2,0,L|356:368,1,37.5000014305115,8|0,0:0|0:0,0:0:0:0:
321,134,39596,2,0,L|305:178,1,37.5000014305115,2|0,0:0|0:0,0:0:0:0:
318,324,39716,2,0,L|337:366,1,37.5000014305115,8|0,0:0|0:0,0:0:0:0:
204,44,39836,5,12,0:0:0:0:
194,68,39896,1,0,0:0:0:0:
191,94,39956,1,8,0:0:0:0:
195,120,40016,1,0,0:0:0:0:
205,144,40076,1,8,0:0:0:0:
222,164,40136,1,0,0:0:0:0:
243,179,40196,1,8,0:0:0:0:
267,188,40256,1,0,0:0:0:0:
293,191,40316,5,12,0:0:0:0:
269,153,40376,1,0,0:0:0:0:
231,129,40436,1,0,0:0:0:0:
187,125,40496,1,0,0:0:0:0:
145,141,40556,1,8,0:0:0:0:
115,174,40616,1,8,0:0:0:0:
103,217,40676,1,8,0:0:0:0:
112,261,40736,1,8,0:0:0:0:
139,297,40796,5,6,0:0:0:0:
408,308,41036,6,0,P|424:276|428:244,3,50.0000019073487,8|0|0|8,0:0|0:0|0:0|0:0,0:0:0:0:
296,360,41516,5,8,0:0:0:0:
282,333,41596,1,0,0:0:0:0:
280,303,41676,1,0,0:0:0:0:
289,275,41756,1,12,0:0:0:0:
124,348,41996,6,0,P|152:348|176:340,3,50.0000019073487,8|0|0|8,0:0|0:0|0:0|0:0,0:0:0:0:
44,348,42356,2,0,P|32:312|44:248,1,75.0000028610231,8|8,0:0|0:0,0:0:0:0:
156,88,42716,5,2,0:0:0:0:
166,92,43676,1,10,0:0:0:0:
120,280,44156,5,2,0:0:0:0:
176,97,44636,5,6,0:0:0:0:
364,216,44876,6,0,P|360:248|372:276,3,50.0000019073487,8|0|0|8,0:0|0:0|0:0|0:0,0:0:0:0:
428,64,45356,5,8,0:0:0:0:
441,90,45436,1,0,0:0:0:0:
448,119,45516,1,0,0:0:0:0:
448,149,45596,1,12,0:0:0:0:
256,144,45836,6,0,L|312:132,3,50.0000019073487,8|0|0|8,0:0|0:0|0:0|0:0,0:0:0:0:
156,84,46196,2,0,L|168:168,1,75.0000028610231,8|8,0:0|0:0,0:0:0:0:
423,294,46556,5,2,0:0:0:0:
429,302,46796,5,4,0:0:0:0:
441,90,46916,1,4,0:0:0:0:
436,312,47516,5,12,0:0:0:0:
433,293,47576,1,0,0:0:0:0:
425,276,47636,1,8,0:0:0:0:
411,263,47696,1,0,0:0:0:0:
394,256,47756,1,8,0:0:0:0:
376,255,47816,1,0,0:0:0:0:
358,260,47876,1,8,0:0:0:0:
343,271,47936,1,0,0:0:0:0:
332,286,47996,5,6,0:0:0:0:
357,283,48056,1,0,0:0:0:0:
378,267,48116,1,8,0:0:0:0:
389,244,48176,1,8,0:0:0:0:
386,218,48236,1,8,0:0:0:0:
383,192,48296,1,0,0:0:0:0:
393,168,48356,1,8,0:0:0:0:
414,153,48416,1,8,0:0:0:0:
440,150,48476,5,4,0:0:0:0:
256,216,48716,6,0,P|232:224|204:224,3,50.0000019073487,8|0|0|8,0:0|0:0|0:0|0:0,0:0:0:0:
373,308,49196,5,8,0:0:0:0:
377,278,49276,1,0,0:0:0:0:
381,248,49356,1,0,0:0:0:0:
386,218,49436,1,12,0:0:0:0:
79,211,49676,6,0,P|103:203|131:203,3,50.0000019073487,8|0|0|8,0:0|0:0|0:0|0:0,0:0:0:0:
131,351,50036,2,0,L|115:267,1,75.0000028610231,8|8,0:0|0:0,0:0:0:0:
156,88,50396,5,2,0:0:0:0:
166,92,51356,1,10,0:0:0:0:
176,97,52316,5,6,0:0:0:0:
236,272,52556,6,0,P|224:300|228:332,3,50.0000019073487,8|0|0|8,0:0|0:0|0:0|0:0,0:0:0:0:
84,180,53036,5,8,0:0:0:0:
87,209,53116,1,0,0:0:0:0:
90,239,53196,1,0,0:0:0:0:
93,269,53276,1,12,0:0:0:0:
333,140,53516,6,0,L|275:160,3,50.0000019073487,8|0|0|8,0:0|0:0|0:0|0:0,0:0:0:0:
336,236,53876,2,0,L|356:316,1,75.0000028610231,8|8,0:0|0:0,0:0:0:0:
138,327,54236,5,12,0:0:0:0:
109,302,54296,1,8,0:0:0:0:
93,269,54356,1,0,0:0:0:0:
90,232,54416,1,8,0:0:0:0:
102,196,54476,1,12,0:0:0:0:
113,160,54536,1,8,0:0:0:0:
111,123,54596,1,8,0:0:0:0:
94,90,54656,1,8,0:0:0:0:
66,65,54716,6,8,P|48:44|48:16,3,50,12|8|8|8,0:0|0:0|0:0|0:0,0:0:0:0:
204,44,54966,6,0,P|222:65|222:93,3,50,4|0|8|8,0:0|0:0|0:0|0:0,0:0:0:0:
384,104,55226,6,0,L|348:156,3,50,4|8|8|0,0:0|0:0|0:0|0:0,0:0:0:0:
424,256,55498,6,0,L|460:204,3,50,4|0|8|0,0:0|0:0|0:0|0:0,0:0:0:0:
275,317,55783,2,0,P|299:320|316:338,3,50,4|0|8|8,0:0|0:0|0:0|0:0,0:0:0:0:
149,334,56069,5,4,0:0:0:0:
124,329,56144,1,0,0:0:0:0:
102,317,56219,1,8,0:0:0:0:
84,299,56294,1,0,0:0:0:0:
73,277,56369,2,0,P|65:253|65:225,1,50,6|0,0:0|0:0,0:0:0:0:
88,88,56519,5,8,0:0:0:0:
107,72,56594,1,0,0:0:0:0:
129,60,56669,1,4,0:0:0:0:
153,54,56744,1,0,0:0:0:0:
178,53,56819,1,8,0:0:0:0:
203,58,56894,1,0,0:0:0:0:
226,68,56969,2,0,P|258:76|282:72,1,50,10|0,0:0|0:0,0:0:0:0:
440,88,57119,5,8,0:0:0:0:
424,107,57194,1,0,0:0:0:0:
413,130,57269,1,4,0:0:0:0:
407,154,57344,1,0,0:0:0:0:
406,179,57419,1,8,0:0:0:0:
409,204,57494,1,0,0:0:0:0:
417,227,57569,2,0,P|428:256|428:288,1,50,10|0,0:0|0:0,0:0:0:0:
333,338,57719,5,8,0:0:0:0:
321,316,57794,1,8,0:0:0:0:
303,299,57869,1,4,0:0:0:0:
280,287,57944,1,0,0:0:0:0:
256,280,58019,1,8,0:0:0:0:
231,277,58094,1,8,0:0:0:0:
206,278,58169,1,2,0:0:0:0:
182,283,58244,1,0,0:0:0:0:
158,293,58319,1,8,0:0:0:0:
137,306,58394,1,8,0:0:0:0:
120,323,58469,2,0,P|94:338|66:338,1,50,2|0,0:0|0:0,0:0:0:0:
32,212,58619,5,2,0:0:0:0:
40,204,58694,1,0,0:0:0:0:
48,196,58769,2,0,L|44:140,1,50,8|8,0:0|0:0,0:0:0:0:
96,36,58919,5,10,0:0:0:0:
115,51,58994,1,0,0:0:0:0:
137,62,59069,1,8,0:0:0:0:
161,70,59144,1,8,0:0:0:0:
186,74,59219,1,8,0:0:0:0:
211,73,59294,1,8,0:0:0:0:
235,69,59369,1,2,0:0:0:0:
259,60,59444,1,0,0:0:0:0:
282,51,59519,1,8,0:0:0:0:
306,46,59594,1,8,0:0:0:0:
331,46,59669,1,8,0:0:0:0:
356,50,59744,1,0,0:0:0:0:
380,57,59819,1,8,0:0:0:0:
402,69,59894,1,8,0:0:0:0:
422,84,59969,2,0,P|434:116|434:140,1,50,12|0,0:0|0:0,0:0:0:0:
416,288,60119,5,8,0:0:0:0:
399,306,60194,1,0,0:0:0:0:
379,321,60269,1,2,0:0:0:0:
357,332,60344,1,0,0:0:0:0:
332,337,60419,1,8,0:0:0:0:
307,337,60494,1,8,0:0:0:0:
283,331,60569,2,0,P|256:320|231:287,1,50,4|8,0:0|0:0,0:0:0:0:
328,204,60719,5,8,0:0:0:0:
344,185,60794,1,0,0:0:0:0:
364,170,60869,1,8,0:0:0:0:
386,159,60944,1,0,0:0:0:0:
411,154,61019,1,8,0:0:0:0:
436,154,61094,1,0,0:0:0:0:
461,161,61169,2,0,P|484:169|502:186,1,50,6|0,0:0|0:0,0:0:0:0:
428,296,61319,5,0,0:0:0:0:
436,304,61394,1,0,0:0:0:0:
444,312,61469,2,0,L|424:360,3,50,4|0|8|8,0:0|0:0|0:0|0:0,0:0:0:0:
332,337,61769,5,6,0:0:0:0:
311,322,61844,1,0,0:0:0:0:
287,314,61919,1,8,0:0:0:0:
263,312,61994,1,8,0:0:0:0:
238,315,62069,2,0,P|216:320|184:316,3,50,4|8|8|8,0:0|0:0|0:0|0:0,0:0:0:0:
216,212,62369,5,12,0:0:0:0:
214,187,62444,1,0,0:0:0:0:
212,162,62519,1,8,0:0:0:0:
210,137,62594,1,8,0:0:0:0:
208,112,62669,2,0,P|220:88|218:40,2,66.6666666666667,4|8|8,0:0|0:0|0:0,0:0:0:0:
231,188,62969,2,0,P|256:179|288:144,2,66.6666666666667,6|8|8,0:0|0:0|0:0,0:0:0:0:
204,276,63269,5,4,0:0:0:0:
225,263,63344,1,8,0:0:0:0:
249,256,63419,1,8,0:0:0:0:
274,256,63494,1,0,0:0:0:0:
298,263,63569,2,0,P|330:267|358:263,1,50,6|2,0:0|0:0,0:0:0:0:
368,364,63719,5,8,0:0:0:0:
390,351,63794,1,8,0:0:0:0:
408,333,63869,1,4,0:0:0:0:
422,313,63944,1,2,0:0:0:0:
431,289,64019,1,8,0:0:0:0:
434,265,64094,1,0,0:0:0:0:
433,240,64169,1,8,0:0:0:0:
426,216,64244,1,0,0:0:0:0:
419,192,64319,1,8,0:0:0:0:
418,167,64394,1,0,0:0:0:0:
421,142,64469,1,8,0:0:0:0:
430,119,64544,1,0,0:0:0:0:
444,98,64619,1,8,0:0:0:0:
462,81,64694,1,8,0:0:0:0:
484,68,64769,2,0,P|492:96|488:124,1,50,12|0,0:0|0:0,0:0:0:0:
433,240,64919,5,8,0:0:0:0:
417,220,64994,1,0,0:0:0:0:
397,205,65069,1,6,0:0:0:0:
374,197,65144,1,0,0:0:0:0:
349,195,65219,1,8,0:0:0:0:
324,200,65294,1,8,0:0:0:0:
302,211,65369,2,0,P|276:216|240:208,1,50,6|0,0:0|0:0,0:0:0:0:
136,120,65519,5,8,0:0:0:0:
137,144,65594,1,8,0:0:0:0:
138,169,65669,1,2,0:0:0:0:
139,194,65744,1,0,0:0:0:0:
140,219,65819,1,0,0:0:0:0:
142,244,65894,1,8,0:0:0:0:
143,269,65969,2,0,L|148:336,1,50,6|0,0:0|0:0,0:0:0:0:
260,348,66119,5,8,0:0:0:0:
280,333,66194,1,8,0:0:0:0:
302,323,66269,1,4,0:0:0:0:
327,318,66344,1,0,0:0:0:0:
352,319,66419,1,8,0:0:0:0:
376,325,66494,1,0,0:0:0:0:
398,337,66569,2,0,P|424:344|454:337,1,50,14|0,0:0|0:0,0:0:0:0:
404,232,66719,5,0,0:0:0:0:
390,211,66794,1,0,0:0:0:0:
380,187,66869,1,4,0:0:0:0:
376,163,66944,1,0,0:0:0:0:
376,138,67019,1,0,0:0:0:0:
381,114,67094,1,0,0:0:0:0:
391,91,67169,2,0,P|399:59|395:31,1,50,12|0,0:0|0:0,0:0:0:0:
298,158,67319,5,0,0:0:0:0:
273,161,67394,1,0,0:0:0:0:
252,174,67469,1,4,0:0:0:0:
233,191,67544,1,0,0:0:0:0:
212,204,67619,1,8,0:0:0:0:
188,209,67694,1,0,0:0:0:0:
163,209,67769,1,2,0:0:0:0:
138,207,67844,1,0,0:0:0:0:
113,212,67919,1,0,0:0:0:0:
92,225,67994,1,0,0:0:0:0:
75,243,68069,2,0,P|44:256|24:255,1,50
76,108,68219,5,4,0:0:0:0:
84,116,68294,1,0,0:0:0:0:
92,124,68369,2,0,L|84:68,1,50,4|0,0:0|0:0,0:0:0:0:
192,76,68519,5,8,0:0:0:0:
209,93,68594,1,8,0:0:0:0:
230,106,68669,1,4,0:0:0:0:
254,114,68744,1,0,0:0:0:0:
279,116,68819,1,8,0:0:0:0:
303,112,68894,1,0,0:0:0:0:
326,102,68969,1,4,0:0:0:0:
345,86,69044,1,0,0:0:0:0:
368,77,69119,1,8,0:0:0:0:
393,76,69194,1,0,0:0:0:0:
417,82,69269,1,4,0:0:0:0:
438,96,69344,1,0,0:0:0:0:
453,115,69419,1,8,0:0:0:0:
462,139,69494,1,8,0:0:0:0:
463,164,69569,2,0,P|460:200|444:220,1,50,6|0,0:0|0:0,0:0:0:0:
452,344,69719,5,0,0:0:0:0:
434,325,69794,1,0,0:0:0:0:
413,312,69869,1,4,0:0:0:0:
389,305,69944,1,0,0:0:0:0:
364,304,70019,1,8,0:0:0:0:
340,310,70094,1,8,0:0:0:0:
318,322,70169,2,0,P|292:328|264:324,1,50,6|0,0:0|0:0,0:0:0:0:
144,352,70319,5,8,0:0:0:0:
150,329,70394,1,8,0:0:0:0:
147,305,70469,1,4,0:0:0:0:
137,282,70544,1,8,0:0:0:0:
122,262,70619,1,8,0:0:0:0:
102,248,70694,1,8,0:0:0:0:
78,239,70769,2,0,P|56:222|41:198,1,50,6|0,0:0|0:0,0:0:0:0:
120,68,70919,5,0,0:0:0:0:
128,76,70994,1,0,0:0:0:0:
136,84,71069,2,0,L|124:136,3,50,4|0|0|0,0:0|0:0|0:0|0:0,0:0:0:0:
248,128,71369,5,6,0:0:0:0:
267,111,71444,1,0,0:0:0:0:
289,101,71519,1,0,0:0:0:0:
314,97,71594,1,0,0:0:0:0:
339,101,71669,2,0,P|371:109|399:105,3,50,4|0|0|0,0:0|0:0|0:0|0:0,0:0:0:0:
472,156,71969,5,12,0:0:0:0:
470,180,72044,1,0,0:0:0:0:
468,205,72119,1,0,0:0:0:0:
466,230,72194,1,0,0:0:0:0:
465,255,72269,2,0,P|436:252|405:220,2,66.6666666666667,4|0|0,0:0|0:0|0:0,0:0:0:0:
512,316,72569,2,0,P|489:334|444:333,2,66.6666666666667,6|0|0,0:0|0:0|0:0,0:0:0:0:
332,328,72869,5,12,0:0:0:0:
310,315,72944,1,8,0:0:0:0:
286,308,73019,1,8,0:0:0:0:
261,307,73094,1,8,0:0:0:0:
236,310,73169,2,0,P|204:316|184:312,1,50,12|8,0:0|0:0,0:0:0:0:
188,220,73319,5,8,0:0:0:0:
207,203,73394,1,8,0:0:0:0:
220,183,73469,1,4,0:0:0:0:
228,159,73544,1,0,0:0:0:0:
229,134,73619,1,8,0:0:0:0:
222,110,73694,1,0,0:0:0:0:
210,89,73769,1,8,0:0:0:0:
192,71,73844,1,0,0:0:0:0:
169,60,73919,1,8,0:0:0:0:
145,55,73994,1,8,0:0:0:0:
120,57,74069,1,4,0:0:0:0:
97,66,74144,1,0,0:0:0:0:
77,81,74219,1,8,0:0:0:0:
62,101,74294,1,8,0:0:0:0:
53,125,74369,2,0,P|45:165|49:189,1,50,6|0,0:0|0:0,0:0:0:0:
80,308,74519,5,8,0:0:0:0:
99,324,74594,1,0,0:0:0:0:
121,335,74669,1,4,0:0:0:0:
145,340,74744,1,0,0:0:0:0:
170,340,74819,1,8,0:0:0:0:
194,333,74894,1,8,0:0:0:0:
216,321,74969,2,0,P|240:309|272:313,1,50,12|0,0:0|0:0,0:0:0:0:
380,344,75119,5,8,0:0:0:0:
364,324,75194,1,0,0:0:0:0:
353,301,75269,1,4,0:0:0:0:
346,277,75344,1,0,0:0:0:0:
344,253,75419,1,8,0:0:0:0:
346,228,75494,1,8,0:0:0:0:
352,204,75569,5,6,0:0:0:0:
80,308,75809,1,6,0:0:0:0:
352,204,76289,5,6,0:0:0:0:
80,308,76529,5,8,0:0:0:0:
86,300,76589,1,0,0:0:0:0:
93,293,76649,1,8,0:0:0:0:
102,288,76709,1,0,0:0:0:0:
111,283,76769,1,8,0:0:0:0:
120,281,76829,1,0,0:0:0:0:
130,279,76889,1,8,0:0:0:0:
140,280,76949,1,0,0:0:0:0:
150,281,77009,1,8,0:0:0:0:
160,284,77069,1,0,0:0:0:0:
168,289,77129,2,0,P|192:313|200:337,1,50,8|0,0:0|0:0,0:0:0:0:
314,327,77249,5,12,0:0:0:0:
224,156,77489,5,4,0:0:0:0:
266,181,77549,1,8,0:0:0:0:
315,193,77609,1,8,0:0:0:0:
364,188,77669,1,8,0:0:0:0:
410,168,77729,5,12,0:0:0:0:
389,155,77789,1,0,0:0:0:0:
364,154,77849,1,8,0:0:0:0:
342,166,77909,1,0,0:0:0:0:
329,186,77969,1,8,0:0:0:0:
315,206,78029,1,0,0:0:0:0:
293,218,78089,1,8,0:0:0:0:
269,217,78149,1,0,0:0:0:0:
248,203,78209,5,12,0:0:0:0:
289,176,78269,1,8,0:0:0:0:
338,182,78329,1,8,0:0:0:0:
372,217,78389,1,8,0:0:0:0:
376,266,78449,5,12,0:0:0:0:
400,271,78509,1,0,0:0:0:0:
425,270,78569,1,8,0:0:0:0:
448,262,78629,1,0,0:0:0:0:
468,247,78689,1,8,0:0:0:0:
484,228,78749,1,0,0:0:0:0:
493,205,78809,1,8,0:0:0:0:
495,180,78869,1,0,0:0:0:0:
490,155,78929,1,8,0:0:0:0:
479,133,78989,1,0,0:0:0:0:
461,116,79049,1,8,0:0:0:0:
439,103,79109,1,0,0:0:0:0:
415,98,79169,1,8,0:0:0:0:
390,99,79229,1,0,0:0:0:0:
367,108,79289,1,8,0:0:0:0:
347,123,79349,1,0,0:0:0:0:
332,143,79409,5,6,0:0:0:0:
376,348,79649,1,6,0:0:0:0:
332,143,80129,5,6,0:0:0:0:
432,308,80369,5,8,0:0:0:0:
426,300,80429,1,0,0:0:0:0:
419,293,80489,1,8,0:0:0:0:
410,288,80549,1,0,0:0:0:0:
401,283,80609,1,8,0:0:0:0:
392,281,80669,1,0,0:0:0:0:
382,279,80729,1,8,0:0:0:0:
372,280,80789,1,0,0:0:0:0:
362,281,80849,1,12,0:0:0:0:
352,284,80909,1,0,0:0:0:0:
344,289,80969,2,0,P|320:313|312:337,1,50,8|0,0:0|0:0,0:0:0:0:
198,327,81089,5,14,0:0:0:0:
72,244,81329,5,12,0:0:0:0:
36,104,81449,1,8,0:0:0:0:
80,256,81569,5,12,0:0:0:0:
94,112,81689,1,8,0:0:0:0:
88,268,81809,5,14,0:0:0:0:
150,137,81929,1,8,0:0:0:0:
96,280,82049,5,10,0:0:0:0:
199,178,82169,1,8,0:0:0:0:
324,212,82289,5,12,0:0:0:0:
360,352,82409,1,8,0:0:0:0:
316,200,82529,5,12,0:0:0:0:
302,344,82649,1,8,0:0:0:0:
308,188,82769,5,10,0:0:0:0:
246,319,82889,1,8,0:0:0:0:
300,176,83009,5,12,0:0:0:0:
197,278,83129,1,8,0:0:0:0:
288,160,83249,5,10,0:0:0:0:
60,340,83489,1,6,0:0:0:0:
288,160,83969,5,6,0:0:0:0:
60,340,84209,5,8,0:0:0:0:
70,329,84269,1,0,0:0:0:0:
83,321,84329,1,8,0:0:0:0:
97,315,84389,1,0,0:0:0:0:
111,312,84449,1,8,0:0:0:0:
126,311,84509,1,0,0:0:0:0:
141,312,84569,1,8,0:0:0:0:
156,316,84629,1,0,0:0:0:0:
169,323,84689,5,12,0:0:0:0:
205,356,84749,1,0,0:0:0:0:
253,368,84809,1,8,0:0:0:0:
300,354,84869,1,8,0:0:0:0:
335,318,84929,1,8,0:0:0:0:
347,270,84989,1,0,0:0:0:0:
334,223,85049,1,8,0:0:0:0:
299,188,85109,1,8,0:0:0:0:
251,174,85169,5,12,0:0:0:0:
209,200,85229,1,0,0:0:0:0:
160,208,85289,1,8,0:0:0:0:
111,197,85349,1,0,0:0:0:0:
70,170,85409,5,12,0:0:0:0:
113,146,85469,1,0,0:0:0:0:
162,149,85529,1,8,0:0:0:0:
202,177,85589,1,8,0:0:0:0:
220,223,85649,1,8,0:0:0:0:
238,268,85709,1,0,0:0:0:0:
278,297,85769,1,10,0:0:0:0:
327,300,85829,1,8,0:0:0:0:
368,276,85889,5,12,0:0:0:0:
412,255,85949,1,0,0:0:0:0:
457,273,86009,1,8,0:0:0:0:
475,319,86069,1,0,0:0:0:0:
454,363,86129,5,12,0:0:0:0:
407,347,86189,1,0,0:0:0:0:
372,312,86249,1,8,0:0:0:0:
356,265,86309,1,8,0:0:0:0:
363,216,86369,1,8,0:0:0:0:
370,166,86429,1,0,0:0:0:0:
354,119,86489,1,8,0:0:0:0:
319,84,86549,1,8,0:0:0:0:
272,69,86609,5,12,0:0:0:0:
271,78,86669,1,0,0:0:0:0:
271,88,86729,1,8,0:0:0:0:
274,98,86789,1,8,0:0:0:0:
278,107,86849,1,8,0:0:0:0:
284,115,86909,1,0,0:0:0:0:
291,122,86969,1,8,0:0:0:0:
299,128,87029,1,8,0:0:0:0:
308,132,87089,5,14,0:0:0:0:
345,164,87149,1,0,0:0:0:0:
365,209,87209,1,8,0:0:0:0:
363,259,87269,1,0,0:0:0:0:
340,303,87329,5,14,0:0:0:0:
314,261,87389,1,0,0:0:0:0:
317,212,87449,1,8,0:0:0:0:
349,174,87509,1,8,0:0:0:0:
397,163,87569,1,8,0:0:0:0:
444,151,87629,1,0,0:0:0:0:
476,113,87689,1,8,0:0:0:0:
480,64,87749,1,8,0:0:0:0:
454,23,87809,5,6,0:0:0:0:
410,47,87869,1,0,0:0:0:0:
361,57,87929,1,8,0:0:0:0:
312,53,87989,1,0,0:0:0:0:
265,35,88049,5,14,0:0:0:0:
218,16,88109,1,0,0:0:0:0:
169,12,88169,1,8,0:0:0:0:
120,23,88229,1,8,0:0:0:0:
76,47,88289,1,8,0:0:0:0:
40,81,88349,1,0,0:0:0:0:
22,127,88409,1,8,0:0:0:0:
24,177,88469,1,8,0:0:0:0:
46,221,88529,1,10,0:0:0:0:
85,252,88589,1,0,0:0:0:0:
133,264,88649,1,8,0:0:0:0:
182,256,88709,1,8,0:0:0:0:
223,228,88769,1,10,0:0:0:0:
267,206,88829,1,0,0:0:0:0:
317,198,88889,1,8,0:0:0:0:
366,207,88949,1,8,0:0:0:0:
410,230,89009,5,12,0:0:0:0:
363,244,89069,1,0,0:0:0:0:
320,222,89129,1,8,0:0:0:0:
305,176,89189,1,8,0:0:0:0:
326,132,89249,5,12,0:0:0:0:
339,153,89309,1,8,0:0:0:0:
347,177,89369,1,8,0:0:0:0:
349,202,89429,1,8,0:0:0:0:
344,226,89489,5,12,0:0:0:0:
305,255,89549,1,0,0:0:0:0:
297,303,89609,1,8,0:0:0:0:
326,342,89669,1,0,0:0:0:0:
374,350,89729,5,12,0:0:0:0:
394,336,89789,1,8,0:0:0:0:
418,328,89849,1,8,0:0:0:0:
443,328,89909,1,0,0:0:0:0:
467,335,89969,2,0,P|464:304|484:276,3,50,4|0|8|8,0:0|0:0|0:0|0:0,0:0:0:0:
460,164,90209,2,0,P|463:195|443:223,3,50,12|0|8|8,0:0|0:0|0:0|0:0,0:0:0:0:
471,40,90449,5,12,0:0:0:0:
448,51,90509,1,8,0:0:0:0:
424,55,90569,1,8,0:0:0:0:
399,53,90629,1,0,0:0:0:0:
376,43,90689,2,0,P|352:34|328:38,3,50,12|0|8|8,0:0|0:0|0:0|0:0,0:0:0:0:
328,180,90929,5,12,0:0:0:0:
310,149,90989,1,0,0:0:0:0:
283,127,91049,1,10,0:0:0:0:
250,116,91109,1,0,0:0:0:0:
216,118,91169,1,8,0:0:0:0:
184,133,91229,1,0,0:0:0:0:
160,157,91289,1,8,0:0:0:0:
146,189,91349,1,0,0:0:0:0:
145,224,91409,5,12,0:0:0:0:
109,230,91469,1,0,0:0:0:0:
74,224,91529,1,8,0:0:0:0:
46,206,91589,1,8,0:0:0:0:
24,178,91649,1,8,0:0:0:0:
15,145,91709,1,0,0:0:0:0:
18,111,91769,1,8,0:0:0:0:
34,80,91829,1,8,0:0:0:0:
59,55,91889,6,0,P|76:88|72:108,3,50,6|8|8|0,0:0|0:0|0:0|0:0,0:0:0:0:
168,44,92129,5,12,0:0:0:0:
180,52,92189,1,0,0:0:0:0:
192,60,92249,2,0,L|188:112,1,50,8|0,0:0|0:0,0:0:0:0:
336,128,92369,5,12,0:0:0:0:
324,136,92429,1,0,0:0:0:0:
312,144,92489,2,0,L|316:196,1,50,8|0,0:0|0:0,0:0:0:0:
168,212,92609,5,12,0:0:0:0:
180,220,92669,1,0,0:0:0:0:
192,228,92729,2,0,L|188:280,1,50,8|0,0:0|0:0,0:0:0:0:
300,332,92849,5,12,0:0:0:0:
310,298,92909,1,0,0:0:0:0:
332,271,92969,1,8,0:0:0:0:
362,253,93029,1,8,0:0:0:0:
396,248,93089,1,8,0:0:0:0:
430,255,93149,1,0,0:0:0:0:
459,274,93209,1,8,0:0:0:0:
479,302,93269,1,8,0:0:0:0:
488,336,93329,5,12,0:0:0:0:
453,338,93389,1,0,0:0:0:0:
420,328,93449,1,8,0:0:0:0:
392,307,93509,1,8,0:0:0:0:
374,278,93569,1,8,0:0:0:0:
366,244,93629,1,0,0:0:0:0:
371,209,93689,1,8,0:0:0:0:
388,179,93749,1,8,0:0:0:0:
414,155,93809,6,8,P|448:140|484:140,2,66.6666666666667,12|8|8,0:0|0:0|0:0,0:0:0:0:
344,72,94049,2,8,P|310:87|274:87,2,66.6666666666667,12|8|8,0:0|0:0|0:0,0:0:0:0:
152,56,94289,5,14,0:0:0:0:
197,101,94369,1,0,0:0:0:0:
195,166,94449,1,0,0:0:0:0:
146,209,94529,5,14,0:0:0:0:
97,251,94609,1,0,0:0:0:0:
95,316,94689,1,0,0:0:0:0:
140,362,94769,5,14,0:0:0:0:
160,334,94829,1,0,0:0:0:0:
187,311,94889,1,8,0:0:0:0:
219,296,94949,1,0,0:0:0:0:
253,288,95009,1,8,0:0:0:0:
288,289,95069,1,0,0:0:0:0:
321,298,95129,1,8,0:0:0:0:
352,314,95189,1,0,0:0:0:0:
378,338,95249,5,12,0:0:0:0:
346,351,95309,1,0,0:0:0:0:
311,350,95369,1,8,0:0:0:0:
280,335,95429,1,8,0:0:0:0:
257,309,95489,1,10,0:0:0:0:
247,276,95549,1,0,0:0:0:0:
251,241,95609,1,8,0:0:0:0:
268,211,95669,1,8,0:0:0:0:
296,191,95729,6,0,P|320:172|332:144,3,50,12|0|8|0,0:0|0:0|0:0|0:0,0:0:0:0:
440,40,95969,5,12,0:0:0:0:
432,52,96029,1,0,0:0:0:0:
424,64,96089,2,0,L|440:120,1,50,8|0,0:0|0:0,0:0:0:0:
388,208,96209,5,12,0:0:0:0:
396,220,96269,1,0,0:0:0:0:
404,232,96329,2,0,L|388:288,1,50,8|0,0:0|0:0,0:0:0:0:
257,309,96449,5,12,0:0:0:0:
244,317,96509,1,0,0:0:0:0:
232,325,96569,2,0,L|176:309,1,50,8|0,0:0|0:0,0:0:0:0:
40,344,96689,5,12,0:0:0:0:
66,321,96749,1,0,0:0:0:0:
81,290,96809,1,8,0:0:0:0:
83,255,96869,1,8,0:0:0:0:
71,222,96929,1,8,0:0:0:0:
59,189,96989,1,0,0:0:0:0:
61,154,97049,1,8,0:0:0:0:
76,123,97109,1,0,0:0:0:0:
102,100,97169,5,8,0:0:0:0:
121,128,97229,1,8,0:0:0:0:
121,162,97289,1,8,0:0:0:0:
102,191,97349,1,8,0:0:0:0:
70,203,97409,1,8,0:0:0:0:
36,196,97469,1,8,0:0:0:0:
13,170,97529,1,8,0:0:0:0:
8,136,97589,1,8,0:0:0:0:
24,105,97649,6,0,P|36:84|36:48,3,50,12|0|8|0,0:0|0:0|0:0|0:0,0:0:0:0:
200,36,97889,2,0,P|188:57|188:93,3,50,12|0|8|0,0:0|0:0|0:0|0:0,0:0:0:0:
392,48,98129,5,12,0:0:0:0:
365,90,98189,1,0,0:0:0:0:
358,139,98249,1,8,0:0:0:0:
372,186,98309,1,8,0:0:0:0:
404,225,98369,1,8,0:0:0:0:
424,269,98429,1,0,0:0:0:0:
409,315,98489,1,8,0:0:0:0:
365,337,98549,1,8,0:0:0:0:
318,323,98609,6,0,P|264:304|208:324,1,112.500004291535,4|0,0:0|0:0,0:0:0:0:
256,192,108449,12,0,110969,0:0:0:0:
340,100,111089,5,12,0:0:0:0:
309,83,111149,1,0,0:0:0:0:
275,74,111209,1,8,0:0:0:0:
240,72,111269,1,0,0:0:0:0:
206,79,111329,1,6,0:0:0:0:
171,85,111389,1,0,0:0:0:0:
136,83,111449,1,8,0:0:0:0:
103,74,111509,1,0,0:0:0:0:
72,58,111569,5,12,0:0:0:0:
105,49,111629,1,0,0:0:0:0:
139,56,111689,1,8,0:0:0:0:
167,77,111749,1,0,0:0:0:0:
183,107,111809,1,8,0:0:0:0:
198,137,111869,1,0,0:0:0:0:
226,158,111929,1,8,0:0:0:0:
260,165,111989,1,0,0:0:0:0:
294,156,112049,5,14,0:0:0:0:
328,144,112109,1,0,0:0:0:0:
361,145,112169,1,8,0:0:0:0:
392,160,112229,1,8,0:0:0:0:
415,186,112289,1,14,0:0:0:0:
426,219,112349,1,0,0:0:0:0:
423,253,112409,1,8,0:0:0:0:
407,284,112469,1,0,0:0:0:0:
379,306,112529,5,12,0:0:0:0:
351,286,112589,1,8,0:0:0:0:
318,274,112649,1,8,0:0:0:0:
283,271,112709,1,0,0:0:0:0:
249,277,112769,1,12,0:0:0:0:
214,282,112829,1,8,0:0:0:0:
179,279,112889,1,8,0:0:0:0:
147,267,112949,1,0,0:0:0:0:
118,247,113009,5,14,0:0:0:0:
145,225,113069,1,0,0:0:0:0:
179,220,113129,1,8,0:0:0:0:
211,233,113189,1,0,0:0:0:0:
232,260,113249,5,12,0:0:0:0:
236,295,113309,1,0,0:0:0:0:
223,327,113369,1,8,0:0:0:0:
195,347,113429,1,0,0:0:0:0:
161,351,113489,5,14,0:0:0:0:
132,332,113549,1,0,0:0:0:0:
98,323,113609,1,8,0:0:0:0:
63,325,113669,1,0,0:0:0:0:
31,338,113729,5,12,0:0:0:0:
16,307,113789,1,0,0:0:0:0:
11,273,113849,1,8,0:0:0:0:
17,238,113909,1,0,0:0:0:0:
33,208,113969,5,14,0:0:0:0:
67,202,114029,1,0,0:0:0:0:
96,182,114089,1,8,0:0:0:0:
113,152,114149,1,0,0:0:0:0:
115,117,114209,5,12,0:0:0:0:
103,85,114269,1,0,0:0:0:0:
77,61,114329,1,8,0:0:0:0:
44,50,114389,1,8,0:0:0:0:
10,55,114449,5,14,0:0:0:0:
25,102,114509,1,0,0:0:0:0:
61,136,114569,1,8,0:0:0:0:
109,148,114629,1,0,0:0:0:0:
156,134,114689,1,8,0:0:0:0:
203,120,114749,1,0,0:0:0:0:
251,132,114809,1,8,0:0:0:0:
287,166,114869,1,0,0:0:0:0:
302,213,114929,6,0,P|304:252|292:276,3,50,12|0|8|0,0:0|0:0|0:0|0:0,0:0:0:0:
216,336,115169,2,0,P|214:297|226:273,3,50,12|0|8|0,0:0|0:0|0:0|0:0,0:0:0:0:
144,184,115409,2,0,P|146:223|134:247,3,50,12|0|8|0,0:0|0:0|0:0|0:0,0:0:0:0:
58,307,115649,2,0,P|56:268|68:244,3,50,12|0|8|0,0:0|0:0|0:0|0:0,0:0:0:0:
64,88,115889,5,12,0:0:0:0:
91,66,115949,1,0,0:0:0:0:
124,56,116009,1,8,0:0:0:0:
159,56,116069,1,8,0:0:0:0:
192,68,116129,1,12,0:0:0:0:
224,80,116189,1,0,0:0:0:0:
259,80,116249,1,8,0:0:0:0:
292,69,116309,1,8,0:0:0:0:
320,48,116369,5,12,0:0:0:0:
292,27,116429,1,0,0:0:0:0:
257,25,116489,1,8,0:0:0:0:
227,41,116549,1,8,0:0:0:0:
211,72,116609,1,12,0:0:0:0:
194,102,116669,1,0,0:0:0:0:
164,118,116729,1,8,0:0:0:0:
129,116,116789,1,8,0:0:0:0:
102,96,116849,5,14,0:0:0:0:
136,96,116909,1,0,0:0:0:0:
167,112,116969,1,8,0:0:0:0:
186,141,117029,1,0,0:0:0:0:
189,175,117089,5,12,0:0:0:0:
192,209,117149,1,0,0:0:0:0:
211,238,117209,1,0,0:0:0:0:
241,254,117269,1,0,0:0:0:0:
276,254,117329,5,4,0:0:0:0:
307,238,117389,1,8,0:0:0:0:
341,236,117449,1,8,0:0:0:0:
374,247,117509,1,8,0:0:0:0:
401,270,117569,5,12,0:0:0:0:
404,305,117629,1,0,0:0:0:0:
388,335,117689,1,8,0:0:0:0:
359,352,117749,1,8,0:0:0:0:
324,350,117809,5,14,0:0:0:0:
290,358,117869,1,0,0:0:0:0:
255,360,117929,1,8,0:0:0:0:
221,356,117989,1,0,0:0:0:0:
187,345,118049,5,12,0:0:0:0:
153,334,118109,1,0,0:0:0:0:
119,329,118169,1,8,0:0:0:0:
84,331,118229,1,0,0:0:0:0:
50,339,118289,5,12,0:0:0:0:
58,344,118349,1,8,0:0:0:0:
67,348,118409,1,8,0:0:0:0:
76,351,118469,1,8,0:0:0:0:
86,351,118529,1,8,0:0:0:0:
96,350,118589,1,8,0:0:0:0:
106,346,118649,1,8,0:0:0:0:
114,341,118709,1,0,0:0:0:0:
122,335,118769,5,12,0:0:0:0:
129,306,118829,1,0,0:0:0:0:
146,281,118889,1,8,0:0:0:0:
171,265,118949,1,0,0:0:0:0:
200,258,119009,1,8,0:0:0:0:
230,262,119069,1,8,0:0:0:0:
256,277,119129,1,8,0:0:0:0:
282,291,119189,1,8,0:0:0:0:
311,295,119249,1,8,0:0:0:0:
340,288,119309,1,0,0:0:0:0:
365,272,119369,1,8,0:0:0:0:
382,248,119429,1,0,0:0:0:0:
390,219,119489,2,0,P|396:188|412:168,3,50,8|0|8|0,0:0|0:0|0:0|0:0,0:0:0:0:
304,56,119729,5,12,0:0:0:0:
312,64,119789,1,0,0:0:0:0:
320,72,119849,2,0,L|316:128,1,50,8|0,0:0|0:0,0:0:0:0:
188,168,119969,5,4,0:0:0:0:
180,176,120029,1,0,0:0:0:0:
172,184,120089,2,0,L|176:240,1,50,8|0,0:0|0:0,0:0:0:0:
304,280,120209,5,6,0:0:0:0:
312,288,120269,1,0,0:0:0:0:
320,296,120329,2,0,L|316:352,1,50,8|8,0:0|0:0,0:0:0:0:
148,348,120449,6,0,P|176:336|204:340,3,50,4|8|8|8,0:0|0:0|0:0|0:0,0:0:0:0:
52,348,120689,5,12,0:0:0:0:
46,313,120749,1,0,0:0:0:0:
41,278,120809,2,0,L|33:224,1,50,8|0,0:0|0:0,0:0:0:0:
183,114,120929,5,8,0:0:0:0:
177,148,120989,1,0,0:0:0:0:
172,184,121049,2,0,L|164:238,1,50,8|0,0:0|0:0,0:0:0:0:
314,348,121169,5,14,0:0:0:0:
308,314,121229,1,0,0:0:0:0:
303,278,121289,2,0,L|295:224,1,50,8|0,0:0|0:0,0:0:0:0:
445,114,121409,5,4,0:0:0:0:
439,148,121469,1,0,0:0:0:0:
434,184,121529,2,0,L|426:238,1,50,8|0,0:0|0:0,0:0:0:0:
472,352,121649,6,8,P|436:340|404:344,2,66.6666666666667,14|8|8,0:0|0:0|0:0,0:0:0:0:
243,304,121889,2,8,P|274:315|307:313,2,66.6666666666667,12|8|8,0:0|0:0|0:0,0:0:0:0:
120,360,122129,5,14,0:0:0:0:
77,310,122209,1,0,0:0:0:0:
68,244,122289,1,0,0:0:0:0:
98,185,122369,5,12,0:0:0:0:
128,127,122449,1,0,0:0:0:0:
119,61,122529,1,0,0:0:0:0:
76,12,122609,5,12,0:0:0:0:
71,46,122669,1,0,0:0:0:0:
80,80,122729,1,8,0:0:0:0:
99,109,122789,1,0,0:0:0:0:
128,129,122849,1,8,0:0:0:0:
162,137,122909,1,0,0:0:0:0:
196,134,122969,1,8,0:0:0:0:
227,118,123029,1,0,0:0:0:0:
251,93,123089,5,4,0:0:0:0:
280,73,123149,1,0,0:0:0:0:
314,65,123209,1,8,0:0:0:0:
348,69,123269,1,0,0:0:0:0:
379,84,123329,1,8,0:0:0:0:
410,99,123389,1,0,0:0:0:0:
444,103,123449,1,8,0:0:0:0:
478,95,123509,1,0,0:0:0:0:
507,75,123569,6,0,P|472:60|452:64,3,50,12|0|8|8,0:0|0:0|0:0|0:0,0:0:0:0:
416,180,123809,5,4,0:0:0:0:
424,184,123869,1,0,0:0:0:0:
432,188,123929,2,0,L|424:240,1,50,8|0,0:0|0:0,0:0:0:0:
304,288,124049,5,6,0:0:0:0:
296,292,124109,1,0,0:0:0:0:
288,296,124169,2,0,L|296:348,1,50,8|0,0:0|0:0,0:0:0:0:
240,128,124289,5,8,0:0:0:0:
248,132,124349,1,0,0:0:0:0:
256,136,124409,2,0,L|248:188,1,50,8|0,0:0|0:0,0:0:0:0:
128,236,124529,5,12,0:0:0:0:
98,218,124589,1,0,0:0:0:0:
63,218,124649,1,0,0:0:0:0:
34,236,124709,1,0,0:0:0:0:
17,266,124769,1,8,0:0:0:0:
19,301,124829,1,0,0:0:0:0:
39,330,124889,1,0,0:0:0:0:
70,344,124949,1,0,0:0:0:0:
104,341,125009,5,12,0:0:0:0:
83,313,125069,1,8,0:0:0:0:
72,280,125129,1,8,0:0:0:0:
72,245,125189,1,8,0:0:0:0:
83,212,125249,5,12,0:0:0:0:
93,178,125309,1,0,0:0:0:0:
93,144,125369,1,8,0:0:0:0:
82,111,125429,1,0,0:0:0:0:
61,83,125489,6,0,P|52:56|56:24,3,50,12|0|8|8,0:0|0:0|0:0|0:0,0:0:0:0:
188,112,125729,2,0,P|197:139|193:171,3,50,12|0|8|8,0:0|0:0|0:0|0:0,0:0:0:0:
287,104,125969,5,8,0:0:0:0:
336,97,126029,1,8,0:0:0:0:
382,114,126089,1,8,0:0:0:0:
416,150,126149,1,8,0:0:0:0:
430,197,126209,1,12,0:0:0:0:
421,246,126269,1,8,0:0:0:0:
391,285,126329,1,8,0:0:0:0:
346,306,126389,1,8,0:0:0:0:
296,304,126449,5,10,0:0:0:0:
296,304,127169,5,6,0:0:0:0:
328,92,127289,1,4,0:0:0:0:
292,320,127409,1,6,0:0:0:0:
328,92,127889,5,2,0:0:0:0:
292,320,128369,5,6,0:0:0:0:
332,80,128609,5,12,0:0:0:0:
301,96,128669,1,0,0:0:0:0:
267,103,128729,1,8,0:0:0:0:
232,99,128789,1,0,0:0:0:0:
201,85,128849,1,8,0:0:0:0:
169,70,128909,1,8,0:0:0:0:
134,66,128969,1,8,0:0:0:0:
100,73,129029,1,8,0:0:0:0:
70,90,129089,5,12,0:0:0:0:
60,101,129149,1,8,0:0:0:0:
53,115,129209,1,8,0:0:0:0:
49,129,129269,1,8,0:0:0:0:
47,144,129329,5,12,0:0:0:0:
64,174,129389,1,8,0:0:0:0:
71,208,129449,1,8,0:0:0:0:
67,242,129509,1,0,0:0:0:0:
51,273,129569,5,12,0:0:0:0:
64,280,129629,1,0,0:0:0:0:
76,290,129689,1,8,0:0:0:0:
86,301,129749,1,0,0:0:0:0:
93,314,129809,5,12,0:0:0:0:
132,343,129869,1,0,0:0:0:0:
181,355,129929,1,8,0:0:0:0:
230,348,129989,1,8,0:0:0:0:
272,322,130049,1,12,0:0:0:0:
314,296,130109,1,0,0:0:0:0:
363,288,130169,1,8,0:0:0:0:
411,300,130229,1,0,0:0:0:0:
451,330,130289,6,8,L|444:224,1,100,14|8,0:0|0:0,0:0:0:0:
416,80,130529,1,8,0:0:0:0:
312,200,130649,1,8,0:0:0:0:
460,344,130769,6,8,L|453:238,1,100,10|8,0:0|0:0,0:0:0:0:
425,94,131009,1,8,0:0:0:0:
321,214,131129,1,8,0:0:0:0:
468,356,131249,6,8,L|461:250,1,100,10|8,0:0|0:0,0:0:0:0:
433,106,131489,1,8,0:0:0:0:
329,226,131609,1,8,0:0:0:0:
476,368,131729,6,8,L|469:262,1,100,10|8,0:0|0:0,0:0:0:0:
441,118,131969,1,8,0:0:0:0:
337,238,132089,1,8,0:0:0:0:
148,268,132209,6,8,L|155:162,1,100,14|8,0:0|0:0,0:0:0:0:
183,18,132449,1,8,0:0:0:0:
287,138,132569,1,8,0:0:0:0:
139,282,132689,6,8,L|146:176,1,100,10|8,0:0|0:0,0:0:0:0:
174,32,132929,1,8,0:0:0:0:
278,152,133049,1,8,0:0:0:0:
131,294,133169,6,8,L|138:188,1,100,10|8,0:0|0:0,0:0:0:0:
166,44,133409,1,8,0:0:0:0:
270,164,133529,1,8,0:0:0:0:
123,306,133649,6,8,L|130:200,1,100,10|8,0:0|0:0,0:0:0:0:
158,56,133889,1,8,0:0:0:0:
262,176,134009,1,8,0:0:0:0:
32,248,134129,5,14,0:0:0:0:
36,88,134249,1,8,0:0:0:0:
36,264,134369,1,8,0:0:0:0:
94,115,134489,1,8,0:0:0:0:
40,284,134609,5,10,0:0:0:0:
180,206,134729,1,8,0:0:0:0:
38,300,134849,1,8,0:0:0:0:
196,274,134969,1,8,0:0:0:0:
434,126,135089,5,14,0:0:0:0:
430,286,135209,1,8,0:0:0:0:
430,110,135329,1,8,0:0:0:0:
372,259,135449,1,8,0:0:0:0:
426,90,135569,5,10,0:0:0:0:
286,168,135689,1,8,0:0:0:0:
428,74,135809,1,8,0:0:0:0:
270,100,135929,1,8,0:0:0:0:
88,260,136049,6,0,B|76:308|76:308|80:364,1,100,14|8,0:0|0:0,0:0:0:0:
312,336,136289,2,8,L|424:352,1,100
360,168,136529,6,0,B|372:120|372:120|368:64,1,100,14|8,0:0|0:0,0:0:0:0:
136,92,136769,2,8,L|24:76,1,100
80,340,137009,5,12,0:0:0:0:
56,28,137129,1,12,0:0:0:0:
360,272,137249,5,12,0:0:0:0:
48,352,137369,1,12,0:0:0:0:
396,96,137489,5,8,0:0:0:0:
419,121,137549,1,8,0:0:0:0:
433,153,137609,1,8,0:0:0:0:
434,188,137669,1,0,0:0:0:0:
423,221,137729,5,12,0:0:0:0:
433,243,137789,1,0,0:0:0:0:
436,268,137849,1,8,0:0:0:0:
431,293,137909,1,0,0:0:0:0:
419,315,137969,6,8,L|311:331,1,100,14|8,0:0|0:0,0:0:0:0:
180,240,138209,1,8,0:0:0:0:
328,176,138329,1,8,0:0:0:0:
428,328,138449,6,8,L|320:344,1,100,10|8,0:0|0:0,0:0:0:0:
189,253,138689,1,8,0:0:0:0:
337,189,138809,1,8,0:0:0:0:
436,340,138929,6,8,L|328:356,1,100,10|8,0:0|0:0,0:0:0:0:
197,265,139169,1,8,0:0:0:0:
345,201,139289,1,8,0:0:0:0:
440,352,139409,6,8,L|332:368,1,100,10|8,0:0|0:0,0:0:0:0:
201,277,139649,1,8,0:0:0:0:
349,213,139769,1,8,0:0:0:0:
40,160,139889,6,8,L|148:176,1,100,14|8,0:0|0:0,0:0:0:0:
279,85,140129,1,8,0:0:0:0:
131,21,140249,1,8,0:0:0:0:
31,173,140369,6,8,L|139:189,1,100,10|8,0:0|0:0,0:0:0:0:
270,98,140609,1,8,0:0:0:0:
122,34,140729,1,8,0:0:0:0:
23,185,140849,6,8,L|131:201,1,100,10|8,0:0|0:0,0:0:0:0:
262,110,141089,1,8,0:0:0:0:
114,46,141209,1,8,0:0:0:0:
19,197,141329,6,8,L|127:213,1,100,10|8,0:0|0:0,0:0:0:0:
294,135,141569,5,14,0:0:0:0:
248,117,141629,1,8,0:0:0:0:
201,99,141689,1,8,0:0:0:0:
154,81,141749,1,8,0:0:0:0:
108,64,141809,5,8,0:0:0:0:
120,228,141929,1,8,0:0:0:0:
114,46,142049,6,0,L|156:152,1,100
260,264,142289,5,8,0:0:0:0:
248,100,142409,1,8,0:0:0:0:
254,282,142529,6,0,L|212:176,1,100
436,116,142769,6,8,B|448:168|448:168|448:220,1,100,14|8,0:0|0:0,0:0:0:0:
352,352,143009,1,8,0:0:0:0:
217,189,143129,1,8,0:0:0:0:
76,116,143249,6,8,B|64:168|64:168|64:220,1,100,14|8,0:0|0:0,0:0:0:0:
160,352,143489,1,8,0:0:0:0:
295,189,143609,1,8,0:0:0:0:
20,328,143729,6,8,L|120:276,1,100,14|8,0:0|0:0,0:0:0:0:
492,56,143969,2,8,L|403:102,1,100
20,56,144209,6,8,L|108:102,1,100,14|8,0:0|0:0,0:0:0:0:
492,328,144449,2,8,L|392:276,1,100
240,116,144689,5,14,0:0:0:0:
252,280,144809,1,8,0:0:0:0:
264,60,144929,5,8,0:0:0:0:
242,339,145049,1,8,0:0:0:0:
377,164,145169,5,14,0:0:0:0:
114,185,145289,1,8,0:0:0:0:
467,204,145409,5,8,0:0:0:0:
20,169,145529,1,8,0:0:0:0:
440,312,145649,5,10,0:0:0:0:
483,258,145709,1,8,0:0:0:0:
490,189,145769,1,8,0:0:0:0:
458,128,145829,1,8,0:0:0:0:
398,94,145889,1,14,0:0:0:0:
329,99,145949,1,8,0:0:0:0:
274,141,146009,1,8,0:0:0:0:
251,206,146069,1,8,0:0:0:0:
228,272,146129,1,10,0:0:0:0:
173,313,146189,1,8,0:0:0:0:
104,319,146249,1,8,0:0:0:0:
43,285,146309,1,8,0:0:0:0:
12,224,146369,1,14,0:0:0:0:
18,156,146429,1,8,0:0:0:0:
61,102,146489,1,8,0:0:0:0:
127,80,146549,1,8,0:0:0:0:
192,104,146609,1,10,0:0:0:0:
228,272,146849,5,12,0:0:0:0:
219,295,146909,1,8,0:0:0:0:
221,320,146969,1,8,0:0:0:0:
232,342,147029,1,8,0:0:0:0:
251,357,147089,5,12,0:0:0:0:
269,340,147149,1,8,0:0:0:0:
293,332,147209,1,8,0:0:0:0:
318,332,147269,1,8,0:0:0:0:
341,342,147329,5,12,0:0:0:0:
364,351,147389,1,0,0:0:0:0:
388,351,147449,1,0,0:0:0:0:
412,343,147509,1,0,0:0:0:0:
431,327,147569,6,8,L|439:227,1,100,14|8,0:0|0:0,0:0:0:0:
276,100,147809,5,8,0:0:0:0:
268,199,147929,1,8,0:0:0:0:
440,340,148049,6,8,L|448:240,1,100,10|8,0:0|0:0,0:0:0:0:
264,92,148289,2,8,L|256:192,1,100,10|8,0:0|0:0,0:0:0:0:
448,352,148529,5,10,0:0:0:0:
428,317,148609,1,0,0:0:0:0:
423,277,148689,1,0,0:0:0:0:
431,238,148769,5,10,0:0:0:0:
464,184,148849,1,0,0:0:0:0:
433,129,148929,1,0,0:0:0:0:
369,129,149009,5,10,0:0:0:0:
300,167,149089,1,0,0:0:0:0:
221,177,149169,1,0,0:0:0:0:
144,155,149249,2,0,P|101:149|59:170,2,66.6666666666667,10|0|0,0:0|0:0|0:0,0:0:0:0:
112,244,149489,5,10,0:0:0:0:
132,309,149549,1,8,0:0:0:0:
185,354,149609,1,8,0:0:0:0:
253,363,149669,1,8,0:0:0:0:
316,334,149729,1,12,0:0:0:0:
353,275,149789,1,8,0:0:0:0:
352,206,149849,1,8,0:0:0:0:
315,148,149909,1,8,0:0:0:0:
248,128,149969,5,10,0:0:0:0:
248,176,150029,1,2,0:0:0:0:
281,213,150089,1,0,0:0:0:0:
330,218,150149,1,2,0:0:0:0:
370,190,150209,5,14,0:0:0:0:
409,161,150269,1,8,0:0:0:0:
458,167,150329,1,8,0:0:0:0:
491,203,150389,1,8,0:0:0:0:
492,252,150449,5,12,0:0:0:0:
472,267,150509,1,0,0:0:0:0:
460,289,150569,1,8,0:0:0:0:
457,314,150629,1,0,0:0:0:0:
464,340,150689,5,6,0:0:0:0:
434,357,150749,1,2,0:0:0:0:
400,366,150809,1,0,0:0:0:0:
365,366,150869,1,0,0:0:0:0:
331,356,150929,1,12,0:0:0:0:
298,340,150989,1,0,0:0:0:0:
264,335,151049,1,8,0:0:0:0:
229,338,151109,1,0,0:0:0:0:
197,350,151169,5,6,0:0:0:0:
148,344,151229,1,2,0:0:0:0:
110,312,151289,1,2,0:0:0:0:
97,264,151349,1,0,0:0:0:0:
98,214,151409,6,0,L|105:322,1,100,6|0,0:0|0:0,0:0:0:0:
304,292,151649,5,8,0:0:0:0:
297,192,151769,1,8,0:0:0:0:
89,202,151889,6,8,L|96:310,1,100,10|8,0:0|0:0,0:0:0:0:
316,304,152129,2,8,L|309:196,1,100,10|8,0:0|0:0,0:0:0:0:
127,184,152369,5,12,0:0:0:0:
15,212,152489,1,8,0:0:0:0:
143,148,152609,5,10,1:0:0:0:
28,136,152729,1,8,1:0:0:0:
224,308,152849,5,12,0:0:0:0:
369,344,152969,1,8,0:0:0:0:
203,261,153089,5,12,1:0:0:0:
352,245,153209,1,8,1:0:0:0:
24,200,153329,6,8,L|32:304,1,100,14|8,0:0|0:0,0:0:0:0:
216,340,153569,1,8,0:0:0:0:
164,168,153689,1,8,0:0:0:0:
16,188,153809,6,8,L|24:292,1,100
208,328,154049,1,8,0:0:0:0:
156,156,154169,1,8,0:0:0:0:
8,176,154289,6,8,L|16:280,1,100
216,340,154529,1,12,0:0:0:0:
288,208,154649,1,8,0:0:0:0:
16,188,154769,6,8,L|24:292,1,100
224,352,155009,1,12,0:0:0:0:
296,220,155129,1,8,0:0:0:0:
20,200,155249,5,8,0:0:0:0:
124,336,155369,1,8,0:0:0:0:
8,184,155489,5,8,0:0:0:0:
177,206,155609,1,8,0:0:0:0:
204,40,155729,5,8,0:0:0:0:
100,176,155849,1,8,0:0:0:0:
216,24,155969,5,8,0:0:0:0:
47,46,156089,1,8,0:0:0:0:
372,36,156209,5,10,0:0:0:0:
355,71,156289,1,0,0:0:0:0:
352,111,156369,1,0,0:0:0:0:
365,149,156449,5,10,0:0:0:0:
370,213,156529,1,0,0:0:0:0:
324,258,156609,1,0,0:0:0:0:
260,250,156689,5,10,0:0:0:0:
194,206,156769,1,0,0:0:0:0:
116,205,156849,1,0,0:0:0:0:
49,248,156929,2,0,P|68:284|64:324,2,66.6666666666667,10|0|0,0:0|0:0|0:0,0:0:0:0:
164,320,157169,6,8,P|224:340|276:332,1,100,14|8,0:0|0:0,0:0:0:0:
384,228,157409,2,8,P|337:209|288:211,1,100
124,220,157649,5,8,0:0:0:0:
52,108,157769,1,8,0:0:0:0:
128,236,157889,5,8,0:0:0:0:
121,103,158009,1,8,0:0:0:0:
56,296,158129,2,8,P|32:248|36:200,1,100
332,124,158369,5,12,0:0:0:0:
259,336,158489,2,8,L|279:232,1,100
344,112,158729,5,8,0:0:0:0:
271,324,158849,1,12,0:0:0:0:
289,225,158969,1,8,0:0:0:0:
480,176,159089,6,8,P|492:232|484:280,1,100
396,368,159329,2,8,P|384:312|392:264,1,100
444,84,159569,5,8,0:0:0:0:
268,108,159689,1,8,0:0:0:0:
464,96,159809,5,8,0:0:0:0:
299,28,159929,1,8,0:0:0:0:
72,36,160049,5,12,0:0:0:0:
63,53,160109,1,0,0:0:0:0:
57,73,160169,1,8,0:0:0:0:
55,93,160229,1,0,0:0:0:0:
68,120,160289,5,12,0:0:0:0:
66,139,160349,1,0,0:0:0:0:
60,159,160409,1,8,0:0:0:0:
51,177,160469,1,0,0:0:0:0:
48,220,160529,5,12,0:0:0:0:
88,191,160589,1,8,0:0:0:0:
136,180,160649,1,8,0:0:0:0:
185,188,160709,1,0,0:0:0:0:
228,214,160769,1,8,0:0:0:0:
271,240,160829,1,0,0:0:0:0:
320,248,160889,1,8,0:0:0:0:
368,237,160949,1,0,0:0:0:0:
408,208,161009,5,12,0:0:0:0:
387,194,161069,1,0,0:0:0:0:
362,190,161129,1,8,0:0:0:0:
338,197,161189,1,0,0:0:0:0:
319,213,161249,1,8,0:0:0:0:
309,235,161309,1,0,0:0:0:0:
309,260,161369,1,8,0:0:0:0:
319,282,161429,1,0,0:0:0:0:
337,299,161489,2,0,P|361:311|389:311,1,50,12|0,0:0|0:0,0:0:0:0:
488,248,161609,5,12,0:0:0:0:
463,248,161669,1,0,0:0:0:0:
438,242,161729,1,8,0:0:0:0:
416,231,161789,1,0,0:0:0:0:
397,214,161849,1,8,0:0:0:0:
383,194,161909,1,0,0:0:0:0:
375,170,161969,1,8,0:0:0:0:
372,146,162029,1,0,0:0:0:0:
375,121,162089,1,8,0:0:0:0:
385,98,162149,1,0,0:0:0:0:
400,78,162209,1,8,0:0:0:0:
419,62,162269,1,0,0:0:0:0:
441,51,162329,1,8,0:0:0:0:
466,46,162389,1,0,0:0:0:0:
491,47,162449,5,12,0:0:0:0:
477,68,162509,1,0,0:0:0:0:
458,83,162569,1,8,0:0:0:0:
434,91,162629,1,0,0:0:0:0:
409,90,162689,1,8,0:0:0:0:
384,89,162749,1,0,0:0:0:0:
360,97,162809,1,8,0:0:0:0:
340,112,162869,1,0,0:0:0:0:
327,133,162929,5,14,0:0:0:0:
351,134,162989,1,0,0:0:0:0:
374,124,163049,1,8,0:0:0:0:
389,105,163109,1,0,0:0:0:0:
394,81,163169,1,8,0:0:0:0:
386,57,163229,1,0,0:0:0:0:
368,40,163289,1,8,0:0:0:0:
345,33,163349,1,0,0:0:0:0:
320,38,163409,2,0,P|288:50|264:46,1,50,12|0,0:0|0:0,0:0:0:0:
156,56,163529,5,12,0:0:0:0:
168,77,163589,1,0,0:0:0:0:
177,100,163649,1,8,0:0:0:0:
181,125,163709,1,8,0:0:0:0:
182,150,163769,1,8,0:0:0:0:
178,175,163829,1,8,0:0:0:0:
170,198,163889,5,6,0:0:0:0:
142,238,163949,1,0,0:0:0:0:
155,285,164009,1,8,0:0:0:0:
198,307,164069,1,8,0:0:0:0:
243,289,164129,5,12,0:0:0:0:
283,316,164189,1,0,0:0:0:0:
330,303,164249,1,8,0:0:0:0:
352,260,164309,1,8,0:0:0:0:
334,215,164369,5,12,0:0:0:0:
301,251,164429,1,8,0:0:0:0:
291,300,164489,1,8,0:0:0:0:
307,346,164549,1,8,0:0:0:0:
345,378,164609,5,14,0:0:0:0:
384,347,164669,1,0,0:0:0:0:
432,333,164729,1,8,0:0:0:0:
481,336,164789,1,0,0:0:0:0:
512,358,164849,5,12,0:0:0:0:
494,339,164909,1,0,0:0:0:0:
481,318,164969,1,8,0:0:0:0:
471,295,165029,1,0,0:0:0:0:
465,271,165089,1,8,0:0:0:0:
463,246,165149,1,0,0:0:0:0:
466,221,165209,1,8,0:0:0:0:
473,197,165269,1,0,0:0:0:0:
484,175,165329,2,0,P|492:151|488:119,1,50,12|0,0:0|0:0,0:0:0:0:
372,100,165449,5,12,0:0:0:0:
350,112,165509,1,0,0:0:0:0:
326,121,165569,1,8,0:0:0:0:
302,126,165629,1,0,0:0:0:0:
277,127,165689,1,8,0:0:0:0:
252,125,165749,1,0,0:0:0:0:
228,118,165809,1,8,0:0:0:0:
204,111,165869,1,0,0:0:0:0:
179,109,165929,1,8,0:0:0:0:
154,110,165989,1,0,0:0:0:0:
130,115,166049,1,8,0:0:0:0:
106,124,166109,1,0,0:0:0:0:
84,136,166169,1,8,0:0:0:0:
67,154,166229,1,0,0:0:0:0:
56,176,166289,5,12,0:0:0:0:
77,189,166349,1,0,0:0:0:0:
101,193,166409,1,8,0:0:0:0:
125,187,166469,1,0,0:0:0:0:
145,172,166529,1,8,0:0:0:0:
158,151,166589,1,0,0:0:0:0:
162,127,166649,1,8,0:0:0:0:
156,103,166709,1,0,0:0:0:0:
141,83,166769,5,6,0:0:0:0:
123,100,166829,1,0,0:0:0:0:
111,122,166889,1,8,0:0:0:0:
107,147,166949,1,0,0:0:0:0:
110,171,167009,1,8,0:0:0:0:
113,195,167069,1,0,0:0:0:0:
109,220,167129,1,8,0:0:0:0:
97,242,167189,1,0,0:0:0:0:
79,259,167249,5,12,0:0:0:0:
79,234,167309,1,0,0:0:0:0:
90,212,167369,1,8,0:0:0:0:
112,200,167429,1,0,0:0:0:0:
136,196,167489,2,0,P|160:196|188:208,1,50,12|0,0:0|0:0,0:0:0:0:
272,356,167609,2,0,P|248:356|220:344,1,50,12|0,0:0|0:0,0:0:0:0:
276,152,167729,6,0,L|288:200,3,50,4|0|8|8,0:0|0:0|0:0|0:0,0:0:0:0:
384,196,167969,2,0,L|372:244,3,50,12|0|8|8,0:0|0:0|0:0|0:0,0:0:0:0:
356,52,168209,6,0,L|368:100,3,50,4|0|8|8,0:0|0:0|0:0|0:0,0:0:0:0:
464,96,168449,2,0,L|452:144,3,50,12|0|8|8,0:0|0:0|0:0|0:0,0:0:0:0:
448,272,168689,5,4,0:0:0:0:
336,344,168809,1,8,0:0:0:0:
464,288,168929,5,12,0:0:0:0:
333,259,169049,1,8,0:0:0:0:
440,296,169169,5,12,0:0:0:0:
367,182,169289,1,8,0:0:0:0:
423,277,169409,5,12,0:0:0:0:
451,144,169529,1,8,0:0:0:0:
64,112,169649,5,12,0:0:0:0:
176,40,169769,1,0,0:0:0:0:
48,96,169889,5,12,0:0:0:0:
179,125,170009,1,8,0:0:0:0:
72,88,170129,5,12,0:0:0:0:
145,202,170249,1,8,0:0:0:0:
89,107,170369,5,12,0:0:0:0:
61,240,170489,1,0,0:0:0:0:
256,272,170609,5,12,0:0:0:0:
277,284,170669,1,0,0:0:0:0:
301,291,170729,1,8,0:0:0:0:
326,293,170789,1,8,0:0:0:0:
351,289,170849,1,8,0:0:0:0:
375,284,170909,1,0,0:0:0:0:
400,286,170969,1,8,0:0:0:0:
424,293,171029,1,0,0:0:0:0:
440,312,171089,5,12,0:0:0:0:
422,329,171149,1,0,0:0:0:0:
399,338,171209,1,8,0:0:0:0:
374,338,171269,1,8,0:0:0:0:
352,328,171329,1,8,0:0:0:0:
335,309,171389,1,0,0:0:0:0:
327,286,171449,1,8,0:0:0:0:
329,261,171509,1,0,0:0:0:0:
340,239,171569,5,14,0:0:0:0:
363,196,171629,1,0,0:0:0:0:
350,149,171689,1,8,0:0:0:0:
308,124,171749,1,8,0:0:0:0:
261,136,171809,5,4,0:0:0:0:
218,112,171869,1,8,0:0:0:0:
171,125,171929,1,8,0:0:0:0:
146,167,171989,1,8,0:0:0:0:
158,214,172049,5,12,0:0:0:0:
127,252,172109,1,0,0:0:0:0:
79,257,172169,1,8,0:0:0:0:
41,227,172229,1,8,0:0:0:0:
35,179,172289,5,4,0:0:0:0:
79,203,172349,1,8,0:0:0:0:
107,243,172409,1,8,0:0:0:0:
116,292,172469,1,8,0:0:0:0:
102,340,172529,5,6,0:0:0:0:
200,276,172649,1,8,0:0:0:0:
312,268,172769,2,0,L|416:308,1,100,4|8,0:0|0:0,0:0:0:0:
116,332,173009,5,4,0:0:0:0:
214,268,173129,1,8,0:0:0:0:
326,260,173249,2,0,L|430:300,1,100,4|8,0:0|0:0,0:0:0:0:
132,324,173489,5,4,0:0:0:0:
230,260,173609,1,8,0:0:0:0:
342,252,173729,2,0,L|446:292,1,100,4|8,0:0|0:0,0:0:0:0:
204,344,173969,5,4,0:0:0:0:
172,164,174089,1,8,0:0:0:0:
290,352,174209,5,4,0:0:0:0:
33,315,174329,1,8,0:0:0:0:
352,264,174449,6,0,L|412:256,1,50,14|0,0:0|0:0,0:0:0:0:
460,104,174569,2,0,L|410:110,1,50,12|0,0:0|0:0,0:0:0:0:
346,275,174689,6,0,L|406:267,1,50,14|0,0:0|0:0,0:0:0:0:
454,115,174809,2,0,L|404:121,1,50,12|0,0:0|0:0,0:0:0:0:
340,284,174929,6,0,L|400:276,1,50,12|0,0:0|0:0,0:0:0:0:
448,124,175049,2,0,L|398:130,1,50,12|0,0:0|0:0,0:0:0:0:
336,292,175169,6,0,L|396:284,1,50,12|0,0:0|0:0,0:0:0:0:
444,132,175289,2,0,L|394:138,1,50,12|0,0:0|0:0,0:0:0:0:
164,216,175409,6,0,L|224:208,1,50,14|0,0:0|0:0,0:0:0:0:
272,56,175529,2,0,L|222:62,1,50,12|0,0:0|0:0,0:0:0:0:
158,227,175649,6,0,L|218:219,1,50,12|0,0:0|0:0,0:0:0:0:
266,67,175769,2,0,L|216:73,1,50,12|0,0:0|0:0,0:0:0:0:
152,236,175889,6,0,L|212:228,1,50,12|0,0:0|0:0,0:0:0:0:
260,76,176009,2,0,L|210:82,1,50,12|0,0:0|0:0,0:0:0:0:
148,244,176129,6,0,L|208:236,1,50,12|0,0:0|0:0,0:0:0:0:
256,84,176249,2,0,L|206:90,1,50
32,152,176369,5,14,0:0:0:0:
12,218,176429,1,8,0:0:0:0:
25,286,176489,1,8,0:0:0:0:
69,339,176549,1,0,0:0:0:0:
133,366,176609,1,12,0:0:0:0:
202,359,176669,1,0,0:0:0:0:
260,321,176729,1,8,0:0:0:0:
293,260,176789,1,0,0:0:0:0:
293,190,176849,1,12,0:0:0:0:
289,121,176909,1,8,0:0:0:0:
327,63,176969,1,8,0:0:0:0:
391,38,177029,1,8,0:0:0:0:
457,55,177089,1,12,0:0:0:0:
502,107,177149,1,0,0:0:0:0:
507,176,177209,1,8,0:0:0:0:
472,235,177269,1,0,0:0:0:0:
405,256,177329,1,6,0:0:0:0:
239,207,177569,5,12,0:0:0:0:
233,241,177629,1,8,0:0:0:0:
212,268,177689,1,8,0:0:0:0:
180,282,177749,1,8,0:0:0:0:
146,278,177809,1,12,0:0:0:0:
113,275,177869,1,8,0:0:0:0:
81,288,177929,1,8,0:0:0:0:
59,316,177989,1,8,0:0:0:0:
54,350,178049,1,14,0:0:0:0:
73,56,178289,6,8,L|40:152,1,100,14|8,0:0|0:0,0:0:0:0:
212,268,178529,5,12,0:0:0:0:
244,173,178649,1,8,0:0:0:0:
64,40,178769,6,8,L|31:136,1,100,0|8,0:0|0:0,0:0:0:0:
220,284,179009,2,8,L|253:188,1,100
56,28,179249,5,12,0:0:0:0:
75,62,179329,1,8,0:0:0:0:
84,101,179409,1,0,0:0:0:0:
80,141,179489,5,12,0:0:0:0:
55,201,179569,1,8,0:0:0:0:
79,261,179649,1,0,0:0:0:0:
138,289,179729,5,12,0:0:0:0:
191,236,179809,1,8,0:0:0:0:
260,267,179889,1,8,0:0:0:0:
254,342,179969,2,0,P|224:352|184:352,2,66.6666666666667,12|8|0,0:0|0:0|0:0,0:0:0:0:
388,296,180209,5,12,0:0:0:0:
448,263,180269,1,0,0:0:0:0:
479,202,180329,1,8,0:0:0:0:
470,133,180389,1,0,0:0:0:0:
423,83,180449,1,12,0:0:0:0:
355,69,180509,1,8,0:0:0:0:
292,96,180569,1,8,0:0:0:0:
255,154,180629,1,8,0:0:0:0:
264,224,180689,5,14,0:0:0:0:
308,203,180749,1,2,0:0:0:0:
327,158,180809,1,0,0:0:0:0:
310,113,180869,1,2,0:0:0:0:
266,91,180929,1,14,0:0:0:0:
222,114,180989,1,0,0:0:0:0:
173,123,181049,1,8,0:0:0:0:
124,115,181109,1,0,0:0:0:0:
80,91,181169,5,12,0:0:0:0:
100,77,181229,1,0,0:0:0:0:
124,73,181289,1,8,0:0:0:0:
148,79,181349,1,0,0:0:0:0:
168,94,181409,5,6,0:0:0:0:
153,125,181469,1,2,0:0:0:0:
147,159,181529,1,0,0:0:0:0:
150,194,181589,1,2,0:0:0:0:
163,227,181649,1,14,0:0:0:0:
192,244,181709,1,0,0:0:0:0:
207,275,181769,1,8,0:0:0:0:
202,309,181829,1,0,0:0:0:0:
178,334,181889,5,12,0:0:0:0:
132,314,181949,1,8,0:0:0:0:
100,276,182009,1,8,0:0:0:0:
91,228,182069,1,8,0:0:0:0:
92,177,182129,6,8,L|154:270,1,100,14|8,0:0|0:0,0:0:0:0:
387,242,182369,5,12,0:0:0:0:
331,160,182489,1,8,0:0:0:0:
69,172,182609,6,8,L|131:265,1,100,0|8,0:0|0:0,0:0:0:0:
407,244,182849,2,8,L|342:150,1,100
32,224,183089,5,14,0:0:0:0:
64,336,183209,1,8,0:0:0:0:
36,200,183329,5,8,0:0:0:0:
119,280,183449,1,8,0:0:0:0:
272,232,183569,5,14,0:0:0:0:
225,67,183689,1,8,0:0:0:0:
266,267,183809,5,8,0:0:0:0:
144,149,183929,1,8,0:0:0:0:
384,92,184049,5,12,0:0:0:0:
401,122,184109,1,0,0:0:0:0:
409,156,184169,1,8,0:0:0:0:
408,190,184229,1,0,0:0:0:0:
397,224,184289,1,12,0:0:0:0:
386,258,184349,1,0,0:0:0:0:
385,292,184409,1,8,0:0:0:0:
393,326,184469,1,0,0:0:0:0:
410,356,184529,5,12,0:0:0:0:
445,322,184589,1,0,0:0:0:0:
448,273,184649,1,8,0:0:0:0:
418,235,184709,1,0,0:0:0:0:
369,228,184769,1,12,0:0:0:0:
320,220,184829,1,0,0:0:0:0:
290,182,184889,1,8,0:0:0:0:
293,133,184949,1,0,0:0:0:0:
328,100,185009,6,0,L|320:208,1,100,12|0,0:0|0:0,0:0:0:0:
184,268,185249,1,6,0:0:0:0:
139,183,185369,1,2,0:0:0:0:
280,293,185489,5,12,0:0:0:0:
19,169,185609,1,12,0:0:0:0:
340,88,185729,6,0,L|332:196,1,100,4|8,0:0|0:0,0:0:0:0:
196,256,185969,5,14,0:0:0:0:
174,244,186029,1,0,0:0:0:0:
149,243,186089,1,8,0:0:0:0:
126,253,186149,1,0,0:0:0:0:
111,272,186209,1,12,0:0:0:0:
105,297,186269,1,8,0:0:0:0:
110,321,186329,1,8,0:0:0:0:
126,340,186389,1,8,0:0:0:0:
148,350,186449,5,14,0:0:0:0:
167,334,186509,1,0,0:0:0:0:
191,327,186569,1,8,0:0:0:0:
216,326,186629,1,0,0:0:0:0:
240,334,186689,5,14,0:0:0:0:
259,318,186749,1,0,0:0:0:0:
283,311,186809,1,8,0:0:0:0:
308,310,186869,1,0,0:0:0:0:
332,318,186929,5,12,0:0:0:0:
296,334,187009,1,8,0:0:0:0:
261,318,187089,1,8,0:0:0:0:
250,281,187169,5,12,0:0:0:0:
278,221,187249,1,8,0:0:0:0:
275,155,187329,1,0,0:0:0:0:
240,100,187409,5,12,0:0:0:0:
162,94,187489,1,8,0:0:0:0:
100,142,187569,1,8,0:0:0:0:
85,218,187649,2,0,P|96:260|88:296,2,66.6666666666667,12|0|0,0:0|0:0|0:0,0:0:0:0:
179,189,187889,5,12,0:0:0:0:
207,168,187949,1,0,0:0:0:0:
240,156,188009,1,8,0:0:0:0:
275,155,188069,1,0,0:0:0:0:
308,164,188129,1,12,0:0:0:0:
340,172,188189,1,0,0:0:0:0:
375,170,188249,1,8,0:0:0:0:
408,159,188309,1,0,0:0:0:0:
435,137,188369,5,12,0:0:0:0:
392,112,188429,1,0,0:0:0:0:
345,124,188489,1,8,0:0:0:0:
318,165,188549,1,0,0:0:0:0:
327,212,188609,1,4,0:0:0:0:
335,259,188669,1,0,0:0:0:0:
309,300,188729,1,8,0:0:0:0:
261,312,188789,1,0,0:0:0:0:
219,287,188849,6,0,P|272:268|320:304,1,100,4|0,0:0|0:0,0:0:0:0:
128,360,189089,5,12,0:0:0:0:
107,331,189149,1,0,0:0:0:0:
96,298,189209,1,8,0:0:0:0:
95,263,189269,1,0,0:0:0:0:
103,229,189329,1,12,0:0:0:0:
111,195,189389,1,0,0:0:0:0:
109,160,189449,1,8,0:0:0:0:
98,127,189509,1,0,0:0:0:0:
78,98,189569,6,0,P|64:152|100:204,1,100,4|0,0:0|0:0,0:0:0:0:
180,92,189809,5,12,0:0:0:0:
213,56,189869,1,0,0:0:0:0:
260,42,189929,1,8,0:0:0:0:
308,54,189989,1,0,0:0:0:0:
343,88,190049,1,12,0:0:0:0:
378,122,190109,1,8,0:0:0:0:
426,134,190169,1,8,0:0:0:0:
473,120,190229,1,0,0:0:0:0:
506,84,190289,5,12,0:0:0:0:
458,70,190349,1,0,0:0:0:0:
412,87,190409,1,8,0:0:0:0:
383,127,190469,1,0,0:0:0:0:
383,176,190529,1,12,0:0:0:0:
399,224,190589,1,0,0:0:0:0:
404,273,190649,1,8,0:0:0:0:
396,322,190709,1,0,0:0:0:0:
360,308,190769,5,12,0:0:0:0:
340,312,190829,1,0,0:0:0:0:
321,316,190889,1,8,0:0:0:0:
301,321,190949,1,0,0:0:0:0:
284,352,191009,5,14,0:0:0:0:
264,347,191069,1,0,0:0:0:0:
245,343,191129,1,8,0:0:0:0:
225,338,191189,1,0,0:0:0:0:
168,364,191249,5,14,0:0:0:0:
209,336,191309,1,0,0:0:0:0:
232,293,191369,1,8,0:0:0:0:
233,243,191429,1,0,0:0:0:0:
210,199,191489,1,14,0:0:0:0:
186,155,191549,1,0,0:0:0:0:
187,105,191609,1,8,0:0:0:0:
210,62,191669,1,0,0:0:0:0:
252,34,191729,6,0,L|244:152,1,112.500004291535,6|0,0:0|0:0,0:0:0:0:
280,180,191969,5,12,0:0:0:0:
265,183,192029,1,0,0:0:0:0:
251,187,192089,1,8,0:0:0:0:
236,191,192149,1,8,0:0:0:0:
222,195,192209,5,4,0:0:0:0:
248,20,192449,5,4,0:0:0:0:
448,200,192703,5,14,0:0:0:0:
457,228,192763,1,0,0:0:0:0:
456,258,192823,1,8,0:0:0:0:
446,286,192883,1,0,0:0:0:0:
427,309,192943,1,8,0:0:0:0:
401,324,193003,1,8,0:0:0:0:
372,330,193063,1,8,0:0:0:0:
343,326,193123,1,8,0:0:0:0:
316,313,193183,5,6,0:0:0:0:
299,288,193243,1,0,0:0:0:0:
277,268,193303,1,8,0:0:0:0:
250,254,193363,1,0,0:0:0:0:
221,247,193423,1,8,0:0:0:0:
191,248,193483,1,8,0:0:0:0:
163,257,193543,1,8,0:0:0:0:
137,272,193603,1,8,0:0:0:0:
116,293,193663,5,6,0:0:0:0:
141,310,193723,1,0,0:0:0:0:
170,315,193783,1,8,0:0:0:0:
200,310,193843,1,0,0:0:0:0:
225,294,193903,1,12,0:0:0:0:
243,270,193963,1,8,0:0:0:0:
250,242,194023,1,8,0:0:0:0:
247,212,194083,1,8,0:0:0:0:
233,186,194143,5,12,0:0:0:0:
230,151,194203,1,0,0:0:0:0:
240,118,194263,1,8,0:0:0:0:
262,90,194323,1,8,0:0:0:0:
292,73,194383,1,12,0:0:0:0:
327,68,194443,1,0,0:0:0:0:
361,76,194503,1,8,0:0:0:0:
389,96,194563,1,8,0:0:0:0:
409,125,194623,5,14,0:0:0:0:
377,140,194683,1,0,0:0:0:0:
355,166,194743,1,8,0:0:0:0:
346,200,194803,1,0,0:0:0:0:
353,234,194863,1,8,0:0:0:0:
373,262,194923,1,8,0:0:0:0:
404,279,194983,1,8,0:0:0:0:
438,281,195043,1,8,0:0:0:0:
470,268,195103,5,6,0:0:0:0:
450,239,195163,1,2,0:0:0:0:
422,218,195223,1,8,0:0:0:0:
389,207,195283,1,0,0:0:0:0:
354,207,195343,1,10,0:0:0:0:
321,218,195403,1,2,0:0:0:0:
294,239,195463,1,0,0:0:0:0:
274,268,195523,1,0,0:0:0:0:
264,301,195583,5,12,0:0:0:0:
243,328,195643,1,8,0:0:0:0:
214,349,195703,1,8,0:0:0:0:
181,358,195763,1,8,0:0:0:0:
146,357,195823,1,8,0:0:0:0:
113,346,195883,1,8,0:0:0:0:
86,324,195943,1,8,0:0:0:0:
67,295,196003,1,8,0:0:0:0:
58,261,196063,5,12,0:0:0:0:
57,226,196123,1,8,0:0:0:0:
67,192,196183,1,12,0:0:0:0:
88,164,196243,1,0,0:0:0:0:
116,143,196303,1,12,0:0:0:0:
148,132,196363,1,0,0:0:0:0:
183,132,196423,1,8,0:0:0:0:
216,144,196483,1,8,0:0:0:0:
244,165,196543,5,14,0:0:0:0:
223,192,196603,1,0,0:0:0:0:
193,210,196663,1,8,0:0:0:0:
158,216,196723,1,8,0:0:0:0:
125,208,196783,1,8,0:0:0:0:
96,188,196843,1,8,0:0:0:0:
77,159,196903,1,8,0:0:0:0:
70,125,196963,1,8,0:0:0:0:
77,91,197023,5,6,0:0:0:0:
101,66,197083,1,8,0:0:0:0:
133,51,197143,1,8,0:0:0:0:
168,50,197203,1,8,0:0:0:0:
201,61,197263,1,12,0:0:0:0:
228,80,197323,1,8,0:0:0:0:
262,88,197383,1,8,0:0:0:0:
297,83,197443,1,8,0:0:0:0:
327,66,197503,6,0,L|316:168,1,100,14|0,0:0|0:0,0:0:0:0:
118,327,197743,1,2,0:0:0:0:
101,66,197863,1,2,0:0:0:0:
221,235,197983,2,0,L|111:252,1,100,2|0,0:0|0:0,0:0:0:0:
400,304,198223,2,0,L|299:352,1,100,2|0,0:0|0:0,0:0:0:0:
376,176,198463,6,0,B|352:128|352:128|352:76,1,100,12|0,0:0|0:0,0:0:0:0:
464,232,198703,2,0,B|488:280|488:280|488:332,1,100,2|0,0:0|0:0,0:0:0:0:
284,344,198943,5,2,0:0:0:0:
384,160,199063,1,0,0:0:0:0:
264,340,199183,5,2,0:0:0:0:
446,236,199303,1,0,0:0:0:0:
149,343,199423,6,0,P|177:279|149:191,1,150,6|0,0:0|0:0,0:0:0:0:
36,48,199903,6,0,L|43:155,1,100,6|8,0:0|0:0,0:0:0:0:
220,159,200143,2,0,L|327:152,1,100,6|8,0:0|0:0,0:0:0:0:
52,36,200383,5,14,0:0:0:0:
73,63,200443,1,0,0:0:0:0:
103,81,200503,1,8,0:0:0:0:
137,86,200563,1,0,0:0:0:0:
171,79,200623,1,8,0:0:0:0:
205,71,200683,1,8,0:0:0:0:
239,77,200743,1,8,0:0:0:0:
269,95,200803,1,8,0:0:0:0:
290,122,200863,5,12,0:0:0:0:
297,156,200923,1,0,0:0:0:0:
292,190,200983,1,8,0:0:0:0:
275,221,201043,1,0,0:0:0:0:
249,244,201103,1,8,0:0:0:0:
217,256,201163,1,8,0:0:0:0:
182,257,201223,1,8,0:0:0:0:
149,245,201283,1,8,0:0:0:0:
122,223,201343,5,12,0:0:0:0:
92,208,201403,1,0,0:0:0:0:
57,209,201463,1,8,0:0:0:0:
28,228,201523,1,0,0:0:0:0:
13,259,201583,1,12,0:0:0:0:
15,294,201643,1,8,0:0:0:0:
34,322,201703,1,8,0:0:0:0:
66,337,201763,1,8,0:0:0:0:
100,334,201823,5,14,0:0:0:0:
126,311,201883,1,0,0:0:0:0:
142,280,201943,1,8,0:0:0:0:
149,246,202003,1,8,0:0:0:0:
144,211,202063,1,12,0:0:0:0:
139,176,202123,1,8,0:0:0:0:
145,142,202183,1,8,0:0:0:0:
162,111,202243,1,8,0:0:0:0:
187,87,202303,5,14,0:0:0:0:
199,119,202363,1,0,0:0:0:0:
197,153,202423,1,8,0:0:0:0:
181,184,202483,1,8,0:0:0:0:
153,205,202543,1,12,0:0:0:0:
119,212,202603,1,8,0:0:0:0:
85,205,202663,1,8,0:0:0:0:
58,183,202723,1,8,0:0:0:0:
42,153,202783,5,14,0:0:0:0:
77,152,202843,1,0,0:0:0:0:
112,151,202903,1,8,0:0:0:0:
147,151,202963,1,8,0:0:0:0:
182,150,203023,1,10,0:0:0:0:
217,150,203083,1,0,0:0:0:0:
252,149,203143,1,10,0:0:0:0:
287,148,203203,1,0,0:0:0:0:
322,148,203263,5,14,0:0:0:0:
311,115,203323,1,0,0:0:0:0:
284,94,203383,1,8,0:0:0:0:
250,90,203443,1,2,0:0:0:0:
219,106,203503,1,6,0:0:0:0:
202,136,203563,1,8,0:0:0:0:
204,170,203623,1,8,0:0:0:0:
225,198,203683,1,8,0:0:0:0:
257,210,203743,5,12,0:0:0:0:
286,190,203803,1,0,0:0:0:0:
320,184,203863,1,8,0:0:0:0:
354,190,203923,1,0,0:0:0:0:
382,210,203983,1,12,0:0:0:0:
410,229,204043,1,0,0:0:0:0:
444,236,204103,1,8,0:0:0:0:
478,229,204163,1,8,0:0:0:0:
507,210,204223,5,14,0:0:0:0:
494,177,204283,1,0,0:0:0:0:
470,152,204343,1,8,0:0:0:0:
437,141,204403,1,8,0:0:0:0:
403,144,204463,1,8,0:0:0:0:
373,161,204523,1,8,0:0:0:0:
353,190,204583,1,8,0:0:0:0:
347,224,204643,1,8,0:0:0:0:
356,257,204703,5,14,0:0:0:0:
350,290,204763,1,8,0:0:0:0:
332,318,204823,1,8,0:0:0:0:
302,337,204883,1,8,0:0:0:0:
268,342,204943,1,12,0:0:0:0:
234,330,205003,1,8,0:0:0:0:
209,308,205063,1,8,0:0:0:0:
196,275,205123,1,8,0:0:0:0:
197,240,205183,6,0,L|192:88,1,150,6|0,0:0|0:0,0:0:0:0:
200,48,205423,1,6,0:0:0:0:
176,276,205543,1,6,0:0:0:0:
200,48,205783,5,10,0:0:0:0:
176,276,205903,1,10,0:0:0:0:
196,20,206143,5,14,0:0:0:0:
180,304,206383,1,14,0:0:0:0:
196,20,206623,5,12,0:0:0:0:
169,61,206683,1,0,0:0:0:0:
166,111,206743,1,8,0:0:0:0:
187,155,206803,1,8,0:0:0:0:
228,184,206863,1,12,0:0:0:0:
267,211,206923,1,0,0:0:0:0:
288,256,206983,1,8,0:0:0:0:
286,305,207043,1,8,0:0:0:0:
259,346,207103,1,14,0:0:0:0:
48,308,207343,5,12,0:0:0:0:
52,296,207403,1,12,0:0:0:0:
56,284,207463,1,4,0:0:0:0:
56,284,207823,5,4,0:0:0:0:
124,96,208063,5,14,0:0:0:0:
148,120,208123,1,0,0:0:0:0:
180,134,208183,1,8,0:0:0:0:
215,135,208243,1,0,0:0:0:0:
248,124,208303,1,8,0:0:0:0:
280,112,208363,1,8,0:0:0:0:
315,113,208423,1,8,0:0:0:0:
347,127,208483,1,8,0:0:0:0:
372,152,208543,5,12,0:0:0:0:
383,184,208603,1,0,0:0:0:0:
382,219,208663,1,8,0:0:0:0:
368,251,208723,1,0,0:0:0:0:
343,275,208783,1,8,0:0:0:0:
311,288,208843,1,8,0:0:0:0:
276,288,208903,1,8,0:0:0:0:
244,276,208963,1,8,0:0:0:0:
218,252,209023,5,12,0:0:0:0:
195,226,209083,1,8,0:0:0:0:
163,212,209143,1,0,0:0:0:0:
129,214,209203,1,8,0:0:0:0:
98,231,209263,1,8,0:0:0:0:
78,259,209323,1,0,0:0:0:0:
72,293,209383,1,8,0:0:0:0:
81,327,209443,1,8,0:0:0:0:
104,353,209503,5,14,0:0:0:0:
134,334,209563,1,0,0:0:0:0:
168,326,209623,1,8,0:0:0:0:
203,327,209683,1,0,0:0:0:0:
235,340,209743,1,12,0:0:0:0:
267,352,209803,1,8,0:0:0:0:
302,353,209863,1,8,0:0:0:0:
336,345,209923,1,8,0:0:0:0:
365,326,209983,5,14,0:0:0:0:
342,299,210043,1,0,0:0:0:0:
335,265,210103,1,8,0:0:0:0:
344,232,210163,1,0,0:0:0:0:
368,207,210223,1,8,0:0:0:0:
401,196,210283,1,8,0:0:0:0:
435,202,210343,1,8,0:0:0:0:
462,223,210403,1,8,0:0:0:0:
476,255,210463,5,12,0:0:0:0:
443,266,210523,1,8,0:0:0:0:
409,260,210583,1,8,0:0:0:0:
381,239,210643,1,8,0:0:0:0:
367,207,210703,1,10,0:0:0:0:
379,173,210763,1,8,0:0:0:0:
374,139,210823,1,10,0:0:0:0:
354,110,210883,1,8,0:0:0:0:
323,95,210943,5,14,0:0:0:0:
295,116,211003,1,0,0:0:0:0:
262,127,211063,1,8,0:0:0:0:
227,127,211123,1,8,0:0:0:0:
194,116,211183,1,8,0:0:0:0:
160,104,211243,1,8,0:0:0:0:
126,104,211303,1,8,0:0:0:0:
93,116,211363,1,8,0:0:0:0:
65,137,211423,5,6,0:0:0:0:
45,166,211483,1,0,0:0:0:0:
39,200,211543,1,8,0:0:0:0:
46,234,211603,1,0,0:0:0:0:
65,262,211663,1,12,0:0:0:0:
95,281,211723,1,0,0:0:0:0:
129,288,211783,1,8,0:0:0:0:
163,280,211843,1,8,0:0:0:0:
191,260,211903,5,14,0:0:0:0:
196,226,211963,1,0,0:0:0:0:
217,198,212023,1,8,0:0:0:0:
248,183,212083,1,0,0:0:0:0:
283,185,212143,1,8,0:0:0:0:
312,202,212203,1,8,0:0:0:0:
331,232,212263,1,8,0:0:0:0:
332,267,212323,1,8,0:0:0:0:
318,298,212383,5,6,0:0:0:0:
287,281,212443,1,0,0:0:0:0:
266,254,212503,1,8,0:0:0:0:
257,220,212563,1,8,0:0:0:0:
263,186,212623,1,12,0:0:0:0:
268,151,212683,1,0,0:0:0:0:
259,118,212743,1,8,0:0:0:0:
238,90,212803,1,8,0:0:0:0:
208,73,212863,6,0,P|208:128|180:168,1,100,14|0,0:0|0:0,0:0:0:0:
24,48,213103,1,12,0:0:0:0:
240,52,213223,1,8,0:0:0:0:
84,160,213343,2,0,L|104:268,1,100,4|0,0:0|0:0,0:0:0:0:
257,220,213583,2,0,L|237:328,1,100,4|0,0:0|0:0,0:0:0:0:
408,316,213823,6,0,B|384:272|384:272|384:216,1,100,12|0,0:0|0:0,0:0:0:0:
448,68,214063,2,0,B|472:112|472:112|472:168,1,100,12|0,0:0|0:0,0:0:0:0:
188,80,214303,5,4,0:0:0:0:
392,136,214423,1,0,0:0:0:0:
162,54,214543,5,4,0:0:0:0:
267,238,214663,1,0,0:0:0:0:
84,340,214783,6,0,P|116:292|100:196,1,150.000005722046,6|8,0:0|0:0,0:0:0:0:
40,144,215143,5,8,0:0:0:0:
12,68,215263,1,12,0:0:0:0:
87,40,215383,1,8,0:0:0:0:
114,114,215503,2,0,P|164:128|216:108,1,100,6|0,0:0|0:0,0:0:0:0:
396,48,215743,5,14,0:0:0:0:
366,67,215803,1,0,0:0:0:0:
344,93,215863,1,8,0:0:0:0:
328,125,215923,1,0,0:0:0:0:
322,159,215983,1,8,0:0:0:0:
325,194,216043,1,8,0:0:0:0:
337,226,216103,1,8,0:0:0:0:
357,255,216163,1,8,0:0:0:0:
384,277,216223,5,6,0:0:0:0:
417,287,216283,1,2,0:0:0:0:
451,280,216343,1,8,0:0:0:0:
478,258,216403,1,0,0:0:0:0:
491,226,216463,1,8,0:0:0:0:
488,191,216523,1,8,0:0:0:0:
470,162,216583,1,8,0:0:0:0:
440,145,216643,1,8,0:0:0:0:
405,143,216703,5,12,0:0:0:0:
377,164,216763,1,0,0:0:0:0:
344,175,216823,1,8,0:0:0:0:
309,177,216883,1,0,0:0:0:0:
275,169,216943,1,12,0:0:0:0:
243,153,217003,1,8,0:0:0:0:
209,145,217063,1,8,0:0:0:0:
174,149,217123,1,8,0:0:0:0:
142,161,217183,5,12,0:0:0:0:
111,178,217243,1,8,0:0:0:0:
77,178,217303,1,8,0:0:0:0:
46,162,217363,1,8,0:0:0:0:
27,133,217423,1,12,0:0:0:0:
24,99,217483,1,8,0:0:0:0:
37,67,217543,1,8,0:0:0:0:
65,46,217603,1,8,0:0:0:0:
99,40,217663,5,14,0:0:0:0:
107,74,217723,1,0,0:0:0:0:
112,109,217783,1,8,0:0:0:0:
111,144,217843,1,0,0:0:0:0:
107,179,217903,1,8,0:0:0:0:
102,213,217963,1,8,0:0:0:0:
102,248,218023,1,8,0:0:0:0:
106,283,218083,1,8,0:0:0:0:
114,317,218143,5,14,0:0:0:0:
142,296,218203,1,0,0:0:0:0:
175,285,218263,1,8,0:0:0:0:
210,283,218323,1,0,0:0:0:0:
244,291,218383,1,8,0:0:0:0:
277,298,218443,1,8,0:0:0:0:
312,297,218503,1,8,0:0:0:0:
345,285,218563,1,8,0:0:0:0:
374,265,218623,5,14,0:0:0:0:
344,246,218683,1,0,0:0:0:0:
309,245,218743,1,8,0:0:0:0:
279,261,218803,1,0,0:0:0:0:
260,290,218863,1,8,0:0:0:0:
258,325,218923,1,8,0:0:0:0:
273,356,218983,1,8,0:0:0:0:
302,375,219043,1,8,0:0:0:0:
336,378,219103,5,6,0:0:0:0:
369,369,219163,1,0,0:0:0:0:
399,351,219223,1,8,0:0:0:0:
422,325,219283,1,0,0:0:0:0:
436,293,219343,1,12,0:0:0:0:
439,258,219403,1,8,0:0:0:0:
432,224,219463,1,8,0:0:0:0:
414,194,219523,1,8,0:0:0:0:
388,171,219583,5,14,0:0:0:0:
358,189,219643,1,0,0:0:0:0:
324,196,219703,1,8,0:0:0:0:
289,192,219763,1,0,0:0:0:0:
258,177,219823,1,8,0:0:0:0:
226,161,219883,1,8,0:0:0:0:
192,157,219943,1,8,0:0:0:0:
158,165,220003,1,8,0:0:0:0:
128,183,220063,5,6,0:0:0:0:
157,200,220123,1,2,0:0:0:0:
191,196,220183,1,0,0:0:0:0:
214,171,220243,1,8,0:0:0:0:
216,136,220303,1,12,0:0:0:0:
217,101,220363,1,0,0:0:0:0:
241,76,220423,1,8,0:0:0:0:
275,72,220483,1,8,0:0:0:0:
304,89,220543,6,0,P|272:136|308:232,1,150,6|0,0:0|0:0,0:0:0:0:
360,236,220783,5,12,0:0:0:0:
327,199,220843,1,8,0:0:0:0:
279,187,220903,1,8,0:0:0:0:
232,203,220963,1,8,0:0:0:0:
201,241,221023,1,12,0:0:0:0:
170,279,221083,1,8,0:0:0:0:
123,295,221143,1,8,0:0:0:0:
75,283,221203,1,8,0:0:0:0:
42,246,221263,5,12,0:0:0:0:
66,249,221323,1,0,0:0:0:0:
87,263,221383,1,0,0:0:0:0:
99,284,221443,1,0,0:0:0:0:
100,309,221503,5,12,0:0:0:0:
133,272,221563,1,0,0:0:0:0:
146,224,221623,1,8,0:0:0:0:
136,175,221683,1,0,0:0:0:0:
106,136,221743,1,12,0:0:0:0:
93,88,221803,1,0,0:0:0:0:
120,48,221863,1,8,0:0:0:0:
168,40,221923,1,0,0:0:0:0:
206,70,221983,5,12,0:0:0:0:
190,89,222043,1,0,0:0:0:0:
169,103,222103,1,0,0:0:0:0:
146,110,222163,1,0,0:0:0:0:
121,111,222223,5,12,0:0:0:0:
144,67,222283,1,8,0:0:0:0:
188,45,222343,1,8,0:0:0:0:
237,52,222403,1,8,0:0:0:0:
273,86,222463,6,0,P|277:131|252:172,1,87.5,4|0,0:0|0:0,0:0:0:0:
180,172,222943,5,2,0:0:0:0:
182,181,223003,1,0,0:0:0:0:
184,191,223063,1,8,0:0:0:0:
186,201,223123,1,0,0:0:0:0:
332,172,223423,5,6,0:0:0:0:
329,181,223483,1,0,0:0:0:0:
327,191,223543,1,8,0:0:0:0:
325,201,223603,1,0,0:0:0:0:
152,152,223903,5,2,0:0:0:0:
155,166,223963,1,0,0:0:0:0:
158,181,224023,1,8,0:0:0:0:
161,196,224083,1,0,0:0:0:0:
360,152,224383,5,2,0:0:0:0:
357,166,224443,1,0,0:0:0:0:
354,181,224503,1,8,0:0:0:0:
351,196,224563,1,0,0:0:0:0:
120,128,224863,5,2,0:0:0:0:
125,149,224923,1,0,0:0:0:0:
129,171,224983,1,8,0:0:0:0:
134,194,225043,1,0,0:0:0:0:
392,128,225343,5,6,0:0:0:0:
387,149,225403,1,0,0:0:0:0:
383,171,225463,1,8,0:0:0:0:
378,194,225523,1,0,0:0:0:0:
80,100,225823,5,2,0:0:0:0:
87,131,225883,1,0,0:0:0:0:
93,164,225943,1,8,0:0:0:0:
101,199,226003,1,0,0:0:0:0:
432,100,226303,5,2,0:0:0:0:
425,131,226363,1,0,0:0:0:0:
419,164,226423,1,8,0:0:0:0:
411,199,226483,1,0,0:0:0:0:
32,56,226783,5,2,0:0:0:0:
42,101,226843,1,0,0:0:0:0:
50,149,226903,1,8,0:0:0:0:
62,199,226963,1,0,0:0:0:0:
480,56,227263,5,6,0:0:0:0:
470,101,227323,1,0,0:0:0:0:
462,149,227383,1,8,0:0:0:0:
450,199,227443,1,0,0:0:0:0:
252,36,227743,5,2,0:0:0:0:
252,101,227803,1,0,0:0:0:0:
252,166,227863,1,8,0:0:0:0:
252,231,227923,1,0,0:0:0:0:
29,304,228223,5,6,0:0:0:0:
68,334,228283,1,0,0:0:0:0:
116,347,228343,1,8,0:0:0:0:
165,342,228403,1,8,0:0:0:0:
209,318,228463,1,8,0:0:0:0:
252,294,228523,1,0,0:0:0:0:
302,289,228583,1,8,0:0:0:0:
349,302,228643,1,0,0:0:0:0:
389,332,228703,5,6,0:0:0:0:
436,321,228763,1,0,0:0:0:0:
466,282,228823,1,0,0:0:0:0:
462,233,228883,1,0,0:0:0:0:
427,199,228943,5,6,0:0:0:0:
377,199,229003,1,0,0:0:0:0:
339,169,229063,1,0,0:0:0:0:
331,120,229123,1,0,0:0:0:0:
357,78,229183,5,12,0:0:0:0:
371,97,229243,1,0,0:0:0:0:
377,122,229303,1,8,0:0:0:0:
372,146,229363,1,0,0:0:0:0:
358,166,229423,1,8,0:0:0:0:
337,179,229483,1,8,0:0:0:0:
313,182,229543,1,8,0:0:0:0:
289,175,229603,1,8,0:0:0:0:
269,160,229663,5,6,0:0:0:0:
238,121,229723,1,0,0:0:0:0:
191,105,229783,1,0,0:0:0:0:
144,117,229843,1,0,0:0:0:0:
111,154,229903,5,6,0:0:0:0:
141,194,229963,1,0,0:0:0:0:
153,242,230023,1,0,0:0:0:0:
145,291,230083,1,0,0:0:0:0:
119,333,230143,6,0,P|140:293|178:291,1,87.5,12|0,0:0|0:0,0:0:0:0:
180,212,230623,5,2,0:0:0:0:
182,202,230683,1,0,0:0:0:0:
184,192,230743,1,8,0:0:0:0:
186,182,230803,1,0,0:0:0:0:
332,212,231103,5,6,0:0:0:0:
329,202,231163,1,0,0:0:0:0:
327,192,231223,1,8,0:0:0:0:
325,182,231283,1,0,0:0:0:0:
152,232,231583,5,2,0:0:0:0:
155,218,231643,1,0,0:0:0:0:
158,203,231703,1,8,0:0:0:0:
161,188,231763,1,0,0:0:0:0:
360,232,232063,5,2,0:0:0:0:
357,218,232123,1,0,0:0:0:0:
354,203,232183,1,8,0:0:0:0:
351,188,232243,1,0,0:0:0:0:
120,256,232543,5,2,0:0:0:0:
125,235,232603,1,0,0:0:0:0:
129,213,232663,1,8,0:0:0:0:
134,190,232723,1,0,0:0:0:0:
392,256,233023,5,6,0:0:0:0:
387,235,233083,1,0,0:0:0:0:
383,213,233143,1,8,0:0:0:0:
378,190,233203,1,0,0:0:0:0:
80,284,233503,5,2,0:0:0:0:
87,253,233563,1,0,0:0:0:0:
93,220,233623,1,8,0:0:0:0:
101,185,233683,1,0,0:0:0:0:
432,284,233983,5,2,0:0:0:0:
425,253,234043,1,0,0:0:0:0:
419,220,234103,1,8,0:0:0:0:
411,185,234163,1,0,0:0:0:0:
32,328,234463,5,2,0:0:0:0:
42,283,234523,1,0,0:0:0:0:
50,235,234583,1,8,0:0:0:0:
62,185,234643,1,0,0:0:0:0:
480,328,234943,5,6,0:0:0:0:
470,283,235003,1,0,0:0:0:0:
462,235,235063,1,8,0:0:0:0:
450,185,235123,1,0,0:0:0:0:
252,348,235423,5,2,0:0:0:0:
252,283,235483,1,0,0:0:0:0:
252,218,235543,1,8,0:0:0:0:
252,153,235603,1,0,0:0:0:0:
40,189,235903,5,8,0:0:0:0:
61,215,235963,1,8,0:0:0:0:
95,215,236023,1,8,0:0:0:0:
117,190,236083,1,8,0:0:0:0:
110,156,236143,5,8,0:0:0:0:
104,121,236203,1,8,0:0:0:0:
113,88,236263,1,8,0:0:0:0:
134,60,236323,1,8,0:0:0:0:
164,43,236383,1,8,0:0:0:0:
199,40,236443,1,0,0:0:0:0:
232,50,236503,1,8,0:0:0:0:
258,73,236563,1,0,0:0:0:0:
273,104,236623,5,12,0:0:0:0:
267,138,236683,1,0,0:0:0:0:
262,173,236743,1,12,0:0:0:0:
257,207,236803,1,0,0:0:0:0:
251,242,236863,5,0,0:0:0:0:
237,262,236923,1,0,0:0:0:0:
230,286,236983,1,0,0:0:0:0:
231,311,237043,1,0,0:0:0:0:
241,334,237103,1,6,0:0:0:0:
257,353,237163,1,0,0:0:0:0:
279,365,237223,1,0,0:0:0:0:
304,369,237283,1,0,0:0:0:0:
328,365,237343,1,12,0:0:0:0:
288,32,237583,5,6,0:0:0:0:
188,124,237703,1,6,0:0:0:0:
264,20,237823,6,0,L|348:32,1,75.0000028610231,6|0,0:0|0:0,0:0:0:0:
396,92,238063,2,0,L|480:80,1,75.0000028610231,12|0,0:0|0:0,0:0:0:0:
416,168,238303,6,0,P|400:208|408:248,1,75.0000028610231,4|0,0:0|0:0,0:0:0:0:
476,280,238543,2,0,P|492:320|484:360,1,75.0000028610231,12|0,0:0|0:0,0:0:0:0:
412,327,238783,5,14,0:0:0:0:
412,327,238903,1,0,0:0:0:0:
328,339,239023,1,8,0:0:0:0:
328,339,239143,1,0,0:0:0:0:
357,250,239263,5,12,0:0:0:0:
357,250,239383,1,12,0:0:0:0:
273,262,239503,1,12,0:0:0:0:
273,262,239623,1,0,0:0:0:0:
200,180,239743,6,0,L|188:264,1,75.0000028610231,14|0,0:0|0:0,0:0:0:0:
112,276,239983,2,0,L|124:360,1,75.0000028610231,12|0,0:0|0:0,0:0:0:0:
32,240,240223,6,0,P|52:200|48:152,1,75.0000028610231,14|0,0:0|0:0,0:0:0:0:
24,92,240463,2,0,P|26:54|44:22,1,75.0000028610231,12|0,0:0|0:0,0:0:0:0:
112,80,240703,5,14,0:0:0:0:
112,80,240823,1,0,0:0:0:0:
204,48,240943,1,12,0:0:0:0:
204,48,241063,1,0,0:0:0:0:
304,76,241183,5,12,0:0:0:0:
304,76,241303,1,0,0:0:0:0:
396,44,241423,1,12,0:0:0:0:
396,44,241543,1,0,0:0:0:0:
472,104,241663,6,0,P|460:144|468:188,1,75.0000028610231,14|0,0:0|0:0,0:0:0:0:
416,244,241903,2,0,P|428:284|420:328,1,75.0000028610231,12|0,0:0|0:0,0:0:0:0:
332,280,242143,6,0,L|320:204,1,75.0000028610231,12|0,0:0|0:0,0:0:0:0:
332,124,242383,2,0,L|320:48,1,75.0000028610231,12|0,0:0|0:0,0:0:0:0:
240,96,242623,5,14,0:0:0:0:
240,96,242743,1,0,0:0:0:0:
152,56,242863,1,12,0:0:0:0:
152,56,242983,1,0,0:0:0:0:
156,152,243103,5,12,0:0:0:0:
156,152,243223,1,12,0:0:0:0:
68,112,243343,1,12,0:0:0:0:
68,112,243463,1,0,0:0:0:0:
40,216,243583,5,14,0:0:0:0:
73,252,243643,1,0,0:0:0:0:
119,269,243703,1,8,0:0:0:0:
169,264,243763,1,0,0:0:0:0:
210,237,243823,1,8,0:0:0:0:
251,210,243883,1,0,0:0:0:0:
300,204,243943,1,8,0:0:0:0:
347,222,244003,1,0,0:0:0:0:
380,258,244063,5,14,0:0:0:0:
331,263,244123,1,0,0:0:0:0:
289,237,244183,1,0,0:0:0:0:
271,191,244243,1,0,0:0:0:0:
284,144,244303,5,6,0:0:0:0:
331,132,244363,1,0,0:0:0:0:
362,93,244423,1,0,0:0:0:0:
363,44,244483,1,0,0:0:0:0:
334,4,244543,5,12,0:0:0:0:
322,26,244603,1,0,0:0:0:0:
321,51,244663,1,8,0:0:0:0:
330,74,244723,1,0,0:0:0:0:
348,91,244783,1,8,0:0:0:0:
371,100,244843,1,8,0:0:0:0:
396,98,244903,1,8,0:0:0:0:
418,87,244963,1,8,0:0:0:0:
434,67,245023,5,6,0:0:0:0:
471,98,245083,1,0,0:0:0:0:
481,146,245143,1,0,0:0:0:0:
461,191,245203,1,0,0:0:0:0:
418,214,245263,5,2,0:0:0:0:
388,253,245323,1,0,0:0:0:0:
388,302,245383,1,8,0:0:0:0:
418,341,245443,1,8,0:0:0:0:
466,354,245503,6,0,L|456:272,1,75.0000028610231,6|0,0:0|0:0,0:0:0:0:
380,240,245743,2,0,L|390:158,1,75.0000028610231,12|0,0:0|0:0,0:0:0:0:
424,68,245983,6,0,P|376:84|344:72,1,75.0000028610231,12|0,0:0|0:0,0:0:0:0:
272,44,246223,2,0,P|224:28|192:40,1,75.0000028610231,12|0,0:0|0:0,0:0:0:0:
136,84,246463,5,14,0:0:0:0:
136,84,246583,1,0,0:0:0:0:
120,168,246703,1,12,0:0:0:0:
120,168,246823,1,0,0:0:0:0:
212,168,246943,5,12,0:0:0:0:
212,168,247063,1,0,0:0:0:0:
196,252,247183,1,12,0:0:0:0:
196,252,247303,1,0,0:0:0:0:
116,296,247423,6,0,P|140:328|180:343,1,75.0000028610231,14|0,0:0|0:0,0:0:0:0:
260,352,247663,2,0,P|284:320|328:312,1,75.0000028610231,12|0,0:0|0:0,0:0:0:0:
416,352,247903,6,0,L|392:264,1,75.0000028610231,14|0,0:0|0:0,0:0:0:0:
448,204,248143,2,0,L|472:116,1,75.0000028610231,12|0,0:0|0:0,0:0:0:0:
408,48,248383,5,14,0:0:0:0:
408,48,248503,1,0,0:0:0:0:
320,96,248623,1,12,0:0:0:0:
320,96,248743,1,0,0:0:0:0:
296,8,248863,5,12,0:0:0:0:
296,8,248983,1,0,0:0:0:0:
208,56,249103,1,12,0:0:0:0:
208,56,249223,1,0,0:0:0:0:
112,32,249343,6,0,L|120:120,1,75.0000028610231,14|0,0:0|0:0,0:0:0:0:
48,164,249583,2,0,L|56:252,1,75.0000028610231,12|0,0:0|0:0,0:0:0:0:
36,340,249823,6,0,P|68:308|108:308,1,75.0000028610231,14|0,0:0|0:0,0:0:0:0:
176,328,250063,2,0,P|212:320|235:292,1,75.0000028610231,12|0,0:0|0:0,0:0:0:0:
324,312,250303,5,14,0:0:0:0:
324,312,250423,1,0,0:0:0:0:
428,336,250543,1,12,0:0:0:0:
428,336,250663,1,0,0:0:0:0:
400,240,250783,5,12,0:0:0:0:
400,240,250903,1,12,0:0:0:0:
504,264,251023,1,12,0:0:0:0:
504,264,251143,1,0,0:0:0:0:
456,140,251263,5,14,0:0:0:0:
442,92,251323,1,0,0:0:0:0:
403,63,251383,1,8,0:0:0:0:
354,65,251443,1,0,0:0:0:0:
317,97,251503,1,8,0:0:0:0:
279,128,251563,1,8,0:0:0:0:
230,130,251623,1,8,0:0:0:0:
191,101,251683,1,8,0:0:0:0:
178,54,251743,5,6,0:0:0:0:
218,81,251803,1,0,0:0:0:0:
239,126,251863,1,0,0:0:0:0:
232,175,251923,1,0,0:0:0:0:
200,213,251983,5,6,0:0:0:0:
240,240,252043,1,0,0:0:0:0:
261,285,252103,1,0,0:0:0:0:
254,334,252163,1,0,0:0:0:0:
222,372,252223,5,14,0:0:0:0:
211,349,252283,1,0,0:0:0:0:
210,324,252343,1,8,0:0:0:0:
220,301,252403,1,0,0:0:0:0:
237,284,252463,1,8,0:0:0:0:
261,275,252523,1,8,0:0:0:0:
285,275,252583,1,8,0:0:0:0:
308,286,252643,1,8,0:0:0:0:
324,305,252703,5,6,0:0:0:0:
372,299,252763,1,0,0:0:0:0:
406,263,252823,1,0,0:0:0:0:
407,214,252883,1,0,0:0:0:0:
377,176,252943,5,6,0:0:0:0:
327,176,253003,1,0,0:0:0:0:
290,144,253063,1,0,0:0:0:0:
282,95,253123,1,0,0:0:0:0:
308,53,253183,1,14,0:0:0:0:
140,72,253423,6,0,L|149:164,1,75,2|2,0:0|0:0,0:0:0:0:
126,177,253663,2,0,L|117:85,1,75,2|2,0:0|0:0,0:0:0:0:
42,63,253903,5,0,0:0:0:0:
43,81,253963,1,0,0:0:0:0:
44,100,254023,1,0,0:0:0:0:
45,119,254083,1,0,0:0:0:0:
46,137,254143,1,0,0:0:0:0:
63,311,254383,5,0,0:0:0:0:
132,266,254503,1,0,0:0:0:0:
60,320,254623,1,0,0:0:0:0:
76,224,254743,1,0,0:0:0:0:
56,332,254863,1,0,0:0:0:0:
8,243,254983,1,0,0:0:0:0:
184,328,255103,6,0,P|224:300|292:312,1,112.500004291535
324,360,255343,5,14,0:0:0:0:
288,325,255403,1,8,0:0:0:0:
273,278,255463,1,8,0:0:0:0:
280,229,255523,1,8,0:0:0:0:
309,189,255583,1,12,0:0:0:0:
337,148,255643,1,8,0:0:0:0:
345,99,255703,1,8,0:0:0:0:
329,52,255763,1,8,0:0:0:0:
294,18,255823,5,12,0:0:0:0:
290,42,255883,1,0,0:0:0:0:
297,66,255943,1,0,0:0:0:0:
313,84,256003,1,0,0:0:0:0:
336,94,256063,5,14,0:0:0:0:
383,105,256123,1,8,0:0:0:0:
413,144,256183,1,8,0:0:0:0:
412,193,256243,1,8,0:0:0:0:
381,231,256303,1,12,0:0:0:0:
349,268,256363,1,8,0:0:0:0:
348,317,256423,1,8,0:0:0:0:
378,356,256483,1,8,0:0:0:0:
426,368,256543,5,14,0:0:0:0:
418,344,256603,1,0,0:0:0:0:
402,325,256663,1,0,0:0:0:0:
379,314,256723,1,0,0:0:0:0:
355,312,256783,5,14,0:0:0:0:
314,340,256843,1,8,0:0:0:0:
265,350,256903,1,8,0:0:0:0:
217,338,256963,1,8,0:0:0:0:
178,308,257023,5,12,0:0:0:0:
136,112,257143,1,8,0:0:0:0:
159,292,257263,5,8,0:0:0:0:
151,92,257383,1,8,0:0:0:0:
143,274,257503,1,8,0:0:0:0:
170,75,257623,1,8,0:0:0:0:
130,253,257743,1,8,0:0:0:0:
192,62,257863,1,8,0:0:0:0:
412,52,257983,5,12,0:0:0:0:
309,223,258103,1,8,0:0:0:0:
415,76,258223,1,8,0:0:0:0:
284,227,258343,1,8,0:0:0:0:
414,100,258463,1,8,0:0:0:0:
259,226,258583,1,8,0:0:0:0:
409,124,258703,1,8,0:0:0:0:
234,221,258823,1,8,0:0:0:0:
80,64,258943,5,14,0:0:0:0:
72,256,259183,5,14,0:0:0:0:
79,289,259243,1,8,0:0:0:0:
100,317,259303,1,8,0:0:0:0:
130,335,259363,1,8,0:0:0:0:
165,338,259423,5,8,0:0:0:0:
195,320,259483,1,8,0:0:0:0:
229,314,259543,1,8,0:0:0:0:
263,319,259603,1,8,0:0:0:0:
294,335,259663,5,12,0:0:0:0:
287,328,259723,1,0,0:0:0:0:
282,319,259783,1,0,0:0:0:0:
278,310,259843,1,0,0:0:0:0:
276,300,259903,5,14,0:0:0:0:
316,271,259963,1,0,0:0:0:0:
336,226,260023,1,0,0:0:0:0:
331,177,260083,1,0,0:0:0:0:
301,138,260143,1,0,0:0:0:0:
298,89,260203,1,0,0:0:0:0:
327,50,260263,1,0,0:0:0:0:
375,40,260323,1,0,0:0:0:0:
418,64,260383,5,14,0:0:0:0:
388,104,260443,1,0,0:0:0:0:
345,127,260503,1,0,0:0:0:0:
295,131,260563,1,0,0:0:0:0:
249,113,260623,1,14,0:0:0:0:
203,93,260683,1,0,0:0:0:0:
154,93,260743,1,0,0:0:0:0:
108,115,260803,1,0,0:0:0:0:
76,153,260863,5,12,0:0:0:0:
176,176,260983,1,8,0:0:0:0:
248,248,261103,2,8,L|224:348,1,100
68,144,261343,5,8,0:0:0:0:
168,167,261463,1,8,0:0:0:0:
240,239,261583,2,8,L|216:339,1,100
244,212,261823,5,12,0:0:0:0:
144,189,261943,1,8,0:0:0:0:
72,117,262063,2,8,L|96:17,1,100
228,220,262303,5,8,0:0:0:0:
128,197,262423,1,8,0:0:0:0:
56,125,262543,2,8,L|80:25,1,100
253,126,262783,5,12,0:0:0:0:
303,243,262903,1,8,0:0:0:0:
188,294,263023,1,8,0:0:0:0:
136,180,263143,1,8,0:0:0:0:
408,208,263263,2,0,P|416:264|392:304,1,100,8|8,0:0|0:0,0:0:0:0:
188,294,263503,1,0,0:0:0:0:
88,148,263623,1,8,0:0:0:0:
288,92,263743,5,12,0:0:0:0:
328,200,263863,1,8,0:0:0:0:
204,144,263983,1,8,0:0:0:0:
380,120,264103,1,8,0:0:0:0:
376,304,264223,6,8,P|328:276|268:284,1,100,10|8,0:0|0:0,0:0:0:0:
136,304,264463,2,8,P|86:303|44:277,1,100,10|8,0:0|0:0,0:0:0:0:
80,64,264703,5,0,0:0:0:0:
115,99,264763,1,8,0:0:0:0:
161,115,264823,1,0,0:0:0:0:
211,111,264883,1,8,0:0:0:0:
253,86,264943,1,0,0:0:0:0:
295,60,265003,1,8,0:0:0:0:
345,56,265063,1,0,0:0:0:0:
391,73,265123,1,8,0:0:0:0:
426,108,265183,5,0,0:0:0:0:
431,157,265243,1,8,0:0:0:0:
415,204,265303,1,0,0:0:0:0:
380,238,265363,1,8,0:0:0:0:
333,255,265423,1,0,0:0:0:0:
284,249,265483,1,8,0:0:0:0:
242,222,265543,1,0,0:0:0:0:
216,180,265603,1,8,0:0:0:0:
211,130,265663,5,8,0:0:0:0:
230,145,265723,1,8,0:0:0:0:
242,167,265783,1,8,0:0:0:0:
243,191,265843,1,8,0:0:0:0:
235,215,265903,5,8,0:0:0:0:
254,230,265963,1,8,0:0:0:0:
266,252,266023,1,8,0:0:0:0:
267,276,266083,1,8,0:0:0:0:
259,300,266143,5,12,0:0:0:0:
252,307,266203,1,8,0:0:0:0:
245,314,266263,1,8,0:0:0:0:
236,319,266323,1,8,0:0:0:0:
227,323,266383,6,0,P|168:312|136:256,1,112.500004291535,12|0,0:0|0:0,0:0:0:0:
136,164,266623,5,8,0:0:0:0:
40,208,266743,1,8,0:0:0:0:
148,144,266863,1,8,0:0:0:0:
42,152,266983,1,8,0:0:0:0:
160,124,267103,1,8,0:0:0:0:
57,95,267223,1,8,0:0:0:0:
172,104,267343,1,8,0:0:0:0:
85,41,267463,1,8,0:0:0:0:
278,135,267583,5,10,0:0:0:0:
414,72,267703,1,8,0:0:0:0:
260,163,267823,5,10,0:0:0:0:
411,152,267943,1,8,0:0:0:0:
243,191,268063,5,10,0:0:0:0:
390,233,268183,1,8,0:0:0:0:
226,220,268303,5,10,0:0:0:0:
350,309,268423,1,8,0:0:0:0:
78,353,268543,5,10,0:0:0:0:
44,316,268603,1,0,0:0:0:0:
37,268,268663,1,8,0:0:0:0:
57,223,268723,1,0,0:0:0:0:
99,197,268783,1,8,0:0:0:0:
140,171,268843,1,0,0:0:0:0:
161,126,268903,1,8,0:0:0:0:
153,77,268963,1,0,0:0:0:0:
120,41,269023,5,10,0:0:0:0:
108,88,269083,1,0,0:0:0:0:
133,129,269143,1,8,0:0:0:0:
181,139,269203,1,0,0:0:0:0:
221,111,269263,1,8,0:0:0:0:
260,83,269323,1,0,0:0:0:0:
308,93,269383,1,8,0:0:0:0:
334,134,269443,1,0,0:0:0:0:
322,181,269503,5,10,0:0:0:0:
286,215,269563,1,0,0:0:0:0:
272,262,269623,1,8,0:0:0:0:
284,311,269683,1,0,0:0:0:0:
318,347,269743,1,10,0:0:0:0:
365,361,269803,1,0,0:0:0:0:
413,351,269863,1,8,0:0:0:0:
450,317,269923,1,0,0:0:0:0:
465,271,269983,5,10,0:0:0:0:
455,222,270043,1,0,0:0:0:0:
420,187,270103,1,8,0:0:0:0:
372,175,270163,1,0,0:0:0:0:
325,190,270223,1,10,0:0:0:0:
277,204,270283,1,0,0:0:0:0:
230,192,270343,1,8,0:0:0:0:
195,157,270403,1,0,0:0:0:0:
184,109,270463,6,0,P|179:89|162:64,7,50,10|0|8|0|8|0|8|0,0:0|0:0|0:0|0:0|0:0|0:0|0:0|0:0,0:0:0:0:
46,91,270943,5,10,0:0:0:0:
49,125,271003,1,0,0:0:0:0:
53,160,271063,1,8,0:0:0:0:
56,195,271123,1,0,0:0:0:0:
98,179,271183,5,10,0:0:0:0:
95,213,271243,1,0,0:0:0:0:
91,248,271303,1,8,0:0:0:0:
88,283,271363,1,0,0:0:0:0:
131,276,271423,5,10,0:0:0:0:
164,240,271483,1,0,0:0:0:0:
212,227,271543,1,8,0:0:0:0:
259,241,271603,1,0,0:0:0:0:
292,278,271663,1,10,0:0:0:0:
324,314,271723,1,0,0:0:0:0:
372,328,271783,1,8,0:0:0:0:
419,316,271843,1,0,0:0:0:0:
453,280,271903,5,10,0:0:0:0:
414,251,271963,1,0,0:0:0:0:
414,203,272023,1,8,0:0:0:0:
454,175,272083,1,0,0:0:0:0:
499,191,272143,6,0,P|451:217|352:196,1,150
292,278,272383,5,0,0:0:0:0:
251,249,272443,1,8,0:0:0:0:
202,241,272503,1,0,0:0:0:0:
154,256,272563,1,8,0:0:0:0:
118,290,272623,1,0,0:0:0:0:
70,302,272683,1,8,0:0:0:0:
26,282,272743,1,0,0:0:0:0:
5,238,272803,1,8,0:0:0:0:
17,190,272863,5,0,0:0:0:0:
48,152,272923,1,8,0:0:0:0:
94,134,272983,1,0,0:0:0:0:
143,139,273043,1,8,0:0:0:0:
184,168,273103,1,0,0:0:0:0:
224,196,273163,1,8,0:0:0:0:
273,201,273223,1,0,0:0:0:0:
319,183,273283,1,8,0:0:0:0:
351,145,273343,5,8,0:0:0:0:
326,150,273403,1,8,0:0:0:0:
308,166,273463,1,8,0:0:0:0:
299,190,273523,1,8,0:0:0:0:
302,214,273583,5,8,0:0:0:0:
282,229,273643,1,8,0:0:0:0:
273,253,273703,1,8,0:0:0:0:
276,277,273763,1,8,0:0:0:0:
291,298,273823,5,12,0:0:0:0:
279,319,273883,1,8,0:0:0:0:
281,344,273943,1,8,0:0:0:0:
295,365,274003,1,8,0:0:0:0:
317,378,274063,5,12,0:0:0:0:
336,362,274123,1,0,0:0:0:0:
360,354,274183,1,0,0:0:0:0:
385,354,274243,1,0,0:0:0:0:
408,363,274303,5,8,0:0:0:0:
460,250,274423,1,8,0:0:0:0:
396,350,274543,1,8,0:0:0:0:
405,225,274663,1,8,0:0:0:0:
380,338,274783,1,8,0:0:0:0:
345,217,274903,1,8,0:0:0:0:
364,326,275023,1,8,0:0:0:0:
288,235,275143,1,8,0:0:0:0:
208,148,275263,5,10,0:0:0:0:
287,317,275383,1,8,0:0:0:0:
190,167,275503,5,10,0:0:0:0:
204,355,275623,1,8,0:0:0:0:
166,185,275743,5,10,0:0:0:0:
114,367,275863,1,8,0:0:0:0:
136,203,275983,5,10,0:0:0:0:
24,356,276103,1,8,0:0:0:0:
66,115,276223,5,10,0:0:0:0:
105,84,276283,1,0,0:0:0:0:
153,71,276343,1,8,0:0:0:0:
202,75,276403,1,0,0:0:0:0:
247,97,276463,1,8,0:0:0:0:
291,119,276523,1,0,0:0:0:0:
340,123,276583,1,8,0:0:0:0:
388,110,276643,1,0,0:0:0:0:
428,79,276703,5,10,0:0:0:0:
381,65,276763,1,0,0:0:0:0:
337,87,276823,1,8,0:0:0:0:
320,132,276883,1,0,0:0:0:0:
339,177,276943,1,8,0:0:0:0:
357,222,277003,1,0,0:0:0:0:
340,267,277063,1,8,0:0:0:0:
296,289,277123,1,0,0:0:0:0:
250,275,277183,5,10,0:0:0:0:
231,229,277243,1,0,0:0:0:0:
190,201,277303,1,8,0:0:0:0:
141,201,277363,1,0,0:0:0:0:
100,229,277423,1,10,0:0:0:0:
82,274,277483,1,0,0:0:0:0:
92,322,277543,1,8,0:0:0:0:
127,357,277603,1,0,0:0:0:0:
176,365,277663,5,10,0:0:0:0:
221,347,277723,1,0,0:0:0:0:
251,308,277783,1,8,0:0:0:0:
257,259,277843,1,0,0:0:0:0:
236,214,277903,1,10,0:0:0:0:
215,169,277963,1,0,0:0:0:0:
220,120,278023,1,8,0:0:0:0:
250,80,278083,1,0,0:0:0:0:
296,62,278143,1,10,0:0:0:0:
155,326,278383,5,8,0:0:0:0:
133,313,278443,1,0,0:0:0:0:
120,292,278503,1,0,0:0:0:0:
120,267,278563,1,0,0:0:0:0:
132,246,278623,1,8,0:0:0:0:
153,233,278683,1,0,0:0:0:0:
178,232,278743,1,0,0:0:0:0:
199,244,278803,1,0,0:0:0:0:
213,265,278863,1,8,0:0:0:0:
56,88,279103,5,8,0:0:0:0:
77,100,279163,1,0,0:0:0:0:
102,104,279223,1,0,0:0:0:0:
126,99,279283,1,0,0:0:0:0:
148,87,279343,5,8,0:0:0:0:
169,99,279403,1,0,0:0:0:0:
194,103,279463,1,0,0:0:0:0:
217,98,279523,1,0,0:0:0:0:
240,87,279583,5,12,0:0:0:0:
264,86,279643,1,0,0:0:0:0:
284,101,279703,1,0,0:0:0:0:
290,124,279763,1,0,0:0:0:0:
281,147,279823,5,12,0:0:0:0:
242,177,279883,1,0,0:0:0:0:
227,224,279943,1,0,0:0:0:0:
241,271,280003,1,0,0:0:0:0:
279,303,280063,6,8,L|296:216,1,75.0000028610231
408,212,280303,1,8,0:0:0:0:
393,285,280423,1,8,0:0:0:0:
268,308,280543,6,8,L|285:221,1,75.0000028610231
397,217,280783,1,8,0:0:0:0:
382,290,280903,1,8,0:0:0:0:
256,312,281023,6,10,L|273:225,1,75.0000028610231,10|8,0:0|0:0,0:0:0:0:
385,221,281263,1,8,0:0:0:0:
370,294,281383,1,10,0:0:0:0:
244,320,281503,6,8,L|261:233,1,75.0000028610231
373,229,281743,1,8,0:0:0:0:
358,302,281863,1,8,0:0:0:0:
160,160,281983,6,8,L|143:247,1,75.0000028610231,10|8,0:0|0:0,0:0:0:0:
31,251,282223,1,8,0:0:0:0:
45,177,282343,1,8,0:0:0:0:
171,155,282463,6,8,L|154:242,1,75.0000028610231
42,246,282703,1,8,0:0:0:0:
57,173,282823,1,8,0:0:0:0:
183,151,282943,6,8,L|166:238,1,75.0000028610231,10|8,0:0|0:0,0:0:0:0:
54,242,283183,1,8,0:0:0:0:
69,169,283303,1,10,0:0:0:0:
195,143,283423,6,8,L|178:230,1,75.0000028610231
66,234,283663,1,8,0:0:0:0:
81,161,283783,1,8,0:0:0:0:
204,136,283903,5,10,0:0:0:0:
308,84,284023,1,8,0:0:0:0:
192,152,284143,1,8,0:0:0:0:
308,158,284263,1,8,0:0:0:0:
184,168,284383,1,8,0:0:0:0:
281,231,284503,1,8,0:0:0:0:
176,184,284623,1,8,0:0:0:0:
228,287,284743,1,8,0:0:0:0:
72,228,284863,5,10,0:0:0:0:
56,68,284983,1,8,0:0:0:0:
64,248,285103,5,8,0:0:0:0:
130,101,285223,1,8,0:0:0:0:
234,57,285343,5,10,0:0:0:0:
250,217,285463,1,8,0:0:0:0:
242,37,285583,5,8,0:0:0:0:
176,184,285703,1,8,0:0:0:0:
324,292,285823,5,10,0:0:0:0:
308,132,285943,1,8,0:0:0:0:
316,312,286063,5,8,0:0:0:0:
382,165,286183,1,8,0:0:0:0:
460,120,286303,5,10,0:0:0:0:
476,280,286423,1,8,0:0:0:0:
468,100,286543,5,8,0:0:0:0:
402,247,286663,1,8,0:0:0:0:
212,336,286783,5,10,0:0:0:0:
32,324,286903,1,8,0:0:0:0:
240,340,287023,5,8,0:0:0:0:
109,215,287143,1,8,0:0:0:0:
196,76,287263,5,10,0:0:0:0:
376,88,287383,1,8,0:0:0:0:
168,72,287503,5,8,0:0:0:0:
299,197,287623,1,8,0:0:0:0:
96,204,287743,6,8,L|84:128,1,75.0000028610231,10|8,0:0|0:0,0:0:0:0:
216,184,287983,2,8,L|228:260,1,75.0000028610231
328,172,288223,2,8,L|316:96,1,75.0000028610231
448,152,288463,2,8,L|460:228,1,75.0000028610231
392,332,288703,5,10,0:0:0:0:
392,332,288823,1,10,0:0:0:0:
224,328,288943,1,8,0:0:0:0:
224,328,289063,1,8,0:0:0:0:
324,196,289183,5,8,0:0:0:0:
224,328,289303,1,8,0:0:0:0:
392,332,289423,1,8,0:0:0:0:
188,204,289543,1,8,0:0:0:0:
64,328,289663,6,8,L|144:344,1,75.0000028610231,10|8,0:0|0:0,0:0:0:0:
96,180,289903,2,8,L|16:164,1,75.0000028610231
268,176,290143,2,8,L|348:192,1,75.0000028610231
300,28,290383,2,8,L|220:12,1,75.0000028610231
88,44,290623,5,10,0:0:0:0:
88,44,290743,1,10,0:0:0:0:
256,100,290863,1,8,0:0:0:0:
256,100,290983,1,8,0:0:0:0:
152,208,291103,5,8,0:0:0:0:
256,100,291223,1,8,0:0:0:0:
88,44,291343,1,8,0:0:0:0:
268,200,291463,1,8,0:0:0:0:
44,160,291583,6,8,P|32:204|36:240,1,75.0000028610231,10|8,0:0|0:0,0:0:0:0:
156,284,291823,2,8,P|144:328|148:364,1,75.0000028610231
368,224,292063,2,8,P|380:180|376:144,1,75.0000028610231
256,100,292303,2,8,P|268:56|264:20,1,75.0000028610231
50,78,292543,5,10,0:0:0:0:
52,188,292663,1,8,0:0:0:0:
129,120,292783,1,8,0:0:0:0:
22,264,292903,1,8,0:0:0:0:
50,78,293023,5,10,0:0:0:0:
132,226,293143,1,8,0:0:0:0:
145,32,293263,1,8,0:0:0:0:
242,188,293383,1,8,0:0:0:0:
256,100,293503,6,8,L|340:116,1,75.0000028610231,10|8,0:0|0:0,0:0:0:0:
452,272,293743,2,8,L|368:256,1,75.0000028610231
168,192,293983,2,8,L|252:208,1,75.0000028610231,10|8,0:0|0:0,0:0:0:0:
364,364,294223,2,8,L|280:348,1,75.0000028610231
89,234,294463,5,10,0:0:0:0:
91,124,294583,1,8,0:0:0:0:
168,192,294703,1,8,0:0:0:0:
61,48,294823,1,8,0:0:0:0:
89,234,294943,5,10,0:0:0:0:
171,86,295063,1,8,0:0:0:0:
184,280,295183,1,8,0:0:0:0:
281,124,295303,1,8,0:0:0:0:
341,55,295423,5,8,0:0:0:0:
371,93,295483,1,0,0:0:0:0:
374,142,295543,1,0,0:0:0:0:
348,184,295603,1,0,0:0:0:0:
302,202,295663,1,8,0:0:0:0:
256,220,295723,1,0,0:0:0:0:
230,262,295783,1,0,0:0:0:0:
232,311,295843,1,0,0:0:0:0:
263,349,295903,5,8,0:0:0:0:
280,303,295963,1,0,0:0:0:0:
260,258,296023,1,0,0:0:0:0:
215,241,296083,1,0,0:0:0:0:
170,260,296143,5,8,0:0:0:0:
148,272,296203,1,0,0:0:0:0:
124,279,296263,1,0,0:0:0:0:
99,279,296323,1,0,0:0:0:0:
75,272,296383,6,0,B|59:216|59:216|67:176|67:176|56:100|56:100|84:144,1,225.000008583069,14|0,0:0|0:0,0:0:0:0:
140,72,296623,5,8,0:0:0:0:
169,52,296683,1,0,0:0:0:0:
202,43,296743,1,0,0:0:0:0:
237,45,296803,1,0,0:0:0:0:
270,58,296863,1,8,0:0:0:0:
302,70,296923,1,0,0:0:0:0:
337,72,296983,1,0,0:0:0:0:
370,63,297043,1,0,0:0:0:0:
400,44,297103,1,10,0:0:0:0:
434,189,297343,6,8,L|332:208,1,100,10|8,0:0|0:0,0:0:0:0:
203,87,297583,5,8,0:0:0:0:
301,69,297703,1,8,0:0:0:0:
444,200,297823,6,8,L|341:218,1,100,10|8,0:0|0:0,0:0:0:0:
192,80,298063,2,8,L|294:61,1,100,10|8,0:0|0:0,0:0:0:0:
456,208,298303,5,8,0:0:0:0:
456,296,298423,1,8,0:0:0:0:
456,208,298543,5,10,0:0:0:0:
456,296,298663,1,8,0:0:0:0:
456,120,298783,5,8,0:0:0:0:
456,208,298903,1,8,0:0:0:0:
456,296,299023,2,0,P|384:264|312:288,1,150,10|0,0:0|0:0,0:0:0:0:
240,360,299263,5,8,0:0:0:0:
273,323,299323,1,0,0:0:0:0:
288,276,299383,1,0,0:0:0:0:
281,227,299443,1,0,0:0:0:0:
253,186,299503,1,8,0:0:0:0:
225,145,299563,1,0,0:0:0:0:
217,96,299623,1,0,0:0:0:0:
232,48,299683,1,0,0:0:0:0:
266,12,299743,5,8,0:0:0:0:
271,60,299803,1,0,0:0:0:0:
244,100,299863,1,0,0:0:0:0:
196,112,299923,1,0,0:0:0:0:
153,90,299983,5,8,0:0:0:0:
130,79,300043,1,0,0:0:0:0:
105,78,300103,1,0,0:0:0:0:
82,85,300163,1,0,0:0:0:0:
62,100,300223,6,0,P|62:136|74:164,3,50,10|0|0|0,0:0|0:0|0:0|0:0,0:0:0:0:
76,256,300463,5,8,0:0:0:0:
112,221,300523,1,0,0:0:0:0:
159,207,300583,1,0,0:0:0:0:
208,215,300643,1,0,0:0:0:0:
248,244,300703,1,8,0:0:0:0:
288,272,300763,1,0,0:0:0:0:
337,281,300823,1,0,0:0:0:0:
384,266,300883,1,0,0:0:0:0:
420,232,300943,1,12,0:0:0:0:
360,305,301183,6,8,L|472:300,1,100
344,148,301423,1,8,0:0:0:0:
248,244,301543,1,8,0:0:0:0:
364,320,301663,6,8,L|475:314,1,100
347,162,301903,1,8,0:0:0:0:
251,258,302023,1,8,0:0:0:0:
160,121,302143,6,8,L|272:126,1,100
144,278,302383,1,8,0:0:0:0:
48,182,302503,1,8,0:0:0:0:
164,106,302623,6,8,L|276:111,1,100
147,264,302863,1,8,0:0:0:0:
51,168,302983,1,8,0:0:0:0:
216,48,303103,5,8,0:0:0:0:
260,27,303163,1,0,0:0:0:0:
308,39,303223,1,0,0:0:0:0:
339,77,303283,1,0,0:0:0:0:
341,126,303343,1,8,0:0:0:0:
342,175,303403,1,0,0:0:0:0:
374,212,303463,1,0,0:0:0:0:
422,224,303523,1,0,0:0:0:0:
466,204,303583,1,8,0:0:0:0:
477,156,303643,1,0,0:0:0:0:
459,110,303703,1,0,0:0:0:0:
417,84,303763,1,0,0:0:0:0:
368,88,303823,5,8,0:0:0:0:
349,103,303883,1,0,0:0:0:0:
325,111,303943,1,0,0:0:0:0:
300,110,304003,1,0,0:0:0:0:
277,99,304063,6,0,B|252:72|220:96|220:96|208:72|208:72|144:120|56:72,1,225.000008583069,14|0,0:0|0:0,0:0:0:0:
12,44,304303,5,8,0:0:0:0:
35,69,304363,1,0,0:0:0:0:
49,101,304423,1,0,0:0:0:0:
51,136,304483,1,0,0:0:0:0:
42,169,304543,1,8,0:0:0:0:
32,202,304603,1,0,0:0:0:0:
34,237,304663,1,0,0:0:0:0:
48,269,304723,1,0,0:0:0:0:
72,294,304783,1,10,0:0:0:0:
189,268,305023,6,8,P|236:240|292:248,1,100,10|8,0:0|0:0,0:0:0:0:
412,336,305263,5,8,0:0:0:0:
321,361,305383,1,8,0:0:0:0:
172,252,305503,6,8,P|219:224|275:232,1,100,10|8,0:0|0:0,0:0:0:0:
432,348,305743,2,8,P|385:376|329:368,1,100,10|8,0:0|0:0,0:0:0:0:
440,144,305983,5,8,0:0:0:0:
416,252,306103,1,8,0:0:0:0:
440,144,306223,5,10,0:0:0:0:
416,252,306343,1,8,0:0:0:0:
464,36,306463,5,8,0:0:0:0:
440,144,306583,1,8,0:0:0:0:
416,252,306703,2,0,P|344:280|272:248,1,150,10|0,0:0|0:0,0:0:0:0:
280,180,306943,5,8,0:0:0:0:
255,222,307003,1,0,0:0:0:0:
211,245,307063,1,0,0:0:0:0:
162,239,307123,1,0,0:0:0:0:
124,208,307183,1,8,0:0:0:0:
104,162,307243,1,0,0:0:0:0:
110,113,307303,1,0,0:0:0:0:
141,74,307363,1,0,0:0:0:0:
187,56,307423,5,8,0:0:0:0:
173,104,307483,1,0,0:0:0:0:
136,135,307543,1,0,0:0:0:0:
87,140,307603,1,0,0:0:0:0:
43,116,307663,5,8,0:0:0:0:
46,141,307723,1,0,0:0:0:0:
49,166,307783,1,0,0:0:0:0:
52,190,307843,1,0,0:0:0:0:
55,215,307903,6,0,P|71:247|67:275,3,50,10|0|0|0,0:0|0:0|0:0|0:0,0:0:0:0:
112,352,308143,5,8,0:0:0:0:
143,313,308203,1,0,0:0:0:0:
189,295,308263,1,0,0:0:0:0:
238,300,308323,1,0,0:0:0:0:
278,329,308383,1,8,0:0:0:0:
318,357,308443,1,0,0:0:0:0:
367,363,308503,1,0,0:0:0:0:
413,344,308563,1,0,0:0:0:0:
444,306,308623,1,12,0:0:0:0:
426,176,308863,6,8,L|316:184,1,100
196,120,309103,1,8,0:0:0:0:
320,28,309223,1,8,0:0:0:0:
436,192,309343,6,8,L|325:199,1,100
205,135,309583,1,8,0:0:0:0:
329,43,309703,1,8,0:0:0:0:
28,172,309823,6,8,L|138:164,1,100
258,228,310063,1,8,0:0:0:0:
134,320,310183,1,8,0:0:0:0:
18,156,310303,6,8,L|128:148,1,100
249,213,310543,1,8,0:0:0:0:
125,305,310663,1,8,0:0:0:0:
256,60,310783,5,14,0:0:0:0:
288,47,310843,1,0,0:0:0:0:
323,44,310903,1,0,0:0:0:0:
357,51,310963,1,0,0:0:0:0:
387,69,311023,1,0,0:0:0:0:
411,94,311083,1,0,0:0:0:0:
426,125,311143,1,0,0:0:0:0:
431,160,311203,1,0,0:0:0:0:
426,194,311263,5,10,0:0:0:0:
392,201,311323,1,0,0:0:0:0:
366,223,311383,1,0,0:0:0:0:
352,255,311443,1,0,0:0:0:0:
355,289,311503,1,0,0:0:0:0:
374,318,311563,1,0,0:0:0:0:
405,335,311623,1,0,0:0:0:0:
439,335,311683,1,0,0:0:0:0:
470,319,311743,6,0,P|474:292|464:264,3,50,6|0|0|0,0:0|0:0|0:0|0:0,0:0:0:0:
476,96,311983,5,2,0:0:0:0:
480,104,312043,1,0,0:0:0:0:
484,112,312103,2,0,L|480:172,1,50
340,32,312223,5,2,0:0:0:0:
336,40,312283,1,0,0:0:0:0:
332,48,312343,2,0,L|336:108,1,50
176,176,312463,5,2,0:0:0:0:
180,184,312523,1,0,0:0:0:0:
184,192,312583,2,0,L|180:252,1,50
40,112,312703,5,14,0:0:0:0:
58,141,312763,1,0,0:0:0:0:
66,175,312823,1,0,0:0:0:0:
63,210,312883,1,0,0:0:0:0:
49,242,312943,1,0,0:0:0:0:
36,274,313003,1,0,0:0:0:0:
41,308,313063,1,0,0:0:0:0:
64,334,313123,1,0,0:0:0:0:
97,345,313183,5,10,0:0:0:0:
124,323,313243,1,0,0:0:0:0:
157,313,313303,1,0,0:0:0:0:
192,315,313363,1,0,0:0:0:0:
224,330,313423,1,0,0:0:0:0:
255,344,313483,1,0,0:0:0:0:
290,346,313543,1,0,0:0:0:0:
323,336,313603,1,0,0:0:0:0:
350,314,313663,6,8,P|364:288|368:236,2,66.6666666666667,10|8|8,0:0|0:0|0:0,0:0:0:0:
296,124,313903,2,8,P|282:150|278:202,2,66.6666666666667,10|8|8,0:0|0:0|0:0,0:0:0:0:
452,48,314143,5,14,0:0:0:0:
400,87,314223,1,0,0:0:0:0:
395,151,314303,1,0,0:0:0:0:
441,197,314383,5,14,0:0:0:0:
486,243,314463,1,0,0:0:0:0:
481,307,314543,1,0,0:0:0:0:
430,346,314623,5,14,0:0:0:0:
406,320,314683,1,0,0:0:0:0:
375,303,314743,1,0,0:0:0:0:
341,298,314803,1,0,0:0:0:0:
307,305,314863,1,0,0:0:0:0:
272,311,314923,1,0,0:0:0:0:
238,306,314983,1,0,0:0:0:0:
207,289,315043,1,0,0:0:0:0:
184,264,315103,5,10,0:0:0:0:
216,253,315163,1,0,0:0:0:0:
249,263,315223,1,0,0:0:0:0:
271,290,315283,1,0,0:0:0:0:
272,325,315343,1,0,0:0:0:0:
254,354,315403,1,0,0:0:0:0:
223,367,315463,1,0,0:0:0:0:
189,361,315523,1,0,0:0:0:0:
165,336,315583,6,0,P|136:324|108:328,3,50,6|0|0|0,0:0|0:0|0:0|0:0,0:0:0:0:
36,240,315823,5,2,0:0:0:0:
48,244,315883,1,0,0:0:0:0:
60,248,315943,2,0,L|56:184,1,50
196,80,316063,5,2,0:0:0:0:
184,84,316123,1,0,0:0:0:0:
172,88,316183,2,0,L|176:24,1,50
288,240,316303,5,2,0:0:0:0:
300,244,316363,1,0,0:0:0:0:
312,248,316423,2,0,L|308:184,1,50
448,80,316543,5,14,0:0:0:0:
465,110,316603,1,0,0:0:0:0:
473,144,316663,1,0,0:0:0:0:
470,178,316723,1,0,0:0:0:0:
456,210,316783,1,0,0:0:0:0:
442,242,316843,1,0,0:0:0:0:
440,277,316903,1,0,0:0:0:0:
447,310,316963,1,0,0:0:0:0:
465,341,317023,5,10,0:0:0:0:
486,314,317083,1,0,0:0:0:0:
486,279,317143,1,0,0:0:0:0:
465,252,317203,1,0,0:0:0:0:
432,244,317263,1,0,0:0:0:0:
398,236,317323,1,0,0:0:0:0:
377,208,317383,1,0,0:0:0:0:
377,174,317443,1,0,0:0:0:0:
399,147,317503,6,0,P|400:112|384:88,3,50,14|0|0|0,0:0|0:0|0:0|0:0,0:0:0:0:
264,40,317743,2,0,P|263:75|279:99,3,50,14|0|0|0,0:0|0:0|0:0|0:0,0:0:0:0:
76,28,317983,5,10,0:0:0:0:
112,62,318043,1,8,0:0:0:0:
130,108,318103,1,8,0:0:0:0:
126,157,318163,1,8,0:0:0:0:
102,201,318223,1,8,0:0:0:0:
78,244,318283,1,8,0:0:0:0:
74,293,318343,1,8,0:0:0:0:
92,340,318403,1,8,0:0:0:0:
128,374,318463,5,14,0:0:0:0:
161,365,318523,1,0,0:0:0:0:
187,342,318583,1,0,0:0:0:0:
201,310,318643,1,0,0:0:0:0:
199,276,318703,1,0,0:0:0:0:
196,241,318763,1,0,0:0:0:0:
210,209,318823,1,0,0:0:0:0:
236,186,318883,1,0,0:0:0:0:
270,178,318943,5,10,0:0:0:0:
270,212,319003,1,0,0:0:0:0:
252,242,319063,1,0,0:0:0:0:
222,258,319123,1,0,0:0:0:0:
187,256,319183,1,0,0:0:0:0:
159,236,319243,1,0,0:0:0:0:
145,205,319303,1,0,0:0:0:0:
149,171,319363,1,0,0:0:0:0:
170,144,319423,6,0,P|188:120|196:84,3,50,6|0|0|0,0:0|0:0|0:0|0:0,0:0:0:0:
304,40,319663,5,2,0:0:0:0:
304,48,319723,1,0,0:0:0:0:
304,56,319783,2,0,L|360:44,1,50
456,156,319903,5,2,0:0:0:0:
456,164,319963,1,0,0:0:0:0:
456,172,320023,2,0,L|400:160,1,50
304,272,320143,5,2,0:0:0:0:
304,280,320203,1,0,0:0:0:0:
304,288,320263,2,0,L|360:276,1,50
200,344,320383,5,14,0:0:0:0:
166,336,320443,1,0,0:0:0:0:
139,314,320503,1,0,0:0:0:0:
124,282,320563,1,0,0:0:0:0:
125,248,320623,1,0,0:0:0:0:
125,213,320683,1,0,0:0:0:0:
111,181,320743,1,0,0:0:0:0:
84,159,320803,1,0,0:0:0:0:
50,152,320863,5,10,0:0:0:0:
59,185,320923,1,0,0:0:0:0:
79,213,320983,1,0,0:0:0:0:
108,233,321043,1,0,0:0:0:0:
142,242,321103,1,0,0:0:0:0:
176,239,321163,1,0,0:0:0:0:
208,224,321223,1,0,0:0:0:0:
233,200,321283,1,0,0:0:0:0:
248,168,321343,6,8,P|280:144|316:148,2,66.6666666666667,10|8|8,0:0|0:0|0:0,0:0:0:0:
460,136,321583,2,8,P|428:160|392:156,2,66.6666666666667,10|8|8,0:0|0:0|0:0,0:0:0:0:
464,296,321823,5,14,0:0:0:0:
406,263,321903,1,0,0:0:0:0:
340,261,321983,1,0,0:0:0:0:
281,290,322063,5,14,0:0:0:0:
221,319,322143,1,0,0:0:0:0:
156,317,322223,1,0,0:0:0:0:
96,284,322303,5,14,0:0:0:0:
129,275,322363,1,0,0:0:0:0:
157,254,322423,1,0,0:0:0:0:
175,224,322483,1,0,0:0:0:0:
179,189,322543,1,0,0:0:0:0:
171,156,322603,1,0,0:0:0:0:
150,128,322663,1,0,0:0:0:0:
119,111,322723,1,0,0:0:0:0:
85,106,322783,5,10,0:0:0:0:
98,138,322843,1,0,0:0:0:0:
125,159,322903,1,0,0:0:0:0:
160,164,322963,1,0,0:0:0:0:
192,152,323023,1,0,0:0:0:0:
224,139,323083,1,0,0:0:0:0:
258,144,323143,1,0,0:0:0:0:
285,165,323203,1,0,0:0:0:0:
298,197,323263,6,0,P|324:212|360:208,3,50,6|0|0|0,0:0|0:0|0:0|0:0,0:0:0:0:
420,104,323503,5,2,0:0:0:0:
424,112,323563,1,0,0:0:0:0:
428,120,323623,2,0,L|432:176,1,50
312,348,323743,5,2,0:0:0:0:
308,340,323803,1,0,0:0:0:0:
304,332,323863,2,0,L|300:276,1,50
152,104,323983,5,2,0:0:0:0:
156,112,324043,1,0,0:0:0:0:
160,120,324103,2,0,L|164:176,1,50
44,348,324223,5,14,0:0:0:0:
40,340,324283,1,0,0:0:0:0:
36,332,324343,2,0,L|32:276,1,50
172,76,324463,5,2,0:0:0:0:
176,84,324523,1,0,0:0:0:0:
180,92,324583,2,0,L|184:148,1,50
336,360,324703,5,14,0:0:0:0:
332,352,324763,1,0,0:0:0:0:
328,344,324823,2,0,L|324:288,1,50
440,76,324943,5,2,0:0:0:0:
444,84,325003,1,0,0:0:0:0:
448,92,325063,2,0,L|452:148,1,50
244,360,325183,6,0,B|260:312|236:296|236:296|252:276|252:276|212:220|252:156,1,200,14|0,0:0|0:0,0:0:0:0:
324,294,325574,5,8,0:0:0:0:
296,116,325704,1,4,0:0:0:0:
408,356,325965,5,4,0:0:0:0:
240,40,326226,1,10,0:0:0:0:
256,192,326291,12,0,336400,0:0:0:0:
