osu file format v14

[General]
AudioFilename: audio.mp3
AudioLeadIn: 0
PreviewTime: 84318
Countdown: 0
SampleSet: Normal
StackLeniency: 0.7
Mode: 1
LetterboxInBreaks: 0
WidescreenStoryboard: 1

[Editor]
Bookmarks: 22087,33059,44030,55002,76947,85175,96147,107118,120832,131804,142775,151004,161975,175689
DistanceSpacing: 2
BeatDivisor: 4
GridSize: 32
TimelineZoom: 3.199999

[Metadata]
Title:Xinyi Dist
TitleUnicode:Xinyi Dist
Artist:Cyte
ArtistUnicode:Cyte
Creator:Gamelan4
Version:Kantan
Source:
Tags:paz08 electronic japanese breakcore glitch I'm 11! Im dramaturgy eve hatsune miku cytekinesis lolicore vocaloid ボーカロイド 初音ミク ドラマツルギー egts 2021 Expert Global Taiko Showdown Round of RO32 HR2 HardRock
BeatmapID:3550535
BeatmapSetID:1604579

[Difficulty]
HPDrainRate:7
CircleSize:5
OverallDifficulty:3
ApproachRate:10
SliderMultiplier:1.4
SliderTickRate:1

[Events]
//Background and Video events
0,0,"la miku tristep.jpg",0,0
//Break Periods
2,151004,152954
//Storyboard Layer 0 (Background)
//Storyboard Layer 1 (Fail)
//Storyboard Layer 2 (Pass)
//Storyboard Layer 3 (Foreground)
//Storyboard Layer 4 (Overlay)
//Storyboard Sound Samples

[TimingPoints]
147,342.857142857143,4,1,0,100,1,0
147,-100,4,1,0,100,0,0
22004,-100,4,1,0,100,0,0
44032,-100,4,1,0,100,0,0
55089,-100,4,1,0,100,0,0
76861,-100,4,1,0,100,0,0
79604,-100,4,1,0,100,0,0
84747,-100,4,1,0,100,0,0
85175,-100,4,1,0,100,0,1
107118,-100,4,1,0,100,0,0
107204,-100,4,1,0,100,0,0
109818,-100,4,1,0,100,0,0
120875,-100,4,1,0,100,0,0
131761,-100,4,1,0,100,0,0
145432,-100,4,1,0,100,0,0
150918,-100,4,1,0,100,0,0
153318,-100,4,1,0,100,0,0
153747,-100,4,1,0,100,0,1
172947,-100,4,1,0,100,0,0
173032,-100,4,1,0,100,0,0
175647,-100,4,1,0,100,0,0

[HitObjects]
256,192,22089,5,0,0:0:0:0:
170,72,22604,1,0,0:0:0:0:
256,192,22947,1,8,0:0:0:0:
256,192,23461,1,0,0:0:0:0:
256,192,23975,1,0,0:0:0:0:
256,192,24832,1,0,0:0:0:0:
256,192,25347,1,0,0:0:0:0:
256,192,25689,1,8,0:0:0:0:
256,192,26204,1,8,0:0:0:0:
323,119,26718,1,8,0:0:0:0:
256,192,27232,1,8,0:0:0:0:
256,192,27575,1,0,0:0:0:0:
439,154,28089,5,0,0:0:0:0:
256,192,28432,1,8,0:0:0:0:
256,192,28947,1,0,0:0:0:0:
256,192,29461,1,0,0:0:0:0:
256,192,30318,1,0,0:0:0:0:
256,192,30832,1,0,0:0:0:0:
256,192,31175,1,8,0:0:0:0:
256,192,31689,1,8,0:0:0:0:
203,107,32204,1,8,0:0:0:0:
362,106,32718,1,8,0:0:0:0:
256,192,33061,1,0,0:0:0:0:
317,204,33404,1,8,0:0:0:0:
230,171,33747,1,0,0:0:0:0:
230,171,34004,1,0,0:0:0:0:
230,171,34261,1,0,0:0:0:0:
317,178,35461,1,8,0:0:0:0:
256,192,35804,1,0,0:0:0:0:
256,192,36147,1,8,0:0:0:0:
229,84,36489,1,0,0:0:0:0:
270,63,36747,1,0,0:0:0:0:
270,63,37004,1,0,0:0:0:0:
290,56,38204,1,8,0:0:0:0:
256,192,38547,1,0,0:0:0:0:
256,192,38889,1,8,0:0:0:0:
156,110,39232,1,0,0:0:0:0:
256,192,39489,1,0,0:0:0:0:
256,192,39747,1,0,0:0:0:0:
256,192,40947,1,8,0:0:0:0:
256,192,41289,1,0,0:0:0:0:
407,142,41975,1,0,0:0:0:0:
256,192,42232,1,8,0:0:0:0:
256,192,42489,1,4,0:0:0:0:
256,192,43689,1,8,0:0:0:0:
256,192,44032,1,4,0:0:0:0:
362,169,44375,1,8,0:0:0:0:
250,55,44718,1,8,0:0:0:0:
256,192,45061,1,0,0:0:0:0:
372,90,45404,1,8,0:0:0:0:
386,134,45918,1,8,0:0:0:0:
357,89,46432,1,8,0:0:0:0:
256,192,46775,1,0,0:0:0:0:
256,192,47118,1,8,0:0:0:0:
256,192,47461,1,0,0:0:0:0:
256,192,47804,1,0,0:0:0:0:
256,192,48147,1,8,0:0:0:0:
256,192,48661,1,8,0:0:0:0:
256,192,49175,1,0,0:0:0:0:
256,192,49518,1,0,0:0:0:0:
256,192,49861,1,8,0:0:0:0:
256,192,50204,1,8,0:0:0:0:
256,192,50547,1,0,0:0:0:0:
372,120,50889,1,8,0:0:0:0:
256,192,51404,1,8,0:0:0:0:
256,192,51918,1,0,0:0:0:0:
256,192,52261,1,0,0:0:0:0:
256,192,52604,1,8,0:0:0:0:
256,192,52947,1,0,0:0:0:0:
256,192,53289,1,0,0:0:0:0:
256,192,53632,1,8,0:0:0:0:
256,192,54147,1,0,0:0:0:0:
256,192,54661,1,8,0:0:0:0:
256,192,55004,1,4,0:0:0:0:
326,226,56032,1,8,0:0:0:0:
256,192,56375,1,0,0:0:0:0:
256,192,57061,1,0,0:0:0:0:
256,192,57404,1,8,0:0:0:0:
256,192,57747,1,0,0:0:0:0:
449,114,58775,1,8,0:0:0:0:
256,192,59118,1,0,0:0:0:0:
256,192,59804,1,0,0:0:0:0:
256,192,60147,1,8,0:0:0:0:
256,192,60489,1,0,0:0:0:0:
302,147,61175,1,0,0:0:0:0:
256,192,61518,1,8,0:0:0:0:
256,192,61861,1,0,0:0:0:0:
256,192,62547,1,8,0:0:0:0:
256,192,62889,1,8,0:0:0:0:
256,192,63232,1,0,0:0:0:0:
256,192,63575,1,8,0:0:0:0:
256,192,64261,1,8,0:0:0:0:
256,192,64604,1,0,0:0:0:0:
256,192,64947,1,8,0:0:0:0:
256,192,65632,1,8,0:0:0:0:
256,192,65975,1,4,0:0:0:0:
278,183,67004,1,8,0:0:0:0:
256,192,67347,1,0,0:0:0:0:
256,192,68032,1,8,0:0:0:0:
256,192,68375,1,8,0:0:0:0:
256,192,68718,1,0,0:0:0:0:
256,192,69747,1,8,0:0:0:0:
256,192,70089,1,0,0:0:0:0:
256,192,70775,1,0,0:0:0:0:
322,85,71118,1,8,0:0:0:0:
256,192,71461,1,0,0:0:0:0:
256,192,72489,1,8,0:0:0:0:
256,192,72832,1,0,0:0:0:0:
273,136,73518,1,0,0:0:0:0:
256,192,73861,1,8,0:0:0:0:
256,192,74204,1,0,0:0:0:0:
331,94,75232,1,0,0:0:0:0:
256,192,75575,1,8,0:0:0:0:
256,192,76089,1,0,0:0:0:0:
403,191,76604,1,0,0:0:0:0:
256,192,76947,1,8,0:0:0:0:
256,192,77632,1,0,0:0:0:0:
256,192,78318,1,8,0:0:0:0:
256,192,79004,1,0,0:0:0:0:
256,192,79689,1,0,0:0:0:0:
256,192,80718,1,8,0:0:0:0:
256,192,81061,1,0,0:0:0:0:
471,170,81747,1,8,0:0:0:0:
256,192,82089,1,0,0:0:0:0:
256,192,82432,1,8,0:0:0:0:
256,192,83118,1,8,0:0:0:0:
256,192,83804,1,0,0:0:0:0:
274,145,84147,1,0,0:0:0:0:
240,180,84489,1,8,0:0:0:0:
333,103,85175,1,4,0:0:0:0:
256,192,85518,1,8,0:0:0:0:
407,179,86032,1,8,0:0:0:0:
256,192,86547,1,0,0:0:0:0:
256,192,86889,1,8,0:0:0:0:
179,137,87232,1,0,0:0:0:0:
256,192,87575,1,8,0:0:0:0:
256,192,87918,1,0,0:0:0:0:
276,76,88432,1,0,0:0:0:0:
256,192,88775,1,8,0:0:0:0:
256,192,89118,1,0,0:0:0:0:
256,192,90318,1,0,0:0:0:0:
256,192,90661,1,8,0:0:0:0:
259,158,91175,5,0,0:0:0:0:
256,192,91518,1,8,0:0:0:0:
256,192,92032,1,0,0:0:0:0:
256,192,92547,1,0,0:0:0:0:
256,192,92889,1,8,0:0:0:0:
256,192,93404,1,0,0:0:0:0:
287,110,93747,1,8,0:0:0:0:
340,109,94432,1,0,0:0:0:0:
256,192,94947,1,0,0:0:0:0:
256,192,95461,1,0,0:0:0:0:
256,192,95804,1,8,0:0:0:0:
256,192,96147,1,0,0:0:0:0:
233,85,96832,1,0,0:0:0:0:
256,192,97518,1,8,0:0:0:0:
299,147,98547,1,0,0:0:0:0:
339,148,98889,1,8,0:0:0:0:
245,158,99575,1,0,0:0:0:0:
256,192,99918,1,8,0:0:0:0:
256,192,100261,1,0,0:0:0:0:
256,192,100947,1,8,0:0:0:0:
256,192,101289,1,8,0:0:0:0:
256,192,101632,1,0,0:0:0:0:
256,192,102661,1,8,0:0:0:0:
256,192,103004,1,0,0:0:0:0:
256,192,103518,1,0,0:0:0:0:
313,82,104032,5,8,0:0:0:0:
256,192,104375,1,0,0:0:0:0:
256,192,105061,1,0,0:0:0:0:
256,192,105575,1,8,0:0:0:0:
256,192,106089,1,8,0:0:0:0:
391,148,106432,1,8,0:0:0:0:
256,192,106775,1,8,0:0:0:0:
256,192,107118,1,4,0:0:0:0:
256,192,108489,1,4,0:0:0:0:
256,192,109861,1,4,0:0:0:0:
250,55,110547,1,8,0:0:0:0:
256,192,110890,1,0,0:0:0:0:
372,90,111233,1,8,0:0:0:0:
386,134,111747,1,8,0:0:0:0:
357,89,112261,1,8,0:0:0:0:
256,192,112604,1,0,0:0:0:0:
256,192,113290,1,0,0:0:0:0:
256,192,113633,1,0,0:0:0:0:
256,192,113976,1,8,0:0:0:0:
256,192,114490,1,8,0:0:0:0:
256,192,115004,1,0,0:0:0:0:
256,192,115347,1,0,0:0:0:0:
256,192,116033,1,8,0:0:0:0:
256,192,116376,1,0,0:0:0:0:
372,120,116718,1,8,0:0:0:0:
256,192,117233,1,8,0:0:0:0:
256,192,117747,5,0,0:0:0:0:
256,192,118090,1,0,0:0:0:0:
256,192,118776,1,0,0:0:0:0:
256,192,119118,1,0,0:0:0:0:
256,192,119461,1,8,0:0:0:0:
256,192,119976,1,0,0:0:0:0:
256,192,120490,1,8,0:0:0:0:
256,192,120833,1,4,0:0:0:0:
256,192,122204,1,0,0:0:0:0:
256,192,122889,1,8,0:0:0:0:
205,68,123232,1,8,0:0:0:0:
299,90,123575,1,0,0:0:0:0:
256,192,124947,1,0,0:0:0:0:
256,192,125290,1,8,0:0:0:0:
388,212,125975,1,8,0:0:0:0:
256,192,126318,1,0,0:0:0:0:
302,147,127004,1,8,0:0:0:0:
256,192,127690,1,0,0:0:0:0:
323,109,128032,1,0,0:0:0:0:
256,192,128376,1,8,0:0:0:0:
256,192,128718,1,8,0:0:0:0:
256,192,129061,1,0,0:0:0:0:
256,192,129747,1,8,0:0:0:0:
256,192,130433,1,0,0:0:0:0:
256,192,131461,1,8,0:0:0:0:
256,192,131804,5,4,0:0:0:0:
256,192,132147,5,8,0:0:0:0:
222,191,132832,1,8,0:0:0:0:
256,192,133175,1,0,0:0:0:0:
256,192,133518,1,8,0:0:0:0:
256,192,134204,1,8,0:0:0:0:
256,192,134547,1,0,0:0:0:0:
256,192,134889,1,8,0:0:0:0:
256,192,135575,1,0,0:0:0:0:
256,192,135918,1,0,0:0:0:0:
256,192,136261,1,8,0:0:0:0:
256,192,136947,1,8,0:0:0:0:
256,192,137289,1,0,0:0:0:0:
341,147,138318,1,8,0:0:0:0:
256,192,138661,1,0,0:0:0:0:
256,192,139347,1,0,0:0:0:0:
256,192,139689,1,8,0:0:0:0:
256,192,140032,1,0,0:0:0:0:
256,192,141061,1,0,0:0:0:0:
256,192,141404,1,8,0:0:0:0:
256,192,142089,1,0,0:0:0:0:
361,152,142432,1,0,0:0:0:0:
256,192,142775,1,8,0:0:0:0:
256,192,143461,1,0,0:0:0:0:
256,192,144146,1,8,0:0:0:0:
256,192,144832,1,0,0:0:0:0:
256,192,145518,1,0,0:0:0:0:
256,192,146547,1,8,0:0:0:0:
256,192,146890,1,0,0:0:0:0:
256,192,147233,1,8,0:0:0:0:
256,192,147918,1,0,0:0:0:0:
256,192,148261,1,8,0:0:0:0:
381,125,148604,5,8,0:0:0:0:
256,192,149118,1,0,0:0:0:0:
256,192,149633,1,0,0:0:0:0:
401,143,149975,1,0,0:0:0:0:
240,180,150318,1,0,0:0:0:0:
496,138,150661,1,8,0:0:0:0:
256,192,153404,5,12,0:0:0:0:
256,192,153747,1,4,0:0:0:0:
256,192,154261,1,0,0:0:0:0:
256,192,154604,1,8,0:0:0:0:
256,192,155118,1,0,0:0:0:0:
256,192,155632,1,0,0:0:0:0:
257,113,155975,1,0,0:0:0:0:
256,192,156489,1,8,0:0:0:0:
350,181,157004,1,0,0:0:0:0:
256,192,157347,1,8,0:0:0:0:
232,65,157689,1,0,0:0:0:0:
430,148,158375,1,8,0:0:0:0:
256,192,158718,1,8,0:0:0:0:
256,192,159232,1,0,0:0:0:0:
256,192,159747,1,0,0:0:0:0:
256,192,160089,1,8,0:0:0:0:
256,192,160604,1,0,0:0:0:0:
256,192,160947,5,8,0:0:0:0:
256,192,161289,1,8,0:0:0:0:
256,192,161632,1,0,0:0:0:0:
256,192,161975,1,8,0:0:0:0:
256,192,162661,1,8,0:0:0:0:
256,192,163347,1,0,0:0:0:0:
256,192,164032,1,0,0:0:0:0:
256,192,164718,1,8,0:0:0:0:
372,122,165061,1,8,0:0:0:0:
263,99,165404,1,0,0:0:0:0:
256,192,166775,1,0,0:0:0:0:
256,192,167118,1,8,0:0:0:0:
256,192,167461,1,0,0:0:0:0:
256,192,168147,1,8,0:0:0:0:
213,148,168832,1,0,0:0:0:0:
363,171,169175,1,0,0:0:0:0:
256,192,169518,1,8,0:0:0:0:
256,192,169861,1,0,0:0:0:0:
256,192,170204,1,8,0:0:0:0:
323,154,170889,1,8,0:0:0:0:
256,192,171575,1,0,0:0:0:0:
256,192,171918,1,0,0:0:0:0:
256,192,172261,1,8,0:0:0:0:
256,192,172604,1,8,0:0:0:0:
256,192,172947,1,4,0:0:0:0:
256,192,174318,1,0,0:0:0:0:
256,192,175347,1,8,0:0:0:0:
256,192,175689,5,0,0:0:0:0:
170,72,176204,1,0,0:0:0:0:
256,192,176547,1,8,0:0:0:0:
256,192,177061,1,0,0:0:0:0:
256,192,177575,1,0,0:0:0:0:
256,192,178432,1,0,0:0:0:0:
256,192,178947,1,0,0:0:0:0:
256,192,179289,1,8,0:0:0:0:
256,192,179804,1,8,0:0:0:0:
323,119,180318,1,8,0:0:0:0:
256,192,180832,1,8,0:0:0:0:
256,192,181175,1,0,0:0:0:0:
439,154,181689,5,0,0:0:0:0:
256,192,182032,1,8,0:0:0:0:
256,192,182547,1,0,0:0:0:0:
256,192,183061,1,0,0:0:0:0:
256,192,183918,1,0,0:0:0:0:
256,192,184432,1,0,0:0:0:0:
256,192,184775,1,8,0:0:0:0:
256,192,185289,1,8,0:0:0:0:
202,106,185804,1,8,0:0:0:0:
362,106,186318,1,8,0:0:0:0:
256,192,186661,5,0,0:0:0:0:
256,192,187004,1,8,0:0:0:0:
256,192,188032,1,0,0:0:0:0:
256,192,188547,1,0,0:0:0:0:
256,192,189404,1,0,0:0:0:0:
256,192,189919,1,0,0:0:0:0:
381,161,190261,1,8,0:0:0:0:
256,192,190776,1,8,0:0:0:0:
323,119,191290,1,8,0:0:0:0:
256,192,191804,1,8,0:0:0:0:
256,192,192147,1,0,0:0:0:0:
439,154,192661,5,0,0:0:0:0:
256,192,193004,1,8,0:0:0:0:
256,192,193519,1,0,0:0:0:0:
256,192,194033,1,0,0:0:0:0:
256,192,194890,1,0,0:0:0:0:
256,192,195404,1,0,0:0:0:0:
256,192,195747,1,8,0:0:0:0:
256,192,196261,1,8,0:0:0:0:
203,107,196776,1,8,0:0:0:0:
362,106,197290,1,8,0:0:0:0:
256,192,197633,1,0,0:0:0:0:
