osu file format v14

[General]
AudioFilename: audio.mp3
AudioLeadIn: 0
PreviewTime: 84318
Countdown: 0
SampleSet: Normal
StackLeniency: 0.7
Mode: 1
LetterboxInBreaks: 0
WidescreenStoryboard: 0

[Editor]
Bookmarks: 22087,33059,44030,55002,76947,85175,96147,107118,120832,131804,142775,151004,161975,175689
DistanceSpacing: 2
BeatDivisor: 8
GridSize: 32
TimelineZoom: 4.299998

[Metadata]
Title:Xinyi Dist
TitleUnicode:Xinyi Dist
Artist:Cyte
ArtistUnicode:Cyte
Creator:Gamelan4
Version:Hell Oni
Source:
Tags:paz08 electronic japanese breakcore glitch I'm 11! Im dramaturgy eve hatsune miku cytekinesis lolicore vocaloid ボーカロイド 初音ミク ドラマツルギー egts 2021 Expert Global Taiko Showdown Round of RO32 HR2 HardRock
BeatmapID:3276629
BeatmapSetID:1604579

[Difficulty]
HPDrainRate:7
CircleSize:5
OverallDifficulty:7
ApproachRate:10
SliderMultiplier:1.6
SliderTickRate:1

[Events]
//Background and Video events
0,0,"la miku tristep.jpg",0,0
//Break Periods
2,151689,152954
//Storyboard Layer 0 (Background)
//Storyboard Layer 1 (Fail)
//Storyboard Layer 2 (Pass)
//Storyboard Layer 3 (Foreground)
//Storyboard Layer 4 (Overlay)
//Storyboard Sound Samples

[TimingPoints]
147,342.857142857143,4,1,0,100,1,0
147,-125,4,1,0,100,0,0
42104,-123.456790123457,4,1,0,100,0,0
42189,-121.951219512195,4,1,0,100,0,0
42275,-120.481927710843,4,1,0,100,0,0
42361,-119.047619047619,4,1,0,100,0,0
42447,-117.647058823529,4,1,0,100,0,0
42661,-105.263157894737,4,1,0,100,0,0
42789,-133.333333333333,4,1,0,100,0,0
42875,-131.578947368421,4,1,0,100,0,0
42961,-129.87012987013,4,1,0,100,0,0
43047,-128.205128205128,4,1,0,100,0,0
43132,-126.582278481013,4,1,0,100,0,0
43218,-125,4,1,0,100,0,0
43304,-123.456790123457,4,1,0,100,0,0
43389,-120.481927710843,4,1,0,100,0,0
43475,-119.047619047619,4,1,0,100,0,0
43561,-117.647058823529,4,1,0,100,0,0
43647,-116.279069767442,4,1,0,100,0,0
43732,-114.942528735632,4,1,0,100,0,0
43818,-113.636363636364,4,1,0,100,0,0
43904,-112.359550561798,4,1,0,100,0,0
44032,-105.263157894737,4,1,0,100,0,0
44161,-111.111111111111,4,1,0,100,0,0
76904,-108.695652173913,4,1,0,100,0,0
76989,-106.382978723404,4,1,0,100,0,0
77075,-104.166666666667,4,1,0,100,0,0
77161,-102.040816326531,4,1,0,100,0,0
77418,-111.111111111111,4,1,0,100,0,0
77589,-108.695652173913,4,1,0,100,0,0
77675,-106.382978723404,4,1,0,100,0,0
77761,-104.166666666667,4,1,0,100,0,0
77847,-102.040816326531,4,1,0,100,0,0
78104,-111.111111111111,4,1,0,100,0,0
78275,-108.695652173913,4,1,0,100,0,0
78361,-106.382978723404,4,1,0,100,0,0
78447,-104.166666666667,4,1,0,100,0,0
78532,-102.040816326531,4,1,0,100,0,0
78789,-111.111111111111,4,1,0,100,0,0
78961,-108.695652173913,4,1,0,100,0,0
79047,-106.382978723404,4,1,0,100,0,0
79133,-104.166666666667,4,1,0,100,0,0
79218,-102.040816326531,4,1,0,100,0,0
79304,-103.092783505155,4,1,0,100,0,0
79375,-104.166666666667,4,1,0,100,0,0
79432,-105.263157894737,4,1,0,100,0,0
79489,-106.382978723404,4,1,0,100,0,0
79561,-107.52688172043,4,1,0,100,0,0
79647,-108.695652173913,4,1,0,100,0,0
79818,-111.111111111111,4,1,0,100,0,0
85175,-100,4,1,0,100,0,1
95418,-98.0392156862745,4,1,0,100,0,1
95589,-96.1538461538461,4,1,0,100,0,1
95761,-94.3396226415094,4,1,0,100,0,1
95932,-92.5925925925926,4,1,0,100,0,1
96104,-90.9090909090909,4,1,0,100,0,1
96147,-90.9090909090909,4,1,0,100,0,1
96318,-90.9090909090909,4,1,0,100,0,0
96489,-90.9090909090909,4,1,0,100,0,1
96661,-90.9090909090909,4,1,0,100,0,0
96832,-90.9090909090909,4,1,0,100,0,1
96961,-95.2380952380952,4,1,0,100,0,1
97047,-90.9090909090909,4,1,0,100,0,1
97218,-95.2380952380952,4,1,0,100,0,1
97304,-90.9090909090909,4,1,0,100,0,1
97475,-100,4,1,0,100,0,1
97647,-95.2380952380952,4,1,0,100,0,1
97732,-90.9090909090909,4,1,0,100,0,1
97904,-86.9565217391304,4,1,0,100,0,1
97989,-83.3333333333333,4,1,0,100,0,1
98161,-100,4,1,0,100,0,1
98847,-90.9090909090909,4,1,0,100,0,1
99189,-99.009900990099,4,1,0,100,0,1
99275,-98.0392156862745,4,1,0,100,0,1
99361,-97.0873786407767,4,1,0,100,0,1
99447,-96.1538461538461,4,1,0,100,0,1
99532,-95.2380952380952,4,1,0,100,0,1
99618,-94.3396226415094,4,1,0,100,0,1
99789,-93.4579439252336,4,1,0,100,0,1
99875,-92.5925925925926,4,1,0,100,0,1
100047,-91.7431192660551,4,1,0,100,0,1
100218,-90.9090909090909,4,1,0,100,0,1
100389,-100,4,1,0,100,0,1
100475,-99.009900990099,4,1,0,100,0,1
100561,-98.0392156862745,4,1,0,100,0,1
100647,-97.0873786407767,4,1,0,100,0,1
100732,-96.1538461538461,4,1,0,100,0,1
100818,-95.2380952380952,4,1,0,100,0,1
100904,-94.3396226415094,4,1,0,100,0,1
101075,-92.5925925925926,4,1,0,100,0,1
101247,-90.9090909090909,4,1,0,100,0,1
101418,-89.2857142857143,4,1,0,100,0,1
101589,-87.719298245614,4,1,0,100,0,1
101761,-100,4,1,0,100,0,1
102961,-90.9090909090909,4,1,0,100,0,1
103647,-100,4,1,0,100,0,1
103732,-99.009900990099,4,1,0,100,0,1
103818,-98.0392156862745,4,1,0,100,0,1
103904,-97.0873786407767,4,1,0,100,0,1
103989,-96.1538461538461,4,1,0,100,0,1
104075,-95.2380952380952,4,1,0,100,0,1
104161,-94.3396226415094,4,1,0,100,0,1
104247,-93.4579439252336,4,1,0,100,0,1
104332,-90.9090909090909,4,1,0,100,0,1
105018,-100,4,1,0,100,0,1
105361,-101.010101010101,4,1,0,100,0,1
105532,-102.040816326531,4,1,0,100,0,1
105832,-103.092783505155,4,1,0,100,0,1
106047,-104.166666666667,4,1,0,100,0,1
106218,-105.263157894737,4,1,0,100,0,1
106561,-106.382978723404,4,1,0,100,0,1
106647,-107.52688172043,4,1,0,100,0,1
106732,-108.695652173913,4,1,0,100,0,1
106904,-109.89010989011,4,1,0,100,0,1
107118,-111.111111111111,4,1,0,100,0,0
107204,-133.333333333333,4,1,0,100,0,0
109818,-117.647058823529,4,1,0,100,0,0
120875,-125,4,1,0,100,0,0
131761,-111.111111111111,4,1,0,100,0,0
142732,-108.695652173913,4,1,0,100,0,0
142817,-106.382978723404,4,1,0,100,0,0
142903,-104.166666666667,4,1,0,100,0,0
142989,-102.040816326531,4,1,0,100,0,0
143161,-113.636363636364,4,1,0,100,0,0
143246,-111.111111111111,4,1,0,100,0,0
143417,-108.695652173913,4,1,0,100,0,0
143503,-106.382978723404,4,1,0,100,0,0
143589,-104.166666666667,4,1,0,100,0,0
143675,-102.040816326531,4,1,0,100,0,0
143932,-111.111111111111,4,1,0,100,0,0
144103,-109.89010989011,4,1,0,100,0,0
144189,-108.695652173913,4,1,0,100,0,0
144275,-107.52688172043,4,1,0,100,0,0
144360,-106.382978723404,4,1,0,100,0,0
144447,-105.263157894737,4,1,0,100,0,0
144532,-104.166666666667,4,1,0,100,0,0
144617,-103.092783505155,4,1,0,100,0,0
144704,-102.040816326531,4,1,0,100,0,0
144789,-101.010101010101,4,1,0,100,0,0
144875,-100,4,1,0,100,0,0
144961,-99.009900990099,4,1,0,100,0,0
145046,-98.0392156862745,4,1,0,100,0,0
145132,-97.0873786407767,4,1,0,100,0,0
145304,-111.111111111111,4,1,0,100,0,0
150604,-66.6666666666667,4,1,0,100,0,0
151347,-125,4,1,0,100,0,0
153347,-117.64705882353,4,1,0,100,0,0
153618,-100,4,1,0,100,0,0
153747,-100,4,1,0,100,0,1
161418,-98.0392156862745,4,1,0,100,0,1
161589,-96.1538461538461,4,1,0,100,0,1
161761,-94.3396226415094,4,1,0,100,0,1
161932,-90.9090909090909,4,1,0,100,0,1
162147,-90.9090909090909,4,1,0,100,0,0
162318,-90.9090909090909,4,1,0,100,0,1
162489,-90.9090909090909,4,1,0,100,0,0
162661,-90.9090909090909,4,1,0,100,0,1
162832,-90.9090909090909,4,1,0,100,0,0
162918,-90.9090909090909,4,1,0,100,0,1
163089,-90.9090909090909,4,1,0,100,0,0
163175,-90.9090909090909,4,1,0,100,0,1
163304,-100,4,1,0,100,0,1
163389,-99.009900990099,4,1,0,100,0,1
163475,-98.0392156862745,4,1,0,100,0,1
163561,-97.0873786407767,4,1,0,100,0,1
163647,-96.1538461538461,4,1,0,100,0,1
163732,-95.2380952380952,4,1,0,100,0,1
163818,-94.3396226415094,4,1,0,100,0,1
163904,-93.4579439252336,4,1,0,100,0,1
163989,-90.9090909090909,4,1,0,100,0,1
164204,-90.9090909090909,4,1,0,100,0,0
164289,-90.9090909090909,4,1,0,100,0,1
164461,-90.9090909090909,4,1,0,100,0,0
164547,-90.9090909090909,4,1,0,100,0,1
164675,-100,4,1,0,100,0,1
164761,-99.009900990099,4,1,0,100,0,1
164847,-98.0392156862745,4,1,0,100,0,1
164933,-97.0873786407767,4,1,0,100,0,1
165019,-96.1538461538461,4,1,0,100,0,1
165104,-95.2380952380952,4,1,0,100,0,1
165190,-94.3396226415094,4,1,0,100,0,1
165275,-93.4579439252336,4,1,0,100,0,1
165361,-92.5925925925926,4,1,0,100,0,1
165447,-91.7431192660551,4,1,0,100,0,1
165619,-94.3396226415094,4,1,0,100,0,1
165790,-90.9090909090909,4,1,0,100,0,1
166047,-100,4,1,0,100,0,1
166132,-99.009900990099,4,1,0,100,0,1
166218,-98.0392156862745,4,1,0,100,0,1
166304,-97.0873786407767,4,1,0,100,0,1
166390,-96.1538461538461,4,1,0,100,0,1
166475,-95.2380952380952,4,1,0,100,0,1
166561,-94.3396226415094,4,1,0,100,0,1
166647,-93.4579439252336,4,1,0,100,0,1
166732,-90.9090909090909,4,1,0,100,0,1
167418,-100,4,1,0,100,0,1
170161,-90.9090909090909,4,1,0,100,0,1
171532,-100,4,1,0,100,0,1
171875,-102.040816326531,4,1,0,100,0,1
172218,-104.166666666667,4,1,0,100,0,1
172561,-106.382978723404,4,1,0,100,0,1
172947,-108.695652173913,4,1,0,100,0,0
173032,-133.333333333333,4,1,0,100,0,0
175647,-125,4,1,0,100,0,0

[HitObjects]
288,192,22089,5,0,0:0:0:0:
170,160,22261,1,0,0:0:0:0:
359,181,22432,1,8,0:0:0:0:
207,144,22604,1,0,0:0:0:0:
328,184,22775,1,0,0:0:0:0:
357,172,22947,1,8,0:0:0:0:
298,138,23118,1,0,0:0:0:0:
339,188,23204,1,8,0:0:0:0:
339,188,23375,1,8,0:0:0:0:
339,188,23461,1,0,0:0:0:0:
257,180,23632,1,0,0:0:0:0:
236,196,23804,1,8,0:0:0:0:
289,148,23975,1,0,0:0:0:0:
289,148,24147,1,0,0:0:0:0:
336,144,24318,1,8,0:0:0:0:
336,144,24489,1,0,0:0:0:0:
336,144,24575,1,8,0:0:0:0:
336,144,24661,1,0,0:0:0:0:
336,144,24747,1,8,0:0:0:0:
360,144,24832,1,0,0:0:0:0:
296,158,25004,1,0,0:0:0:0:
361,141,25175,1,8,0:0:0:0:
271,178,25347,1,0,0:0:0:0:
221,145,25518,1,0,0:0:0:0:
361,158,25689,1,8,0:0:0:0:
346,158,25861,1,0,0:0:0:0:
346,158,25947,1,8,0:0:0:0:
368,165,26118,1,8,0:0:0:0:
361,141,26204,1,8,0:0:0:0:
354,248,26375,1,0,0:0:0:0:
387,157,26461,1,8,0:0:0:0:
329,172,26547,1,0,0:0:0:0:
329,172,26632,1,8,0:0:0:0:
329,172,26718,1,8,0:0:0:0:
395,164,26889,1,0,0:0:0:0:
350,93,26975,1,8,0:0:0:0:
395,164,27061,1,0,0:0:0:0:
395,164,27147,1,8,0:0:0:0:
395,164,27232,1,0,0:0:0:0:
407,152,27404,1,8,0:0:0:0:
423,156,27575,1,0,0:0:0:0:
235,148,27747,1,0,0:0:0:0:
301,151,27918,1,8,0:0:0:0:
376,165,28089,1,0,0:0:0:0:
376,165,28261,1,0,0:0:0:0:
431,164,28432,1,8,0:0:0:0:
365,169,28604,1,0,0:0:0:0:
365,169,28689,1,8,0:0:0:0:
191,157,28861,1,0,0:0:0:0:
191,157,28947,1,0,0:0:0:0:
280,150,29118,1,0,0:0:0:0:
248,142,29289,1,8,0:0:0:0:
248,142,29461,1,0,0:0:0:0:
208,145,29632,1,0,0:0:0:0:
208,145,29804,1,8,0:0:0:0:
208,145,29975,1,0,0:0:0:0:
208,145,30061,1,8,0:0:0:0:
208,145,30147,1,0,0:0:0:0:
168,161,30232,1,8,0:0:0:0:
88,130,30318,1,0,0:0:0:0:
289,153,30489,1,0,0:0:0:0:
167,168,30661,1,8,0:0:0:0:
167,168,30832,1,0,0:0:0:0:
167,168,31004,1,0,0:0:0:0:
167,168,31175,1,8,0:0:0:0:
416,174,31347,1,8,0:0:0:0:
167,168,31432,1,8,0:0:0:0:
415,164,31604,1,0,0:0:0:0:
422,158,31689,1,8,0:0:0:0:
321,156,31861,1,0,0:0:0:0:
321,156,31947,1,8,0:0:0:0:
321,156,32032,1,0,0:0:0:0:
321,156,32118,1,8,0:0:0:0:
321,156,32204,1,8,0:0:0:0:
201,145,32375,1,0,0:0:0:0:
201,145,32461,1,8,0:0:0:0:
201,145,32547,1,0,0:0:0:0:
201,145,32632,1,0,0:0:0:0:
322,146,32718,1,8,0:0:0:0:
382,152,32804,1,8,0:0:0:0:
382,152,32889,1,8,0:0:0:0:
382,152,32947,1,8,0:0:0:0:
353,165,33004,1,8,0:0:0:0:
288,192,33061,5,0,0:0:0:0:
170,160,33232,1,0,0:0:0:0:
359,181,33404,1,8,0:0:0:0:
207,144,33575,1,0,0:0:0:0:
414,169,33661,1,8,0:0:0:0:
328,184,33747,1,0,0:0:0:0:
357,172,33918,1,8,0:0:0:0:
386,203,34004,1,0,0:0:0:0:
298,138,34089,1,8,0:0:0:0:
339,188,34175,1,0,0:0:0:0:
277,121,34261,1,8,0:0:0:0:
277,121,34318,1,8,0:0:0:0:
376,132,34375,1,8,0:0:0:0:
181,96,34432,1,0,0:0:0:0:
339,188,34518,1,0,0:0:0:0:
257,180,34604,1,0,0:0:0:0:
280,176,34689,1,0,0:0:0:0:
236,196,34775,1,8,0:0:0:0:
289,148,34947,1,0,0:0:0:0:
352,162,35032,1,8,0:0:0:0:
289,148,35118,1,0,0:0:0:0:
336,144,35289,1,8,0:0:0:0:
323,168,35375,1,8,0:0:0:0:
336,144,35461,1,0,0:0:0:0:
336,144,35547,1,0,0:0:0:0:
336,144,35632,1,8,0:0:0:0:
210,45,35675,1,8,0:0:0:0:
228,68,35718,1,8,0:0:0:0:
360,144,35761,1,8,0:0:0:0:
143,144,35804,1,0,0:0:0:0:
296,158,35975,1,0,0:0:0:0:
361,141,36147,1,8,0:0:0:0:
303,168,36232,1,0,0:0:0:0:
483,151,36318,1,8,0:0:0:0:
271,178,36375,1,8,0:0:0:0:
361,178,36432,1,8,0:0:0:0:
244,131,36489,1,0,0:0:0:0:
221,145,36575,1,0,0:0:0:0:
361,158,36661,1,8,0:0:0:0:
280,160,36747,1,0,0:0:0:0:
346,158,36832,1,8,0:0:0:0:
346,158,36918,1,8,0:0:0:0:
379,145,37004,1,0,0:0:0:0:
368,165,37089,1,8,0:0:0:0:
361,141,37175,1,0,0:0:0:0:
354,248,37347,1,8,0:0:0:0:
287,138,37518,1,8,0:0:0:0:
306,134,37604,1,0,0:0:0:0:
353,149,37775,1,8,0:0:0:0:
350,93,37947,1,8,0:0:0:0:
395,164,38032,1,0,0:0:0:0:
377,143,38204,1,8,0:0:0:0:
176,186,38289,1,0,0:0:0:0:
407,152,38375,1,8,0:0:0:0:
237,134,38461,1,8,0:0:0:0:
423,156,38547,1,0,0:0:0:0:
235,148,38718,1,0,0:0:0:0:
301,151,38889,1,8,0:0:0:0:
377,143,38975,1,0,0:0:0:0:
376,165,39061,1,0,0:0:0:0:
368,136,39147,1,8,0:0:0:0:
376,165,39232,1,0,0:0:0:0:
391,154,39318,1,0,0:0:0:0:
431,164,39404,1,8,0:0:0:0:
376,137,39489,1,8,0:0:0:0:
289,128,39575,1,8,0:0:0:0:
325,113,39661,1,0,0:0:0:0:
399,148,39747,1,0,0:0:0:0:
432,154,39832,1,8,0:0:0:0:
191,157,39918,1,0,0:0:0:0:
334,140,40004,1,8,0:0:0:0:
280,150,40089,1,0,0:0:0:0:
354,135,40175,1,8,0:0:0:0:
361,141,40261,1,8,0:0:0:0:
178,294,40347,1,8,0:0:0:0:
248,142,40432,1,0,0:0:0:0:
317,160,40518,1,0,0:0:0:0:
208,145,40604,1,0,0:0:0:0:
334,140,40689,1,8,0:0:0:0:
417,153,40775,1,0,0:0:0:0:
372,130,40861,1,8,0:0:0:0:
208,145,40947,1,8,0:0:0:0:
292,153,41032,1,0,0:0:0:0:
208,145,41118,1,8,0:0:0:0:
249,118,41204,1,0,0:0:0:0:
88,130,41289,1,0,0:0:0:0:
289,153,41461,1,0,0:0:0:0:
167,168,41632,1,8,0:0:0:0:
205,48,41718,1,0,0:0:0:0:
404,162,41804,1,0,0:0:0:0:
167,168,41889,1,8,0:0:0:0:
167,168,41975,1,0,0:0:0:0:
167,168,42147,1,8,0:0:0:0:
376,267,42232,1,0,0:0:0:0:
416,174,42318,1,8,0:0:0:0:
367,168,42404,1,8,0:0:0:0:
329,98,42489,1,4,0:0:0:0:
321,156,42832,1,8,0:0:0:0:
321,156,42918,1,0,0:0:0:0:
321,156,43004,1,8,0:0:0:0:
321,156,43089,1,0,0:0:0:0:
321,156,43175,1,8,0:0:0:0:
443,161,43261,1,0,0:0:0:0:
201,145,43347,1,8,0:0:0:0:
201,145,43432,1,0,0:0:0:0:
201,145,43518,1,8,0:0:0:0:
358,137,43604,1,0,0:0:0:0:
322,146,43689,1,8,0:0:0:0:
382,152,43775,1,8,0:0:0:0:
382,152,43861,1,8,0:0:0:0:
353,165,43947,1,8,0:0:0:0:
473,158,44032,1,4,0:0:0:0:
251,167,44204,1,0,0:0:0:0:
299,147,44289,1,0,0:0:0:0:
299,147,44375,1,8,0:0:0:0:
225,74,44432,1,0,0:0:0:0:
382,172,44489,1,0,0:0:0:0:
422,142,44547,1,8,0:0:0:0:
423,154,44632,1,8,0:0:0:0:
392,122,44718,1,0,0:0:0:0:
391,136,44804,1,0,0:0:0:0:
301,113,44889,1,8,0:0:0:0:
376,160,45061,1,8,0:0:0:0:
363,153,45147,1,8,0:0:0:0:
382,140,45232,1,8,0:0:0:0:
256,119,45318,1,0,0:0:0:0:
447,149,45404,1,8,0:0:0:0:
428,147,45575,1,8,0:0:0:0:
296,130,45661,1,0,0:0:0:0:
219,103,45832,1,8,0:0:0:0:
387,127,45918,1,0,0:0:0:0:
217,135,46004,1,0,0:0:0:0:
213,120,46089,1,8,0:0:0:0:
213,113,46175,1,0,0:0:0:0:
213,113,46261,1,8,0:0:0:0:
381,135,46432,1,8,0:0:0:0:
457,176,46518,1,8,0:0:0:0:
457,176,46604,1,0,0:0:0:0:
364,165,46689,1,8,0:0:0:0:
421,158,46775,1,0,0:0:0:0:
251,200,46947,1,0,0:0:0:0:
409,187,47118,1,8,0:0:0:0:
213,127,47289,1,0,0:0:0:0:
352,130,47375,1,8,0:0:0:0:
293,126,47461,1,8,0:0:0:0:
223,128,47547,1,0,0:0:0:0:
306,114,47632,1,8,0:0:0:0:
345,168,47804,1,8,0:0:0:0:
345,168,47889,1,8,0:0:0:0:
382,156,47975,1,0,0:0:0:0:
382,156,48061,1,0,0:0:0:0:
396,149,48147,1,8,0:0:0:0:
247,125,48204,1,8,0:0:0:0:
392,149,48261,1,8,0:0:0:0:
287,156,48318,1,0,0:0:0:0:
337,99,48404,1,0,0:0:0:0:
443,139,48489,1,8,0:0:0:0:
336,89,48575,1,8,0:0:0:0:
287,156,48661,1,0,0:0:0:0:
287,156,48832,1,0,0:0:0:0:
224,148,48918,1,0,0:0:0:0:
224,148,49004,1,0,0:0:0:0:
416,152,49089,1,0,0:0:0:0:
361,146,49175,1,8,0:0:0:0:
427,153,49347,1,8,0:0:0:0:
373,147,49518,1,0,0:0:0:0:
251,167,49689,1,0,0:0:0:0:
299,147,49775,1,8,0:0:0:0:
299,147,49861,1,0,0:0:0:0:
225,74,49918,1,8,0:0:0:0:
382,172,49975,1,8,0:0:0:0:
422,142,50032,1,0,0:0:0:0:
423,154,50118,1,8,0:0:0:0:
392,122,50204,1,0,0:0:0:0:
391,136,50289,1,0,0:0:0:0:
301,113,50375,1,8,0:0:0:0:
376,160,50547,1,8,0:0:0:0:
363,153,50632,1,8,0:0:0:0:
382,140,50718,1,8,0:0:0:0:
256,119,50804,1,0,0:0:0:0:
447,149,50889,1,8,0:0:0:0:
428,147,51061,1,8,0:0:0:0:
296,130,51147,1,0,0:0:0:0:
219,103,51318,1,8,0:0:0:0:
387,127,51404,1,0,0:0:0:0:
217,135,51489,1,0,0:0:0:0:
213,120,51575,1,8,0:0:0:0:
213,113,51661,1,0,0:0:0:0:
213,113,51747,1,8,0:0:0:0:
243,130,51804,1,0,0:0:0:0:
270,112,51861,1,0,0:0:0:0:
381,135,51918,1,8,0:0:0:0:
457,176,52004,1,8,0:0:0:0:
457,176,52089,1,0,0:0:0:0:
364,165,52175,1,0,0:0:0:0:
421,158,52261,1,8,0:0:0:0:
251,200,52432,1,0,0:0:0:0:
160,147,52518,1,0,0:0:0:0:
409,187,52604,1,8,0:0:0:0:
213,127,52775,1,0,0:0:0:0:
352,130,52861,1,8,0:0:0:0:
293,126,52947,1,8,0:0:0:0:
223,128,53032,1,0,0:0:0:0:
306,114,53118,1,8,0:0:0:0:
345,168,53289,1,8,0:0:0:0:
345,168,53375,1,8,0:0:0:0:
382,156,53461,1,0,0:0:0:0:
382,156,53547,1,0,0:0:0:0:
396,149,53632,1,8,0:0:0:0:
247,125,53689,1,8,0:0:0:0:
392,149,53747,1,8,0:0:0:0:
287,156,53804,1,0,0:0:0:0:
337,99,53889,1,8,0:0:0:0:
443,139,53975,1,0,0:0:0:0:
336,89,54061,1,8,0:0:0:0:
287,156,54147,1,0,0:0:0:0:
278,234,54318,1,8,0:0:0:0:
224,148,54404,1,8,0:0:0:0:
224,148,54489,1,0,0:0:0:0:
361,146,54661,1,8,0:0:0:0:
427,153,54832,1,8,0:0:0:0:
315,154,54918,1,8,0:0:0:0:
349,127,55004,1,4,0:0:0:0:
256,223,55175,1,0,0:0:0:0:
327,233,55261,1,0,0:0:0:0:
159,272,55347,1,8,0:0:0:0:
159,272,55518,1,0,0:0:0:0:
256,223,55604,1,8,0:0:0:0:
306,190,55689,1,0,0:0:0:0:
272,196,55775,1,8,0:0:0:0:
272,196,55947,1,0,0:0:0:0:
269,212,56032,1,8,0:0:0:0:
399,194,56204,1,8,0:0:0:0:
399,194,56289,1,8,0:0:0:0:
422,174,56375,1,0,0:0:0:0:
422,174,56547,1,0,0:0:0:0:
272,196,56632,1,0,0:0:0:0:
458,173,56718,1,8,0:0:0:0:
216,194,56889,1,0,0:0:0:0:
216,194,56975,1,8,0:0:0:0:
296,149,57061,1,0,0:0:0:0:
394,177,57147,1,0,0:0:0:0:
394,176,57232,1,0,0:0:0:0:
408,171,57404,1,8,0:0:0:0:
408,171,57575,1,8,0:0:0:0:
418,180,57661,1,0,0:0:0:0:
416,190,57747,1,8,0:0:0:0:
268,228,57918,1,0,0:0:0:0:
268,228,58004,1,0,0:0:0:0:
388,186,58089,1,8,0:0:0:0:
352,224,58261,1,0,0:0:0:0:
353,241,58347,1,8,0:0:0:0:
386,247,58518,1,8,0:0:0:0:
350,193,58604,1,0,0:0:0:0:
373,181,58775,1,8,0:0:0:0:
331,211,58947,1,0,0:0:0:0:
391,151,59032,1,8,0:0:0:0:
331,210,59118,1,0,0:0:0:0:
414,198,59289,1,8,0:0:0:0:
184,128,59375,1,0,0:0:0:0:
391,163,59461,1,8,0:0:0:0:
291,136,59547,1,0,0:0:0:0:
348,177,59632,1,0,0:0:0:0:
379,186,59718,1,8,0:0:0:0:
199,176,59804,1,0,0:0:0:0:
386,176,59889,1,8,0:0:0:0:
286,208,59975,5,0,0:0:0:0:
390,177,60061,1,0,0:0:0:0:
353,175,60147,1,8,0:0:0:0:
410,208,60318,1,8,0:0:0:0:
258,140,60489,1,0,0:0:0:0:
338,240,60661,1,0,0:0:0:0:
338,240,60747,1,0,0:0:0:0:
384,153,60832,1,8,0:0:0:0:
384,153,61004,1,8,0:0:0:0:
408,164,61089,1,0,0:0:0:0:
444,168,61175,1,8,0:0:0:0:
444,168,61261,1,8,0:0:0:0:
453,170,61347,1,0,0:0:0:0:
304,136,61518,1,8,0:0:0:0:
421,176,61689,1,0,0:0:0:0:
420,176,61775,1,8,0:0:0:0:
393,164,61861,1,0,0:0:0:0:
392,164,62032,1,0,0:0:0:0:
393,164,62118,1,8,0:0:0:0:
393,164,62204,1,8,0:0:0:0:
381,166,62375,1,0,0:0:0:0:
434,177,62461,1,8,0:0:0:0:
418,169,62632,1,8,0:0:0:0:
365,169,62718,1,0,0:0:0:0:
392,164,62889,1,8,0:0:0:0:
416,179,63061,1,8,0:0:0:0:
306,173,63147,1,0,0:0:0:0:
368,163,63232,1,0,0:0:0:0:
294,203,63404,1,0,0:0:0:0:
294,203,63489,1,0,0:0:0:0:
400,165,63575,1,8,0:0:0:0:
228,199,63747,1,0,0:0:0:0:
370,169,63832,1,8,0:0:0:0:
389,175,63918,1,8,0:0:0:0:
228,199,64004,1,0,0:0:0:0:
400,165,64089,1,0,0:0:0:0:
411,166,64261,1,8,0:0:0:0:
380,180,64432,1,8,0:0:0:0:
318,166,64604,1,0,0:0:0:0:
172,177,64689,1,0,0:0:0:0:
406,161,64775,1,8,0:0:0:0:
293,162,64861,1,0,0:0:0:0:
293,162,64947,1,8,0:0:0:0:
292,156,65118,1,0,0:0:0:0:
391,162,65204,1,8,0:0:0:0:
411,168,65289,1,0,0:0:0:0:
335,153,65332,1,0,0:0:0:0:
399,161,65375,1,8,0:0:0:0:
434,161,65461,1,0,0:0:0:0:
382,154,65632,1,8,0:0:0:0:
394,188,65804,1,8,0:0:0:0:
403,165,65889,1,8,0:0:0:0:
331,169,65975,1,4,0:0:0:0:
256,223,66147,1,0,0:0:0:0:
327,233,66232,1,0,0:0:0:0:
159,272,66318,1,8,0:0:0:0:
159,272,66404,1,0,0:0:0:0:
256,223,66575,1,8,0:0:0:0:
306,190,66661,1,0,0:0:0:0:
272,196,66747,1,8,0:0:0:0:
272,196,66832,1,0,0:0:0:0:
269,212,67004,1,8,0:0:0:0:
399,194,67175,1,8,0:0:0:0:
399,194,67261,1,8,0:0:0:0:
422,174,67347,1,0,0:0:0:0:
422,174,67518,1,0,0:0:0:0:
272,196,67604,1,0,0:0:0:0:
458,173,67689,1,8,0:0:0:0:
216,194,67861,1,0,0:0:0:0:
216,194,67947,1,8,0:0:0:0:
296,149,68032,1,8,0:0:0:0:
394,177,68118,1,0,0:0:0:0:
305,176,68289,1,0,0:0:0:0:
408,171,68375,1,8,0:0:0:0:
408,171,68547,1,8,0:0:0:0:
418,180,68632,1,0,0:0:0:0:
416,190,68718,1,8,0:0:0:0:
370,190,68804,1,0,0:0:0:0:
268,228,68889,1,0,0:0:0:0:
268,228,68975,1,0,0:0:0:0:
388,186,69061,1,8,0:0:0:0:
352,224,69232,1,0,0:0:0:0:
353,241,69318,1,8,0:0:0:0:
386,247,69489,1,8,0:0:0:0:
350,193,69575,1,0,0:0:0:0:
373,181,69747,1,8,0:0:0:0:
331,211,69918,1,0,0:0:0:0:
244,152,70004,1,0,0:0:0:0:
331,210,70089,1,0,0:0:0:0:
414,198,70261,1,8,0:0:0:0:
423,163,70347,1,0,0:0:0:0:
391,163,70432,1,8,0:0:0:0:
370,190,70518,1,0,0:0:0:0:
379,186,70689,1,0,0:0:0:0:
348,177,70775,1,8,0:0:0:0:
386,176,70861,1,8,0:0:0:0:
390,177,70947,1,0,0:0:0:0:
353,175,71118,1,8,0:0:0:0:
258,140,71289,1,0,0:0:0:0:
360,147,71375,1,8,0:0:0:0:
258,140,71461,1,0,0:0:0:0:
240,151,71547,1,0,0:0:0:0:
338,240,71632,1,0,0:0:0:0:
338,240,71718,1,0,0:0:0:0:
384,153,71804,1,8,0:0:0:0:
391,189,71975,1,0,0:0:0:0:
356,152,72061,1,8,0:0:0:0:
444,168,72232,1,8,0:0:0:0:
453,170,72318,1,0,0:0:0:0:
400,271,72489,1,8,0:0:0:0:
421,176,72661,1,8,0:0:0:0:
420,176,72747,1,8,0:0:0:0:
393,164,72832,1,0,0:0:0:0:
392,164,73004,1,0,0:0:0:0:
283,137,73089,1,0,0:0:0:0:
393,164,73175,1,8,0:0:0:0:
381,166,73347,1,0,0:0:0:0:
434,177,73432,1,8,0:0:0:0:
418,169,73604,1,8,0:0:0:0:
365,169,73689,1,0,0:0:0:0:
392,164,73861,1,8,0:0:0:0:
416,179,74032,1,0,0:0:0:0:
441,177,74118,1,0,0:0:0:0:
368,163,74204,1,8,0:0:0:0:
203,34,74289,1,0,0:0:0:0:
294,203,74461,1,8,0:0:0:0:
400,165,74547,1,0,0:0:0:0:
228,199,74718,1,0,0:0:0:0:
370,169,74804,1,0,0:0:0:0:
389,175,74889,1,8,0:0:0:0:
228,199,74975,1,0,0:0:0:0:
400,165,75061,1,0,0:0:0:0:
286,142,75147,1,0,0:0:0:0:
411,166,75232,1,8,0:0:0:0:
396,182,75404,1,0,0:0:0:0:
172,177,75575,1,8,0:0:0:0:
406,161,75747,1,0,0:0:0:0:
293,162,75832,1,0,0:0:0:0:
293,162,75918,1,8,0:0:0:0:
292,156,76089,1,0,0:0:0:0:
391,162,76175,1,8,0:0:0:0:
411,168,76261,1,0,0:0:0:0:
399,161,76347,1,8,0:0:0:0:
434,161,76432,1,0,0:0:0:0:
229,135,76518,1,0,0:0:0:0:
382,154,76604,1,8,0:0:0:0:
431,165,76775,1,0,0:0:0:0:
372,145,76947,1,8,0:0:0:0:
387,151,77032,1,8,0:0:0:0:
387,151,77118,1,8,0:0:0:0:
451,167,77204,1,0,0:0:0:0:
420,197,77461,1,0,0:0:0:0:
319,170,77632,1,8,0:0:0:0:
319,170,77718,1,8,0:0:0:0:
319,170,77804,1,8,0:0:0:0:
400,171,77889,1,0,0:0:0:0:
400,171,78147,1,0,0:0:0:0:
480,169,78318,1,8,0:0:0:0:
456,177,78404,1,0,0:0:0:0:
456,177,78489,1,0,0:0:0:0:
404,151,78575,1,8,0:0:0:0:
355,183,78832,1,0,0:0:0:0:
415,171,79004,1,8,0:0:0:0:
307,186,79089,1,0,0:0:0:0:
307,186,79175,1,0,0:0:0:0:
307,186,79261,1,8,0:0:0:0:
130,88,79347,1,0,0:0:0:0:
302,161,79404,1,8,0:0:0:0:
197,137,79461,1,8,0:0:0:0:
352,164,79518,1,0,0:0:0:0:
277,144,79604,1,8,0:0:0:0:
370,137,79689,1,0,0:0:0:0:
208,32,79861,1,0,0:0:0:0:
352,164,79947,1,0,0:0:0:0:
326,121,80032,1,8,0:0:0:0:
322,63,80075,1,8,0:0:0:0:
326,121,80204,1,8,0:0:0:0:
414,161,80289,1,0,0:0:0:0:
442,166,80375,1,8,0:0:0:0:
172,124,80432,1,8,0:0:0:0:
400,186,80489,1,8,0:0:0:0:
373,167,80547,1,0,0:0:0:0:
367,154,80718,1,8,0:0:0:0:
184,71,80804,1,8,0:0:0:0:
419,174,80889,1,0,0:0:0:0:
376,38,80947,1,0,0:0:0:0:
349,102,81004,1,0,0:0:0:0:
415,156,81061,1,8,0:0:0:0:
288,179,81232,1,0,0:0:0:0:
288,179,81404,1,0,0:0:0:0:
482,171,81489,1,8,0:0:0:0:
368,183,81575,1,0,0:0:0:0:
368,183,81661,1,0,0:0:0:0:
444,176,81747,1,8,0:0:0:0:
217,193,81789,1,8,0:0:0:0:
250,169,81918,1,8,0:0:0:0:
250,169,81961,1,8,0:0:0:0:
389,171,82089,1,0,0:0:0:0:
420,261,82261,1,0,0:0:0:0:
291,149,82318,1,0,0:0:0:0:
291,149,82375,1,0,0:0:0:0:
336,152,82432,1,8,0:0:0:0:
284,191,82518,1,0,0:0:0:0:
378,172,82604,1,8,0:0:0:0:
389,171,82689,1,0,0:0:0:0:
435,166,82775,1,0,0:0:0:0:
446,174,82947,1,8,0:0:0:0:
435,166,83032,1,0,0:0:0:0:
306,164,83118,1,0,0:0:0:0:
421,195,83204,1,8,0:0:0:0:
435,166,83289,1,0,0:0:0:0:
435,166,83375,1,0,0:0:0:0:
442,163,83461,1,8,0:0:0:0:
441,163,83518,1,8,0:0:0:0:
441,163,83575,1,8,0:0:0:0:
331,186,83632,1,0,0:0:0:0:
272,162,83718,1,0,0:0:0:0:
423,175,83804,1,8,0:0:0:0:
225,223,83975,1,0,0:0:0:0:
225,223,84061,1,0,0:0:0:0:
359,197,84147,1,8,0:0:0:0:
359,197,84232,1,8,0:0:0:0:
383,178,84318,1,0,0:0:0:0:
383,178,84404,1,0,0:0:0:0:
364,171,84489,1,8,0:0:0:0:
394,175,84832,1,0,0:0:0:0:
390,162,85004,1,8,0:0:0:0:
432,191,85175,1,4,0:0:0:0:
443,191,85518,1,8,0:0:0:0:
280,135,85689,1,0,0:0:0:0:
280,135,85775,1,0,0:0:0:0:
386,180,85861,1,0,0:0:0:0:
414,171,86032,1,8,0:0:0:0:
386,180,86204,1,0,0:0:0:0:
461,179,86289,1,8,0:0:0:0:
432,178,86375,1,0,0:0:0:0:
432,178,86461,1,8,0:0:0:0:
394,170,86504,1,8,0:0:0:0:
144,163,86547,1,0,0:0:0:0:
377,152,86718,1,8,0:0:0:0:
375,140,86889,1,0,0:0:0:0:
368,116,87061,1,0,0:0:0:0:
478,159,87147,1,0,0:0:0:0:
344,142,87232,1,8,0:0:0:0:
392,157,87404,1,0,0:0:0:0:
376,161,87489,1,0,0:0:0:0:
352,154,87575,1,8,0:0:0:0:
443,161,87747,1,0,0:0:0:0:
261,140,87804,1,8,0:0:0:0:
261,140,87861,1,8,0:0:0:0:
443,161,87918,1,0,0:0:0:0:
372,208,88089,1,0,0:0:0:0:
395,184,88261,1,8,0:0:0:0:
370,214,88432,1,0,0:0:0:0:
370,214,88518,1,0,0:0:0:0:
329,148,88775,1,8,0:0:0:0:
329,148,88818,1,8,0:0:0:0:
382,172,88947,1,8,0:0:0:0:
382,172,88989,1,8,0:0:0:0:
418,181,89118,1,0,0:0:0:0:
502,176,89175,1,0,0:0:0:0:
502,176,89232,1,0,0:0:0:0:
408,171,89289,1,8,0:0:0:0:
239,171,89461,1,8,0:0:0:0:
239,171,89547,1,0,0:0:0:0:
239,171,89632,1,8,0:0:0:0:
239,171,89718,1,0,0:0:0:0:
239,171,89804,1,0,0:0:0:0:
239,171,89889,1,0,0:0:0:0:
239,171,89975,1,8,0:0:0:0:
239,171,90061,1,0,0:0:0:0:
240,179,90147,1,0,0:0:0:0:
307,202,90232,1,8,0:0:0:0:
328,93,90404,1,0,0:0:0:0:
460,175,90489,1,8,0:0:0:0:
222,171,90532,1,8,0:0:0:0:
332,189,90575,1,8,0:0:0:0:
503,346,90661,1,0,0:0:0:0:
329,201,90832,1,0,0:0:0:0:
338,164,90889,1,0,0:0:0:0:
348,161,90947,1,8,0:0:0:0:
390,199,91004,5,8,0:0:0:0:
379,193,91175,1,0,0:0:0:0:
348,95,91261,1,0,0:0:0:0:
423,173,91347,1,0,0:0:0:0:
445,170,91518,1,8,0:0:0:0:
496,176,91689,1,0,0:0:0:0:
486,184,91775,1,8,0:0:0:0:
403,203,91861,1,0,0:0:0:0:
314,138,91947,1,8,0:0:0:0:
314,138,91989,1,8,0:0:0:0:
434,177,92032,1,0,0:0:0:0:
338,132,92118,1,0,0:0:0:0:
434,174,92204,1,8,0:0:0:0:
307,119,92261,1,8,0:0:0:0:
307,118,92318,1,8,0:0:0:0:
384,153,92375,1,0,0:0:0:0:
428,184,92547,1,0,0:0:0:0:
428,184,92632,1,0,0:0:0:0:
417,184,92889,1,8,0:0:0:0:
368,192,92975,1,0,0:0:0:0:
303,224,93061,1,0,0:0:0:0:
357,202,93232,1,8,0:0:0:0:
409,199,93404,1,0,0:0:0:0:
344,288,93489,1,0,0:0:0:0:
344,288,93575,1,0,0:0:0:0:
333,201,93747,1,8,0:0:0:0:
335,153,93804,1,8,0:0:0:0:
335,153,93861,1,8,0:0:0:0:
368,172,93918,1,0,0:0:0:0:
230,157,94004,1,8,0:0:0:0:
230,157,94047,1,8,0:0:0:0:
374,180,94089,1,0,0:0:0:0:
398,180,94175,1,8,0:0:0:0:
425,188,94261,1,0,0:0:0:0:
405,171,94347,1,8,0:0:0:0:
403,176,94432,1,0,0:0:0:0:
403,175,94518,1,0,0:0:0:0:
450,182,94604,1,8,0:0:0:0:
341,181,94775,1,8,0:0:0:0:
286,114,94818,1,8,0:0:0:0:
414,191,94947,1,0,0:0:0:0:
425,188,95032,1,0,0:0:0:0:
321,156,95118,1,0,0:0:0:0:
440,184,95289,1,8,0:0:0:0:
315,109,95332,1,8,0:0:0:0:
371,192,95461,1,0,0:0:0:0:
291,283,95632,1,0,0:0:0:0:
247,77,95804,1,8,0:0:0:0:
291,283,95975,1,0,0:0:0:0:
286,181,96147,1,12,0:0:0:0:
286,181,96489,1,12,0:0:0:0:
433,195,96832,1,4,0:0:0:0:
387,160,97004,1,8,0:0:0:0:
419,190,97089,1,4,0:0:0:0:
387,160,97261,1,8,0:0:0:0:
419,190,97347,1,4,0:0:0:0:
423,192,97518,1,12,0:0:0:0:
433,195,97689,1,0,0:0:0:0:
406,144,97775,1,12,0:0:0:0:
390,168,97947,1,12,0:0:0:0:
390,168,98032,1,12,0:0:0:0:
390,168,98204,1,0,0:0:0:0:
334,195,98289,1,8,0:0:0:0:
390,168,98375,1,0,0:0:0:0:
357,192,98547,1,8,0:0:0:0:
379,196,98718,1,8,0:0:0:0:
328,215,98889,1,4,0:0:0:0:
328,214,99061,1,4,0:0:0:0:
359,209,99232,1,0,0:0:0:0:
352,174,99318,1,8,0:0:0:0:
429,150,99404,1,0,0:0:0:0:
383,168,99489,1,8,0:0:0:0:
429,171,99575,1,0,0:0:0:0:
382,173,99661,1,8,0:0:0:0:
351,184,99832,1,0,0:0:0:0:
414,181,99918,1,8,0:0:0:0:
279,248,100089,1,8,0:0:0:0:
395,146,100261,1,4,0:0:0:0:
348,173,100432,1,0,0:0:0:0:
355,301,100518,1,8,0:0:0:0:
341,198,100604,1,0,0:0:0:0:
380,181,100689,1,8,0:0:0:0:
399,204,100775,1,0,0:0:0:0:
399,204,100861,1,0,0:0:0:0:
328,179,100947,1,12,0:0:0:0:
328,179,101118,1,4,0:0:0:0:
484,142,101289,1,12,0:0:0:0:
391,164,101461,1,12,0:0:0:0:
373,211,101632,1,4,0:0:0:0:
380,206,101804,1,8,0:0:0:0:
272,116,101975,1,0,0:0:0:0:
272,116,102061,1,0,0:0:0:0:
339,123,102147,1,0,0:0:0:0:
339,123,102232,1,0,0:0:0:0:
339,123,102318,1,8,0:0:0:0:
327,184,102489,1,0,0:0:0:0:
397,180,102661,1,8,0:0:0:0:
339,222,102832,1,0,0:0:0:0:
384,186,103004,1,12,0:0:0:0:
333,115,103261,1,4,0:0:0:0:
339,168,103518,1,12,0:0:0:0:
309,144,103689,1,8,0:0:0:0:
383,157,103775,1,0,0:0:0:0:
389,174,103861,1,0,0:0:0:0:
413,171,103947,1,8,0:0:0:0:
276,160,104032,1,0,0:0:0:0:
276,160,104118,1,0,0:0:0:0:
411,173,104204,1,8,0:0:0:0:
411,173,104289,1,8,0:0:0:0:
384,148,104375,1,4,0:0:0:0:
400,188,104547,1,4,0:0:0:0:
400,187,104718,1,4,0:0:0:0:
408,193,104889,1,4,0:0:0:0:
222,109,105061,1,8,0:0:0:0:
384,160,105118,1,8,0:0:0:0:
384,159,105175,1,8,0:0:0:0:
267,148,105232,1,0,0:0:0:0:
318,151,105404,1,0,0:0:0:0:
371,181,105575,1,8,0:0:0:0:
331,160,105632,1,8,0:0:0:0:
331,159,105689,1,8,0:0:0:0:
331,159,105747,1,8,0:0:0:0:
423,165,105918,1,0,0:0:0:0:
347,186,106089,1,8,0:0:0:0:
347,186,106261,1,0,0:0:0:0:
386,180,106347,1,0,0:0:0:0:
446,174,106432,1,8,0:0:0:0:
362,171,106604,1,0,0:0:0:0:
360,166,106689,1,0,0:0:0:0:
331,162,106775,1,8,0:0:0:0:
328,155,106818,1,8,0:0:0:0:
259,144,106861,1,8,0:0:0:0:
360,165,106947,1,0,0:0:0:0:
364,160,107118,5,4,0:0:0:0:
408,158,107804,1,8,0:0:0:0:
384,166,108489,1,4,0:0:0:0:
418,211,109175,1,8,0:0:0:0:
408,196,109518,1,8,0:0:0:0:
411,191,109861,1,4,0:0:0:0:
251,167,110032,1,0,0:0:0:0:
299,147,110118,1,0,0:0:0:0:
299,147,110204,1,8,0:0:0:0:
225,74,110261,1,0,0:0:0:0:
382,172,110318,1,0,0:0:0:0:
422,142,110375,1,8,0:0:0:0:
423,154,110461,1,8,0:0:0:0:
392,122,110547,1,0,0:0:0:0:
391,136,110632,1,0,0:0:0:0:
301,113,110718,1,8,0:0:0:0:
376,160,110889,1,8,0:0:0:0:
363,153,110975,1,8,0:0:0:0:
382,140,111061,1,8,0:0:0:0:
256,119,111147,1,0,0:0:0:0:
447,149,111232,1,8,0:0:0:0:
428,147,111404,1,8,0:0:0:0:
296,130,111489,1,0,0:0:0:0:
219,103,111661,1,8,0:0:0:0:
387,127,111747,1,0,0:0:0:0:
217,135,111832,1,0,0:0:0:0:
213,120,111918,1,8,0:0:0:0:
213,113,112004,1,0,0:0:0:0:
213,113,112089,1,8,0:0:0:0:
381,135,112261,1,8,0:0:0:0:
457,176,112347,1,8,0:0:0:0:
457,176,112432,1,0,0:0:0:0:
364,165,112518,1,8,0:0:0:0:
421,158,112604,1,0,0:0:0:0:
251,200,112775,1,0,0:0:0:0:
409,187,112947,1,8,0:0:0:0:
213,127,113118,1,0,0:0:0:0:
352,130,113204,1,8,0:0:0:0:
293,126,113289,1,8,0:0:0:0:
223,128,113375,1,0,0:0:0:0:
306,114,113461,1,8,0:0:0:0:
345,168,113632,1,8,0:0:0:0:
345,168,113718,1,8,0:0:0:0:
382,156,113804,1,0,0:0:0:0:
382,156,113889,1,0,0:0:0:0:
396,149,113975,1,8,0:0:0:0:
247,125,114032,1,0,0:0:0:0:
392,149,114089,1,8,0:0:0:0:
287,156,114147,1,0,0:0:0:0:
337,99,114232,1,0,0:0:0:0:
443,139,114318,1,8,0:0:0:0:
336,89,114404,1,8,0:0:0:0:
287,156,114489,1,0,0:0:0:0:
287,156,114661,1,0,0:0:0:0:
224,148,114747,1,0,0:0:0:0:
224,148,114832,1,0,0:0:0:0:
416,152,114918,1,0,0:0:0:0:
361,146,115004,1,8,0:0:0:0:
427,153,115175,1,8,0:0:0:0:
373,147,115347,1,0,0:0:0:0:
251,167,115518,1,0,0:0:0:0:
299,147,115604,1,8,0:0:0:0:
299,147,115689,1,0,0:0:0:0:
225,74,115747,1,8,0:0:0:0:
382,172,115804,1,8,0:0:0:0:
422,142,115861,1,0,0:0:0:0:
423,154,115947,1,8,0:0:0:0:
392,122,116032,1,0,0:0:0:0:
391,136,116118,1,0,0:0:0:0:
301,113,116204,1,8,0:0:0:0:
376,160,116375,1,8,0:0:0:0:
363,153,116461,1,8,0:0:0:0:
382,140,116547,1,0,0:0:0:0:
256,119,116632,1,0,0:0:0:0:
447,149,116718,1,8,0:0:0:0:
428,147,116889,1,8,0:0:0:0:
296,130,116975,1,0,0:0:0:0:
219,103,117147,1,8,0:0:0:0:
387,127,117232,1,0,0:0:0:0:
217,135,117318,1,0,0:0:0:0:
213,120,117404,1,8,0:0:0:0:
213,113,117489,1,0,0:0:0:0:
213,113,117575,1,8,0:0:0:0:
243,130,117632,1,8,0:0:0:0:
270,112,117689,1,0,0:0:0:0:
381,135,117747,1,8,0:0:0:0:
457,176,117832,1,8,0:0:0:0:
457,176,117918,1,0,0:0:0:0:
364,165,118004,1,0,0:0:0:0:
421,158,118089,1,8,0:0:0:0:
251,200,118261,1,0,0:0:0:0:
160,147,118347,1,0,0:0:0:0:
409,187,118432,1,8,0:0:0:0:
213,127,118604,1,0,0:0:0:0:
352,130,118689,1,8,0:0:0:0:
293,126,118775,1,8,0:0:0:0:
223,128,118861,1,0,0:0:0:0:
306,114,118947,1,8,0:0:0:0:
345,168,119118,1,8,0:0:0:0:
345,168,119204,1,8,0:0:0:0:
382,156,119289,1,0,0:0:0:0:
382,156,119375,1,0,0:0:0:0:
396,149,119461,1,8,0:0:0:0:
247,125,119518,1,8,0:0:0:0:
392,149,119575,1,8,0:0:0:0:
287,156,119632,1,0,0:0:0:0:
337,99,119718,1,8,0:0:0:0:
443,139,119804,1,0,0:0:0:0:
336,89,119889,1,8,0:0:0:0:
287,156,119975,1,0,0:0:0:0:
278,234,120147,1,8,0:0:0:0:
224,148,120232,1,8,0:0:0:0:
224,148,120318,1,0,0:0:0:0:
361,146,120489,1,8,0:0:0:0:
427,153,120661,1,8,0:0:0:0:
315,154,120747,1,8,0:0:0:0:
349,127,120832,1,4,0:0:0:0:
415,207,121175,1,8,0:0:0:0:
238,174,121518,1,0,0:0:0:0:
425,203,121861,1,0,0:0:0:0:
401,214,122204,1,0,0:0:0:0:
367,240,122547,1,8,0:0:0:0:
258,184,122889,1,0,0:0:0:0:
258,184,123232,1,0,0:0:0:0:
417,219,123404,1,0,0:0:0:0:
411,195,123575,1,8,0:0:0:0:
464,188,123661,1,0,0:0:0:0:
376,208,123832,1,8,0:0:0:0:
468,182,123918,1,0,0:0:0:0:
254,173,124089,1,8,0:0:0:0:
301,168,124175,1,0,0:0:0:0:
201,160,124261,1,0,0:0:0:0:
374,187,124604,1,8,0:0:0:0:
343,167,124947,1,0,0:0:0:0:
280,210,125118,1,0,0:0:0:0:
421,174,125289,1,8,0:0:0:0:
368,200,125461,1,0,0:0:0:0:
408,189,125547,1,8,0:0:0:0:
369,209,125718,1,8,0:0:0:0:
353,201,125975,1,0,0:0:0:0:
365,241,126147,1,0,0:0:0:0:
461,191,126318,1,8,0:0:0:0:
384,197,126404,1,0,0:0:0:0:
391,186,126575,1,8,0:0:0:0:
272,157,126661,1,0,0:0:0:0:
344,186,126832,1,8,0:0:0:0:
349,184,126918,1,0,0:0:0:0:
349,184,127004,1,0,0:0:0:0:
385,185,127347,1,8,0:0:0:0:
335,192,127689,1,0,0:0:0:0:
335,192,128032,1,0,0:0:0:0:
335,192,128375,1,0,0:0:0:0:
319,176,128547,1,0,0:0:0:0:
388,157,128718,1,8,0:0:0:0:
345,152,128889,1,0,0:0:0:0:
432,176,129061,1,8,0:0:0:0:
183,176,129147,1,0,0:0:0:0:
319,160,129318,1,8,0:0:0:0:
376,180,129404,1,0,0:0:0:0:
407,190,129575,1,8,0:0:0:0:
411,174,129661,1,0,0:0:0:0:
411,174,129747,1,0,0:0:0:0:
396,170,130089,1,0,0:0:0:0:
362,184,130261,1,8,0:0:0:0:
429,168,130432,1,0,0:0:0:0:
407,190,130518,1,0,0:0:0:0:
404,188,130604,1,0,0:0:0:0:
429,169,130775,1,8,0:0:0:0:
424,178,130947,1,0,0:0:0:0:
372,198,131032,1,8,0:0:0:0:
385,194,131118,1,0,0:0:0:0:
411,178,131204,1,8,0:0:0:0:
456,181,131289,1,0,0:0:0:0:
432,175,131461,1,8,0:0:0:0:
432,175,131632,1,8,0:0:0:0:
421,203,131804,1,0,0:0:0:0:
420,194,131889,1,0,0:0:0:0:
340,254,131975,1,0,0:0:0:0:
343,163,132061,1,8,0:0:0:0:
283,169,132147,1,0,0:0:0:0:
300,212,132318,1,0,0:0:0:0:
427,176,132404,1,0,0:0:0:0:
457,180,132489,1,8,0:0:0:0:
457,180,132575,1,8,0:0:0:0:
392,194,132747,1,8,0:0:0:0:
259,151,132832,1,0,0:0:0:0:
420,193,133004,1,0,0:0:0:0:
428,188,133089,1,8,0:0:0:0:
406,184,133175,1,0,0:0:0:0:
279,152,133261,1,0,0:0:0:0:
402,156,133347,1,8,0:0:0:0:
402,156,133432,1,8,0:0:0:0:
365,149,133518,1,0,0:0:0:0:
419,188,133689,1,0,0:0:0:0:
461,158,133775,1,8,0:0:0:0:
407,156,133861,1,0,0:0:0:0:
341,165,133947,1,8,0:0:0:0:
365,182,134118,1,0,0:0:0:0:
375,168,134204,1,8,0:0:0:0:
375,168,134375,1,8,0:0:0:0:
375,168,134461,1,8,0:0:0:0:
429,159,134547,1,0,0:0:0:0:
425,107,134632,1,0,0:0:0:0:
256,143,134718,1,0,0:0:0:0:
453,166,134889,1,8,0:0:0:0:
436,168,135061,1,0,0:0:0:0:
453,166,135147,1,8,0:0:0:0:
436,168,135232,1,0,0:0:0:0:
400,167,135318,1,8,0:0:0:0:
377,210,135404,1,0,0:0:0:0:
177,98,135489,1,0,0:0:0:0:
395,129,135575,1,8,0:0:0:0:
306,205,135747,5,0,0:0:0:0:
293,120,135832,1,8,0:0:0:0:
462,166,135918,1,0,0:0:0:0:
247,162,136004,1,0,0:0:0:0:
462,166,136089,1,0,0:0:0:0:
389,169,136261,1,8,0:0:0:0:
304,144,136432,1,0,0:0:0:0:
414,170,136518,1,8,0:0:0:0:
414,170,136604,1,8,0:0:0:0:
414,170,136689,1,8,0:0:0:0:
471,163,136775,1,0,0:0:0:0:
453,165,136861,1,0,0:0:0:0:
468,168,136947,1,8,0:0:0:0:
453,165,137118,1,0,0:0:0:0:
462,168,137204,1,8,0:0:0:0:
510,172,137289,1,0,0:0:0:0:
510,172,137461,1,0,0:0:0:0:
443,168,137632,1,8,0:0:0:0:
243,145,137804,1,0,0:0:0:0:
468,168,137889,1,8,0:0:0:0:
243,145,137975,1,0,0:0:0:0:
489,168,138061,1,8,0:0:0:0:
424,176,138147,1,0,0:0:0:0:
445,183,138232,1,0,0:0:0:0:
458,176,138318,1,8,0:0:0:0:
404,172,138489,1,8,0:0:0:0:
401,169,138575,1,8,0:0:0:0:
346,189,138661,1,0,0:0:0:0:
346,189,138832,1,0,0:0:0:0:
391,171,139004,1,8,0:0:0:0:
391,171,139175,1,8,0:0:0:0:
368,287,139261,1,0,0:0:0:0:
418,195,139347,1,8,0:0:0:0:
370,267,139432,1,0,0:0:0:0:
342,198,139518,1,0,0:0:0:0:
418,195,139689,1,8,0:0:0:0:
446,187,139861,1,0,0:0:0:0:
313,180,139947,1,8,0:0:0:0:
446,187,140032,1,0,0:0:0:0:
301,169,140204,1,0,0:0:0:0:
287,87,140289,1,8,0:0:0:0:
448,173,140375,1,8,0:0:0:0:
472,175,140547,1,0,0:0:0:0:
471,183,140632,1,8,0:0:0:0:
472,175,140718,1,0,0:0:0:0:
471,183,140804,1,8,0:0:0:0:
406,179,140889,1,0,0:0:0:0:
259,161,141061,1,0,0:0:0:0:
439,183,141232,1,8,0:0:0:0:
485,179,141404,1,0,0:0:0:0:
485,179,141489,1,0,0:0:0:0:
485,179,141575,1,0,0:0:0:0:
418,193,141661,1,0,0:0:0:0:
439,183,141747,1,8,0:0:0:0:
430,192,141832,1,0,0:0:0:0:
440,173,141918,1,8,0:0:0:0:
439,173,142004,1,8,0:0:0:0:
405,182,142089,1,0,0:0:0:0:
402,164,142175,1,8,0:0:0:0:
405,182,142261,1,0,0:0:0:0:
422,168,142347,1,0,0:0:0:0:
472,171,142432,1,8,0:0:0:0:
472,171,142604,1,8,0:0:0:0:
428,185,142775,1,0,0:0:0:0:
396,224,142861,1,8,0:0:0:0:
396,224,142947,1,8,0:0:0:0:
484,185,143032,1,0,0:0:0:0:
444,192,143204,1,0,0:0:0:0:
445,193,143289,1,8,0:0:0:0:
464,184,143461,1,8,0:0:0:0:
393,196,143547,1,0,0:0:0:0:
393,196,143632,1,0,0:0:0:0:
464,184,143718,1,8,0:0:0:0:
393,196,143975,1,0,0:0:0:0:
368,172,144147,1,8,0:0:0:0:
348,165,144232,1,0,0:0:0:0:
368,172,144318,1,8,0:0:0:0:
349,165,144404,1,0,0:0:0:0:
395,179,144489,1,8,0:0:0:0:
395,179,144575,1,8,0:0:0:0:
474,174,144661,1,0,0:0:0:0:
419,273,144747,1,0,0:0:0:0:
416,192,144832,1,8,0:0:0:0:
416,192,144918,1,8,0:0:0:0:
416,192,145004,1,8,0:0:0:0:
448,192,145089,1,0,0:0:0:0:
448,192,145175,1,0,0:0:0:0:
372,127,145347,1,8,0:0:0:0:
181,133,145404,1,0,0:0:0:0:
181,133,145461,1,0,0:0:0:0:
448,224,145518,1,8,0:0:0:0:
416,192,145689,1,0,0:0:0:0:
416,192,145775,1,0,0:0:0:0:
416,192,145861,1,0,0:0:0:0:
352,256,146032,1,8,0:0:0:0:
448,192,146204,1,0,0:0:0:0:
480,192,146289,1,8,0:0:0:0:
448,192,146375,1,0,0:0:0:0:
480,192,146547,1,8,0:0:0:0:
512,160,146718,1,8,0:0:0:0:
512,160,146804,1,8,0:0:0:0:
480,192,146889,1,0,0:0:0:0:
301,140,146932,1,0,0:0:0:0:
358,164,147061,1,8,0:0:0:0:
358,164,147104,1,8,0:0:0:0:
480,192,147232,1,0,0:0:0:0:
160,144,147275,1,0,0:0:0:0:
314,139,147404,1,8,0:0:0:0:
312,138,147447,1,8,0:0:0:0:
416,192,147575,1,0,0:0:0:0:
405,131,147632,1,0,0:0:0:0:
307,118,147689,1,8,0:0:0:0:
416,192,147747,1,8,0:0:0:0:
278,120,147804,1,0,0:0:0:0:
329,259,147861,1,0,0:0:0:0:
416,192,147918,1,8,0:0:0:0:
480,192,148089,1,0,0:0:0:0:
512,160,148175,1,8,0:0:0:0:
416,160,148261,1,8,0:0:0:0:
384,192,148347,1,0,0:0:0:0:
384,192,148432,1,0,0:0:0:0:
448,192,148518,1,0,0:0:0:0:
448,160,148604,1,8,0:0:0:0:
416,192,148689,1,0,0:0:0:0:
416,192,148775,1,0,0:0:0:0:
480,160,148861,1,8,0:0:0:0:
448,160,148947,1,0,0:0:0:0:
352,160,149032,1,0,0:0:0:0:
384,160,149118,1,8,0:0:0:0:
448,160,149204,1,8,0:0:0:0:
448,160,149289,1,0,0:0:0:0:
352,160,149375,1,8,0:0:0:0:
384,160,149461,1,0,0:0:0:0:
448,160,149547,1,8,0:0:0:0:
480,160,149632,1,0,0:0:0:0:
384,192,149718,1,0,0:0:0:0:
384,192,149804,1,0,0:0:0:0:
384,192,149889,1,0,0:0:0:0:
384,192,149975,1,0,0:0:0:0:
384,192,150061,1,0,0:0:0:0:
384,192,150147,1,0,0:0:0:0:
384,192,150232,1,0,0:0:0:0:
384,192,150318,1,0,0:0:0:0:
256,192,150661,12,8,151004,0:0:0:0:
416,192,153404,5,12,0:0:0:0:
443,161,153747,1,4,0:0:0:0:
372,208,153918,1,0,0:0:0:0:
395,184,154089,1,8,0:0:0:0:
370,214,154261,1,0,0:0:0:0:
370,214,154347,1,0,0:0:0:0:
329,148,154604,1,8,0:0:0:0:
329,148,154647,1,8,0:0:0:0:
382,172,154775,1,8,0:0:0:0:
382,172,154818,1,8,0:0:0:0:
418,181,154947,1,0,0:0:0:0:
502,176,155004,1,0,0:0:0:0:
502,176,155061,1,0,0:0:0:0:
408,171,155118,1,8,0:0:0:0:
239,171,155289,1,8,0:0:0:0:
239,171,155375,1,0,0:0:0:0:
239,171,155461,1,8,0:0:0:0:
400,147,155504,1,8,0:0:0:0:
239,171,155547,1,0,0:0:0:0:
239,171,155632,1,0,0:0:0:0:
239,171,155718,1,0,0:0:0:0:
239,171,155804,1,8,0:0:0:0:
239,171,155889,1,0,0:0:0:0:
307,202,156061,1,8,0:0:0:0:
328,93,156232,1,0,0:0:0:0:
460,175,156318,1,8,0:0:0:0:
380,137,156361,1,8,0:0:0:0:
360,183,156404,1,8,0:0:0:0:
503,346,156489,1,0,0:0:0:0:
329,201,156661,1,0,0:0:0:0:
338,164,156718,1,0,0:0:0:0:
348,161,156775,1,8,0:0:0:0:
390,199,156832,5,8,0:0:0:0:
379,193,157004,1,0,0:0:0:0:
348,95,157089,1,0,0:0:0:0:
423,173,157175,1,0,0:0:0:0:
445,170,157347,1,8,0:0:0:0:
496,176,157518,1,0,0:0:0:0:
486,184,157604,1,8,0:0:0:0:
403,203,157689,1,0,0:0:0:0:
314,138,157747,1,8,0:0:0:0:
314,138,157804,1,8,0:0:0:0:
434,177,157861,1,0,0:0:0:0:
338,132,157947,1,0,0:0:0:0:
434,174,158032,1,0,0:0:0:0:
307,118,158118,1,8,0:0:0:0:
384,153,158204,1,0,0:0:0:0:
480,160,158289,1,0,0:0:0:0:
428,184,158375,1,8,0:0:0:0:
428,184,158547,1,8,0:0:0:0:
288,160,158632,1,0,0:0:0:0:
417,184,158718,1,8,0:0:0:0:
480,160,158804,1,8,0:0:0:0:
303,224,158889,1,0,0:0:0:0:
357,202,159061,1,8,0:0:0:0:
409,199,159232,1,0,0:0:0:0:
344,288,159318,1,0,0:0:0:0:
344,288,159404,1,0,0:0:0:0:
333,201,159575,1,8,0:0:0:0:
335,153,159632,1,8,0:0:0:0:
335,153,159689,1,0,0:0:0:0:
368,172,159747,1,0,0:0:0:0:
128,192,159832,1,0,0:0:0:0:
384,160,159918,1,8,0:0:0:0:
405,171,160089,1,8,0:0:0:0:
403,176,160261,1,0,0:0:0:0:
403,175,160347,1,8,0:0:0:0:
450,182,160432,1,0,0:0:0:0:
288,128,160518,1,8,0:0:0:0:
352,64,160561,1,8,0:0:0:0:
192,128,160604,1,0,0:0:0:0:
414,191,160775,1,0,0:0:0:0:
504,174,160947,1,8,0:0:0:0:
384,160,161118,1,0,0:0:0:0:
384,160,161204,1,0,0:0:0:0:
320,128,161289,1,8,0:0:0:0:
291,283,161461,1,0,0:0:0:0:
247,77,161632,1,8,0:0:0:0:
291,283,161804,1,0,0:0:0:0:
286,181,161975,1,12,0:0:0:0:
286,181,162318,1,12,0:0:0:0:
433,195,162661,1,4,0:0:0:0:
387,160,162918,1,12,0:0:0:0:
419,190,163175,1,4,0:0:0:0:
433,195,163347,1,8,0:0:0:0:
224,128,163432,1,8,0:0:0:0:
224,128,163518,1,8,0:0:0:0:
406,144,163604,1,8,0:0:0:0:
96,192,163689,1,0,0:0:0:0:
96,192,163775,1,0,0:0:0:0:
390,168,163861,1,0,0:0:0:0:
390,168,163947,1,0,0:0:0:0:
334,195,164032,1,12,0:0:0:0:
357,192,164289,1,4,0:0:0:0:
448,160,164547,1,12,0:0:0:0:
328,215,164718,1,0,0:0:0:0:
480,160,164804,1,8,0:0:0:0:
328,214,164889,1,0,0:0:0:0:
480,160,164975,1,0,0:0:0:0:
359,209,165061,1,8,0:0:0:0:
352,174,165147,1,8,0:0:0:0:
429,150,165232,1,8,0:0:0:0:
383,168,165318,1,8,0:0:0:0:
429,171,165404,1,0,0:0:0:0:
382,173,165489,1,8,0:0:0:0:
351,184,165661,1,0,0:0:0:0:
414,181,165747,1,8,0:0:0:0:
279,248,165918,1,8,0:0:0:0:
352,160,166089,1,0,0:0:0:0:
359,288,166175,1,8,0:0:0:0:
345,185,166261,1,0,0:0:0:0:
384,168,166347,1,8,0:0:0:0:
403,191,166432,1,8,0:0:0:0:
224,160,166518,1,0,0:0:0:0:
332,166,166604,1,8,0:0:0:0:
256,64,166689,1,8,0:0:0:0:
332,166,166775,1,4,0:0:0:0:
488,129,166947,1,12,0:0:0:0:
395,151,167118,1,12,0:0:0:0:
377,198,167289,1,4,0:0:0:0:
384,193,167461,1,8,0:0:0:0:
224,160,167518,1,8,0:0:0:0:
224,160,167575,1,8,0:0:0:0:
288,96,167632,1,0,0:0:0:0:
192,128,167689,1,0,0:0:0:0:
160,128,167747,1,0,0:0:0:0:
343,110,167804,1,8,0:0:0:0:
343,110,167975,1,0,0:0:0:0:
224,160,168061,1,0,0:0:0:0:
331,171,168147,1,8,0:0:0:0:
401,167,168318,1,8,0:0:0:0:
343,209,168489,1,0,0:0:0:0:
388,173,168661,1,8,0:0:0:0:
384,160,168747,1,8,0:0:0:0:
337,102,168832,1,0,0:0:0:0:
256,128,169004,1,0,0:0:0:0:
448,160,169089,1,8,0:0:0:0:
343,155,169175,1,0,0:0:0:0:
313,131,169347,1,8,0:0:0:0:
387,144,169432,1,0,0:0:0:0:
393,161,169518,1,0,0:0:0:0:
417,158,169604,1,8,0:0:0:0:
280,147,169775,1,0,0:0:0:0:
415,160,169861,1,8,0:0:0:0:
415,160,169947,1,8,0:0:0:0:
388,135,170032,1,0,0:0:0:0:
404,175,170204,1,4,0:0:0:0:
404,174,170375,1,4,0:0:0:0:
412,180,170547,1,12,0:0:0:0:
388,147,170718,1,4,0:0:0:0:
416,160,170889,1,4,0:0:0:0:
322,138,171061,1,12,0:0:0:0:
160,160,171232,1,4,0:0:0:0:
320,160,171404,1,12,0:0:0:0:
416,160,171575,1,0,0:0:0:0:
416,160,171661,1,0,0:0:0:0:
351,173,171747,1,8,0:0:0:0:
351,173,171918,1,0,0:0:0:0:
390,167,172004,1,0,0:0:0:0:
450,161,172089,1,8,0:0:0:0:
366,158,172261,1,0,0:0:0:0:
364,153,172347,1,0,0:0:0:0:
335,149,172432,1,8,0:0:0:0:
364,152,172604,1,0,0:0:0:0:
384,160,172689,1,0,0:0:0:0:
288,160,172775,1,8,0:0:0:0:
384,192,172947,1,4,0:0:0:0:
384,192,173632,1,8,0:0:0:0:
384,192,174318,1,0,0:0:0:0:
384,192,175004,1,8,0:0:0:0:
384,192,175347,1,8,0:0:0:0:
288,192,175689,5,0,0:0:0:0:
170,160,175861,1,0,0:0:0:0:
359,181,176032,1,8,0:0:0:0:
207,144,176204,1,0,0:0:0:0:
328,184,176375,1,0,0:0:0:0:
357,172,176547,1,8,0:0:0:0:
298,138,176718,1,0,0:0:0:0:
339,188,176804,1,8,0:0:0:0:
339,188,176975,1,8,0:0:0:0:
339,188,177061,1,0,0:0:0:0:
257,180,177232,1,0,0:0:0:0:
236,196,177404,1,8,0:0:0:0:
289,148,177575,1,0,0:0:0:0:
289,148,177747,1,0,0:0:0:0:
336,144,177918,1,8,0:0:0:0:
336,144,178089,1,0,0:0:0:0:
336,144,178175,1,8,0:0:0:0:
336,144,178261,1,0,0:0:0:0:
336,144,178347,1,8,0:0:0:0:
360,144,178432,1,0,0:0:0:0:
296,158,178604,1,0,0:0:0:0:
361,141,178775,1,8,0:0:0:0:
271,178,178947,1,0,0:0:0:0:
221,145,179118,1,0,0:0:0:0:
361,158,179289,1,8,0:0:0:0:
346,158,179461,1,0,0:0:0:0:
346,158,179547,1,8,0:0:0:0:
368,165,179718,1,8,0:0:0:0:
361,141,179804,1,8,0:0:0:0:
354,248,179975,1,0,0:0:0:0:
387,157,180061,1,8,0:0:0:0:
329,172,180147,1,0,0:0:0:0:
329,172,180232,1,8,0:0:0:0:
329,172,180318,1,8,0:0:0:0:
395,164,180489,1,0,0:0:0:0:
350,93,180575,1,8,0:0:0:0:
395,164,180661,1,0,0:0:0:0:
395,164,180747,1,0,0:0:0:0:
395,164,180832,1,8,0:0:0:0:
407,152,181004,1,8,0:0:0:0:
329,118,181089,1,8,0:0:0:0:
423,156,181175,1,0,0:0:0:0:
235,148,181347,1,0,0:0:0:0:
301,151,181518,1,8,0:0:0:0:
376,165,181689,1,0,0:0:0:0:
376,165,181861,1,0,0:0:0:0:
431,164,182032,1,8,0:0:0:0:
365,169,182204,1,0,0:0:0:0:
365,169,182289,1,8,0:0:0:0:
191,157,182461,1,0,0:0:0:0:
191,157,182547,1,0,0:0:0:0:
280,150,182718,1,0,0:0:0:0:
248,142,182889,1,8,0:0:0:0:
248,142,183061,1,0,0:0:0:0:
208,145,183232,1,0,0:0:0:0:
208,145,183404,1,8,0:0:0:0:
208,145,183575,1,0,0:0:0:0:
208,145,183661,1,8,0:0:0:0:
208,145,183747,1,0,0:0:0:0:
168,161,183832,1,8,0:0:0:0:
88,130,183918,1,0,0:0:0:0:
289,153,184089,1,0,0:0:0:0:
167,168,184261,1,8,0:0:0:0:
167,168,184432,1,0,0:0:0:0:
167,168,184604,1,0,0:0:0:0:
167,168,184775,1,8,0:0:0:0:
416,174,184947,1,8,0:0:0:0:
167,168,185032,1,8,0:0:0:0:
415,164,185204,1,0,0:0:0:0:
422,158,185289,1,8,0:0:0:0:
321,156,185461,1,0,0:0:0:0:
321,156,185547,1,8,0:0:0:0:
321,156,185632,1,0,0:0:0:0:
321,156,185718,1,8,0:0:0:0:
321,156,185804,1,8,0:0:0:0:
201,145,185975,1,0,0:0:0:0:
201,145,186061,1,8,0:0:0:0:
201,145,186147,1,0,0:0:0:0:
201,145,186232,1,0,0:0:0:0:
322,146,186318,1,8,0:0:0:0:
382,152,186489,1,8,0:0:0:0:
353,165,186575,1,8,0:0:0:0:
288,192,186661,5,0,0:0:0:0:
170,160,186833,1,0,0:0:0:0:
359,181,187004,1,8,0:0:0:0:
207,144,187176,1,0,0:0:0:0:
328,184,187347,1,0,0:0:0:0:
357,172,187519,1,8,0:0:0:0:
298,138,187690,1,0,0:0:0:0:
339,188,187776,1,8,0:0:0:0:
339,188,187947,1,8,0:0:0:0:
339,188,188033,1,0,0:0:0:0:
257,180,188204,1,0,0:0:0:0:
236,196,188376,1,8,0:0:0:0:
289,148,188547,1,0,0:0:0:0:
289,148,188719,1,0,0:0:0:0:
336,144,188890,1,8,0:0:0:0:
336,144,189061,1,0,0:0:0:0:
336,144,189147,1,8,0:0:0:0:
336,144,189233,1,0,0:0:0:0:
336,144,189319,1,8,0:0:0:0:
360,144,189404,1,0,0:0:0:0:
296,158,189576,1,0,0:0:0:0:
361,141,189747,1,8,0:0:0:0:
271,178,189919,1,0,0:0:0:0:
221,145,190090,1,0,0:0:0:0:
361,158,190261,1,8,0:0:0:0:
346,158,190433,1,0,0:0:0:0:
346,158,190519,1,8,0:0:0:0:
368,165,190690,1,8,0:0:0:0:
361,141,190776,1,8,0:0:0:0:
354,248,190947,1,0,0:0:0:0:
387,157,191033,1,8,0:0:0:0:
329,172,191119,1,0,0:0:0:0:
329,172,191204,1,8,0:0:0:0:
329,172,191290,1,8,0:0:0:0:
395,164,191461,1,0,0:0:0:0:
350,93,191547,1,8,0:0:0:0:
395,164,191633,1,0,0:0:0:0:
395,164,191719,1,8,0:0:0:0:
395,164,191804,1,0,0:0:0:0:
407,152,191976,1,8,0:0:0:0:
423,156,192147,1,0,0:0:0:0:
235,148,192319,1,0,0:0:0:0:
301,151,192490,1,8,0:0:0:0:
376,165,192661,1,0,0:0:0:0:
376,165,192833,1,0,0:0:0:0:
431,164,193004,1,8,0:0:0:0:
365,169,193176,1,0,0:0:0:0:
365,169,193261,1,8,0:0:0:0:
191,157,193433,1,0,0:0:0:0:
191,157,193519,1,0,0:0:0:0:
280,150,193690,1,0,0:0:0:0:
248,142,193861,1,8,0:0:0:0:
248,142,194033,1,0,0:0:0:0:
208,145,194204,1,0,0:0:0:0:
208,145,194376,1,8,0:0:0:0:
208,145,194547,1,0,0:0:0:0:
208,145,194633,1,8,0:0:0:0:
208,145,194719,1,0,0:0:0:0:
168,161,194804,1,8,0:0:0:0:
88,130,194890,1,0,0:0:0:0:
289,153,195061,1,0,0:0:0:0:
167,168,195233,1,8,0:0:0:0:
167,168,195404,1,0,0:0:0:0:
167,168,195576,1,0,0:0:0:0:
167,168,195747,1,8,0:0:0:0:
416,174,195919,1,8,0:0:0:0:
167,168,196004,1,8,0:0:0:0:
415,164,196176,1,0,0:0:0:0:
422,158,196261,1,8,0:0:0:0:
321,156,196433,1,0,0:0:0:0:
321,156,196519,1,8,0:0:0:0:
321,156,196604,1,0,0:0:0:0:
321,156,196690,1,8,0:0:0:0:
321,156,196776,1,8,0:0:0:0:
201,145,196947,1,0,0:0:0:0:
201,145,197033,1,8,0:0:0:0:
201,145,197119,1,0,0:0:0:0:
201,145,197204,1,0,0:0:0:0:
322,146,197290,1,8,0:0:0:0:
286,80,197375,1,8,0:0:0:0:
382,152,197461,1,8,0:0:0:0:
353,165,197547,1,8,0:0:0:0:
274,146,197632,5,0,0:0:0:0:
