osu file format v14

[General]
AudioFilename: audio.mp3
AudioLeadIn: 0
PreviewTime: 60125
Countdown: 0
SampleSet: Normal
StackLeniency: 0.7
Mode: 1
LetterboxInBreaks: 0
WidescreenStoryboard: 1

[Editor]
Bookmarks: 12219,24219,48219,84219,120219,132219,144219,156219,168219
DistanceSpacing: 5.3
BeatDivisor: 4
GridSize: 32
TimelineZoom: 2.599999

[Metadata]
Title:Silver Winds
TitleUnicode:Silver Winds
Artist:Cyte
ArtistUnicode:Cyte
Creator:Cychloryn
Version:Oni
Source:
Tags:cytekinesis i'm 11! hatsune miku treow chaining intention vocaloid lolicore electronic japanese sv
BeatmapID:2586543
BeatmapSetID:1242018

[Difficulty]
HPDrainRate:5
CircleSize:2
OverallDifficulty:5.5
ApproachRate:10
SliderMultiplier:1.4
SliderTickRate:1

[Events]
//Background and Video events
0,0,"silvermiku.jpg",0,116
//Break Periods
//Storyboard Layer 0 (Background)
//Storyboard Layer 1 (Fail)
//Storyboard Layer 2 (Pass)
//Storyboard Layer 3 (Foreground)
//Storyboard Layer 4 (Overlay)
//Storyboard Sound Samples

[TimingPoints]
219,375,4,1,0,75,1,0
23094,-95.2380952380952,4,1,0,75,0,0
23187,-96.3735593357549,4,1,0,75,0,0
23281,-97.536424977908,4,1,0,75,0,0
23375,-98.7276961793369,4,1,0,75,0,0
23469,-99.9485265088479,4,1,0,75,0,0
23719,-103.356395590403,4,1,0,75,0,0
23844,-105.263157894737,4,1,0,75,0,0
24219,-100,4,1,0,80,0,0
36219,-90.9090909090909,4,1,0,90,0,0
48406,-100,4,1,0,90,0,0
58719,-102.040816326531,4,1,0,90,0,0
58812,-100.951977144472,4,1,0,90,0,0
58906,-99.8861298120143,4,1,0,90,0,0
59000,-98.8425536962173,4,1,0,90,0,0
59094,-97.8205579684627,4,1,0,90,0,0
59281,-95.8386843265416,4,1,0,90,0,0
59469,-93.9355226572481,4,1,0,90,0,0
59562,-93.0120078502135,4,1,0,90,0,0
59656,-92.1065599213042,4,1,0,90,0,0
59750,-91.2184874332851,4,1,0,90,0,0
59844,-90.3473766283985,4,1,0,90,0,0
59937,-89.4927461654596,4,1,0,90,0,0
60031,-88.6541327453791,4,1,0,90,0,0
60219,-87.0231890691913,4,1,0,100,0,1
60312,-90.9090909090909,4,1,0,100,0,1
62656,-93.4579439252336,4,1,0,100,0,1
62750,-92.1918992821939,4,1,0,100,0,1
62844,-90.9596975771975,4,1,0,100,0,1
62937,-89.759999712768,4,1,0,100,0,1
63031,-88.5915363189862,4,1,0,100,0,1
63125,-90.9090909090909,4,1,0,100,0,1
65656,-88.495575221239,4,1,0,100,0,1
65750,-89.6614920030915,4,1,0,100,0,1
65844,-90.8585405210919,4,1,0,100,0,1
65937,-92.0879845439527,4,1,0,100,0,1
66031,-93.3511571809444,4,1,0,100,0,1
66125,-90.9090909090909,4,1,0,100,0,1
71469,-90.9090909090909,4,1,0,100,0,1
71562,-90.4007101879792,4,1,0,100,0,1
71656,-89.8980645845676,4,1,0,100,0,1
71750,-89.4008977638153,4,1,0,100,0,1
71844,-88.9092787501489,4,1,0,100,0,1
71937,-88.422958844418,4,1,0,100,0,1
72031,-87.9420075225593,4,1,0,100,0,1
72219,-86.9954805847836,4,1,0,100,0,1
72312,-90.9090909090909,4,1,0,100,0,1
74656,-93.4579439252336,4,1,0,100,0,1
74750,-92.1918992821939,4,1,0,100,0,1
74844,-90.9596975771975,4,1,0,100,0,1
74937,-89.759999712768,4,1,0,100,0,1
75031,-88.5915363189862,4,1,0,100,0,1
75125,-90.9090909090909,4,1,0,100,0,1
77656,-88.495575221239,4,1,0,100,0,1
77750,-89.6614920030915,4,1,0,100,0,1
77844,-90.8585405210919,4,1,0,100,0,1
77937,-92.0879845439527,4,1,0,100,0,1
78031,-93.3511571809444,4,1,0,100,0,1
78125,-90.9090909090909,4,1,0,100,0,1
86656,-95.2380952380952,4,1,0,100,0,1
86844,-90.9090909090909,4,1,0,100,0,1
87031,-95.2380952380952,4,1,0,100,0,1
87219,-90.9090909090909,4,1,0,100,0,1
88906,-95.2380952380952,4,1,0,100,0,1
89094,-90.9090909090909,4,1,0,100,0,1
89281,-95.2380952380952,4,1,0,100,0,1
89469,-90.9090909090909,4,1,0,100,0,1
89562,-90.0900900900901,4,1,0,100,0,1
89656,-89.2857142857143,4,1,0,100,0,1
89844,-86.9565217391304,4,1,0,100,0,1
89937,-87.719298245614,4,1,0,100,0,1
90031,-88.4955752212389,4,1,0,100,0,1
90125,-89.2857142857143,4,1,0,100,0,1
90219,-90.0900900900901,4,1,0,100,0,1
90312,-90.9090909090909,4,1,0,100,0,1
95469,-90.9090909090909,4,1,0,100,0,1
95562,-90.4007101879792,4,1,0,100,0,1
95656,-89.8980645845676,4,1,0,100,0,1
95750,-89.4008977638153,4,1,0,100,0,1
95844,-88.9092787501489,4,1,0,100,0,1
95937,-88.422958844418,4,1,0,100,0,1
96031,-87.9420075225593,4,1,0,100,0,1
96219,-86.9954805847836,4,1,0,100,0,1
96312,-90.9090909090909,4,1,0,100,0,1
98469,-91.743119266055,4,1,0,100,0,1
98656,-93.4579439252336,4,1,0,100,0,1
98750,-92.3232310176513,4,1,0,100,0,1
98844,-91.2158248510218,4,1,0,100,0,1
98937,-90.1345889682474,4,1,0,100,0,1
99031,-89.0786858755945,4,1,0,100,0,1
99125,-88.0473131041697,4,1,0,100,0,1
99219,-87.039474142313,4,1,0,100,0,1
99312,-90.9090909090909,4,1,0,100,0,1
100719,-92.5925925925926,4,1,0,100,0,1
100812,-90.9090909090909,4,1,0,100,0,1
100906,-89.2857142857143,4,1,0,100,0,1
101094,-92.5925925925926,4,1,0,100,0,1
101187,-90.9090909090909,4,1,0,100,0,1
101281,-89.2857142857143,4,1,0,100,0,1
101469,-92.5925925925926,4,1,0,100,0,1
101562,-90.9090909090909,4,1,0,100,0,1
101656,-89.2857142857143,4,1,0,100,0,1
101844,-86.9565217391304,4,1,0,100,0,1
101937,-87.719298245614,4,1,0,100,0,1
102031,-88.4955752212389,4,1,0,100,0,1
102125,-89.2857142857143,4,1,0,100,0,1
102219,-90.0900900900901,4,1,0,100,0,1
102312,-90.9090909090909,4,1,0,100,0,1
106625,-89.2857142857143,4,1,0,100,0,1
106719,-86.9565217391304,4,1,0,100,0,1
107000,-84.7457627118644,4,1,0,100,0,1
107281,-82.6446280991736,4,1,0,100,0,1
107562,-80.6451612903226,4,1,0,100,0,1
107844,-82.6446280991736,4,1,0,80,0,0
108031,-85.4700854700855,4,1,0,80,0,0
108125,-87.719298245614,4,1,0,80,0,0
108219,-90.0900900900901,4,1,0,80,0,0
108344,-100,4,1,0,80,0,0
108406,-100,4,1,0,90,0,0
108500,-98.1781088343608,4,1,0,90,0,0
108594,-96.4215085530699,4,1,0,90,0,0
108781,-93.090194158218,4,1,0,90,0,0
108875,-91.5093925240487,4,1,0,90,0,0
109062,-88.5036423674016,4,1,0,90,0,0
109156,-87.0735789156553,4,1,0,90,0,0
109344,-83.3333333333333,4,1,0,90,0,0
109719,-86.9565217391304,4,1,0,90,0,0
109781,-90.9090909090909,4,1,0,90,0,0
110094,-93.4579439252336,4,1,0,90,0,0
110281,-94.6969696969697,4,1,0,90,0,0
110375,-95.3288846520496,4,1,0,90,0,0
110844,-99.009900990099,4,1,0,90,0,0
111031,-101.010101010101,4,1,0,90,0,0
111219,-103.092783505155,4,1,0,90,0,0
111500,-98.0392156862745,4,1,0,90,0,0
111781,-93.4579439252336,4,1,0,90,0,0
112062,-89.2857142857143,4,1,0,90,0,0
112344,-87.719298245614,4,1,0,90,0,0
112437,-88.4955752212389,4,1,0,90,0,0
112531,-89.2857142857143,4,1,0,90,0,0
112625,-90.0900900900901,4,1,0,90,0,0
112719,-90.9090909090909,4,1,0,90,0,0
118156,-90.9090909090909,4,1,0,90,0,0
118250,-89.5705807219031,4,1,0,90,0,0
118344,-88.2708361101867,4,1,0,90,0,0
118437,-87.0083484510339,4,1,0,90,0,0
118531,-85.7814648557627,4,1,0,90,0,0
118625,-84.5886285814825,4,1,0,90,0,0
118719,-83.4285809632664,4,1,0,90,0,0
119000,-86.9565217391304,4,1,0,90,0,0
119469,-90.9090909090909,4,1,0,90,0,0
119594,-92.2930674062418,4,1,0,90,0,0
119719,-93.7198339284543,4,1,0,90,0,0
119844,-95.1914061198555,4,1,0,90,0,0
120031,-97.4874558016247,4,1,0,90,0,0
120125,-98.6775238256881,4,1,0,90,0,0
120219,-99.8970061866216,4,1,0,90,0,0
132219,-90.9090909090909,4,1,0,90,0,0
141219,-90.9090909090909,4,1,0,90,0,0
141406,-90.3242822380912,4,1,0,90,0,0
141500,-90.0347714287258,4,1,0,90,0,0
141594,-89.7470300464082,4,1,0,90,0,0
141687,-89.4611219856075,4,1,0,90,0,0
141781,-89.1770297806691,4,1,0,90,0,0
141969,-88.6142241780366,4,1,0,90,0,0
142062,-88.3355549725409,4,1,0,90,0,0
142156,-88.0585554170101,4,1,0,90,0,0
142344,-87.5097354580697,4,1,0,90,0,0
142531,-86.9677141058153,4,1,0,90,0,0
142625,-86.6992887190353,4,1,0,90,0,0
142719,-86.4324405150336,4,1,0,90,0,0
142906,-85.9036418848977,4,1,0,90,0,0
143094,-85.3812743496722,4,1,0,90,0,0
143187,-85.1225381497935,4,1,0,90,0,0
143281,-84.8652933199133,4,1,0,90,0,0
143375,-84.6095986205251,4,1,0,90,0,0
143562,-84.1028039033793,4,1,0,90,0,0
143656,-83.8516764465672,4,1,0,90,0,0
143844,-83.3539634392846,4,1,0,90,0,0
143937,-84.7457627118644,4,1,0,90,0,0
144031,-86.2068965517241,4,1,0,90,0,0
144125,-87.719298245614,4,1,0,90,0,0
144219,-89.2857142857143,4,1,0,90,0,0
144312,-103.092783505155,4,1,0,70,0,0
144969,-107.52688172043,4,1,0,70,0,0
145062,-108.695652173913,4,1,0,70,0,0
145156,-109.89010989011,4,1,0,70,0,0
145250,-111.111111111111,4,1,0,70,0,0
156219,-105.263157894737,4,1,0,80,0,0
165219,-105.263157894737,4,1,0,90,0,0
165406,-103.899558219078,4,1,0,90,0,0
165594,-102.570940626811,4,1,0,90,0,0
165781,-101.275770885849,4,1,0,90,0,0
165875,-100.640475989195,4,1,0,90,0,0
165969,-100.01300169022,4,1,0,90,0,0
166156,-98.7812370967009,4,1,0,90,0,0
166344,-97.579539522153,4,1,0,90,0,0
166531,-96.4066354759065,4,1,0,90,0,0
166625,-95.83078583161,4,1,0,90,0,0
166719,-95.2616838455237,4,1,0,90,0,0
167000,-93.5942241132415,4,1,0,90,0,0
167094,-93.051387628818,4,1,0,90,0,0
167281,-91.9842191873562,4,1,0,90,0,0
167469,-90.9413337456007,4,1,0,90,0,0
167562,-90.4286680580624,4,1,0,90,0,0
167656,-89.921750093069,4,1,0,90,0,0
167750,-89.4204837290488,4,1,0,90,0,0
167844,-88.9248540520833,4,1,0,90,0,0
167937,-88.4346101227561,4,1,0,90,0,0
168031,-87.9497419994318,4,1,0,90,0,0
168219,-84.7457627118644,4,1,0,100,0,1
168312,-90.9090909090909,4,1,0,100,0,1
170656,-93.4579439252336,4,1,0,100,0,1
170750,-92.1918992821939,4,1,0,100,0,1
170844,-90.9596975771975,4,1,0,100,0,1
170937,-89.759999712768,4,1,0,100,0,1
171031,-88.5915363189862,4,1,0,100,0,1
171125,-90.9090909090909,4,1,0,100,0,1
172906,-95.2380952380952,4,1,0,100,0,1
173094,-90.9090909090909,4,1,0,100,0,1
173281,-95.2380952380952,4,1,0,100,0,1
173469,-90.9090909090909,4,1,0,100,0,1
173562,-90.0900900900901,4,1,0,100,0,1
173656,-89.2857142857143,4,1,0,100,0,1
173844,-86.9565217391304,4,1,0,100,0,1
173937,-87.719298245614,4,1,0,100,0,1
174031,-88.4955752212389,4,1,0,100,0,1
174125,-89.2857142857143,4,1,0,100,0,1
174219,-90.0900900900901,4,1,0,100,0,1
174312,-90.9090909090909,4,1,0,100,0,1
179469,-90.9090909090909,4,1,0,100,0,1
179562,-89.4008977638153,4,1,0,100,0,1
179656,-87.9420075225593,4,1,0,100,0,1
179750,-86.5298917511054,4,1,0,100,0,1
179844,-85.1624089720301,4,1,0,100,0,1
179937,-83.8374760224819,4,1,0,100,0,1
180031,-82.5532055409711,4,1,0,100,0,1
180125,-81.3076216951501,4,1,0,100,0,1
180219,-80.0990665254787,4,1,0,100,0,1
180500,-84.7457627118644,4,1,0,100,0,1
180969,-87.719298245614,4,1,0,100,0,1
181062,-88.4955752212389,4,1,0,100,0,1
181156,-89.2857142857143,4,1,0,100,0,1
181250,-90.0900900900901,4,1,0,100,0,1
181344,-90.9090909090909,4,1,0,100,0,1
182656,-93.4579439252336,4,1,0,100,0,1
182750,-92.3232310176513,4,1,0,100,0,1
182844,-91.2158248510218,4,1,0,100,0,1
182937,-90.1345889682474,4,1,0,100,0,1
183031,-89.0786858755945,4,1,0,100,0,1
183125,-88.0473131041697,4,1,0,100,0,1
183219,-87.039474142313,4,1,0,100,0,1
183312,-90.9090909090909,4,1,0,100,0,1
183594,-86.9565217391304,4,1,0,100,0,1
183781,-90.9090909090909,4,1,0,100,0,1
183969,-86.9565217391304,4,1,0,100,0,1
184156,-87.719298245614,4,1,0,100,0,1
184250,-88.4955752212389,4,1,0,100,0,1
184437,-89.2857142857143,4,1,0,100,0,1
184531,-90.0900900900901,4,1,0,100,0,1
184719,-90.9090909090909,4,1,0,100,0,1
185656,-95.2380952380952,4,1,0,100,0,1
185844,-90.9090909090909,4,1,0,100,0,1
186031,-95.2380952380952,4,1,0,100,0,1
186219,-90.9090909090909,4,1,0,100,0,1
190437,-90.0900900900901,4,1,0,100,0,1
190531,-89.2857142857143,4,1,0,100,0,1
190625,-88.4955752212389,4,1,0,100,0,1
190719,-86.9565217391304,4,1,0,100,0,1
191000,-84.7457627118644,4,1,0,100,0,1
191281,-82.6446280991736,4,1,0,100,0,1
191562,-80.6451612903226,4,1,0,100,0,1
191844,-83.3333333333333,4,1,0,100,0,1
192031,-86.2068965517241,4,1,0,100,0,1
192219,-89.2857142857143,4,1,0,75,0,0
192406,-93.4579439252336,4,1,0,75,0,0
192594,-98.0392156862745,4,1,0,75,0,0
192687,-99.009900990099,4,1,0,75,0,0
192781,-100,4,1,0,75,0,0
203094,-95.2380952380952,4,1,0,75,0,0
203187,-96.3735593357549,4,1,0,75,0,0
203281,-97.536424977908,4,1,0,75,0,0
203375,-98.7276961793369,4,1,0,75,0,0
203469,-99.9485265088479,4,1,0,75,0,0
203719,-103.356395590403,4,1,0,75,0,0
203844,-105.263157894737,4,1,0,75,0,0

[HitObjects]
256,192,12219,5,0,0:0:0:0:
256,192,12406,1,8,0:0:0:0:
256,192,12594,1,0,0:0:0:0:
256,192,12687,1,8,0:0:0:0:
256,192,12781,1,0,0:0:0:0:
256,192,12969,1,8,0:0:0:0:
256,192,13062,1,8,0:0:0:0:
256,192,13156,1,0,0:0:0:0:
256,192,13250,1,8,0:0:0:0:
256,192,13344,1,0,0:0:0:0:
256,192,13719,1,0,0:0:0:0:
256,192,13906,1,8,0:0:0:0:
256,192,14000,1,0,0:0:0:0:
256,192,14094,1,0,0:0:0:0:
256,192,14281,1,8,0:0:0:0:
256,192,14469,1,0,0:0:0:0:
256,192,14656,1,8,0:0:0:0:
256,192,14844,1,0,0:0:0:0:
256,192,15219,1,0,0:0:0:0:
256,192,15406,1,8,0:0:0:0:
256,192,15500,1,8,0:0:0:0:
256,192,15594,1,0,0:0:0:0:
256,192,15781,1,8,0:0:0:0:
256,192,15969,1,0,0:0:0:0:
256,192,16156,1,8,0:0:0:0:
256,192,16344,1,0,0:0:0:0:
256,192,16719,1,0,0:0:0:0:
256,192,16906,1,0,0:0:0:0:
256,192,17000,1,8,0:0:0:0:
256,192,17094,1,0,0:0:0:0:
256,192,17281,1,8,0:0:0:0:
256,192,17469,1,0,0:0:0:0:
256,192,17656,1,8,0:0:0:0:
256,192,17844,1,0,0:0:0:0:
256,192,18219,1,0,0:0:0:0:
256,192,18406,1,8,0:0:0:0:
256,192,18500,1,8,0:0:0:0:
256,192,18594,1,0,0:0:0:0:
256,192,18781,1,8,0:0:0:0:
256,192,18969,1,0,0:0:0:0:
256,192,19156,1,8,0:0:0:0:
256,192,19344,1,0,0:0:0:0:
256,192,19719,1,0,0:0:0:0:
256,192,19906,1,8,0:0:0:0:
256,192,20000,1,0,0:0:0:0:
256,192,20094,1,0,0:0:0:0:
256,192,20281,1,8,0:0:0:0:
256,192,20469,1,0,0:0:0:0:
256,192,20656,1,8,0:0:0:0:
256,192,20844,1,0,0:0:0:0:
256,192,21219,1,0,0:0:0:0:
256,192,21406,1,8,0:0:0:0:
256,192,21500,1,8,0:0:0:0:
256,192,21594,1,0,0:0:0:0:
256,192,21781,1,8,0:0:0:0:
256,192,21969,1,0,0:0:0:0:
256,192,22156,1,0,0:0:0:0:
256,192,22344,1,12,0:0:0:0:
256,192,23094,1,0,0:0:0:0:
256,192,23187,1,0,0:0:0:0:
256,192,23281,1,0,0:0:0:0:
256,192,23375,1,0,0:0:0:0:
256,192,23469,1,0,0:0:0:0:
256,192,23719,1,0,0:0:0:0:
256,192,23844,1,12,0:0:0:0:
256,192,24219,1,4,0:0:0:0:
256,192,24406,1,8,0:0:0:0:
256,192,24500,1,0,0:0:0:0:
256,192,24594,1,8,0:0:0:0:
256,192,24687,1,8,0:0:0:0:
256,192,24781,1,0,0:0:0:0:
256,192,24969,1,8,0:0:0:0:
256,192,25062,1,0,0:0:0:0:
256,192,25156,1,0,0:0:0:0:
256,192,25250,1,8,0:0:0:0:
256,192,25531,1,0,0:0:0:0:
256,192,25719,1,8,0:0:0:0:
256,192,25906,1,0,0:0:0:0:
256,192,26000,1,8,0:0:0:0:
256,192,26187,1,8,0:0:0:0:
256,192,26281,1,0,0:0:0:0:
256,192,26469,1,8,0:0:0:0:
256,192,26562,1,8,0:0:0:0:
256,192,26656,1,0,0:0:0:0:
256,192,26844,1,8,0:0:0:0:
256,192,27219,1,0,0:0:0:0:
256,192,27406,1,8,0:0:0:0:
256,192,27500,1,0,0:0:0:0:
256,192,27594,1,8,0:0:0:0:
256,192,27687,1,8,0:0:0:0:
256,192,27781,1,0,0:0:0:0:
256,192,27969,1,0,0:0:0:0:
256,192,28062,1,0,0:0:0:0:
256,192,28156,1,0,0:0:0:0:
256,192,28250,1,8,0:0:0:0:
256,192,28437,1,8,0:0:0:0:
256,192,28531,1,0,0:0:0:0:
256,192,28719,1,8,0:0:0:0:
256,192,28906,1,0,0:0:0:0:
256,192,29000,1,8,0:0:0:0:
256,192,29094,1,0,0:0:0:0:
256,192,29187,1,0,0:0:0:0:
256,192,29281,1,8,0:0:0:0:
256,192,29469,1,0,0:0:0:0:
256,192,29562,1,8,0:0:0:0:
256,160,29656,1,0,0:0:0:0:
256,160,29844,1,8,0:0:0:0:
256,192,30219,1,0,0:0:0:0:
256,192,30406,1,8,0:0:0:0:
256,192,30500,1,0,0:0:0:0:
256,192,30594,1,8,0:0:0:0:
256,192,30687,1,8,0:0:0:0:
256,192,30781,1,0,0:0:0:0:
256,192,30969,1,8,0:0:0:0:
256,192,31062,1,8,0:0:0:0:
256,192,31156,1,8,0:0:0:0:
256,192,31250,1,0,0:0:0:0:
256,192,31531,1,0,0:0:0:0:
256,192,31719,1,8,0:0:0:0:
256,192,31906,1,0,0:0:0:0:
256,192,32000,1,8,0:0:0:0:
256,192,32187,1,8,0:0:0:0:
256,192,32281,1,0,0:0:0:0:
256,192,32469,1,8,0:0:0:0:
256,192,32562,1,8,0:0:0:0:
256,192,32656,1,0,0:0:0:0:
256,192,32844,1,8,0:0:0:0:
256,192,33219,1,0,0:0:0:0:
256,192,33406,1,8,0:0:0:0:
256,192,33500,1,0,0:0:0:0:
256,192,33594,1,8,0:0:0:0:
256,192,33687,1,8,0:0:0:0:
256,192,33781,1,0,0:0:0:0:
256,192,33969,1,8,0:0:0:0:
256,192,34062,1,0,0:0:0:0:
256,192,34156,1,0,0:0:0:0:
256,192,34250,1,8,0:0:0:0:
256,192,34437,1,0,0:0:0:0:
256,192,34531,1,0,0:0:0:0:
256,192,34719,1,8,0:0:0:0:
256,192,34812,1,0,0:0:0:0:
256,192,35000,1,8,0:0:0:0:
256,192,35094,1,0,0:0:0:0:
256,192,35281,1,8,0:0:0:0:
256,192,35375,1,0,0:0:0:0:
256,192,35562,1,0,0:0:0:0:
256,192,35656,1,0,0:0:0:0:
256,192,35750,1,0,0:0:0:0:
256,192,35844,1,8,0:0:0:0:
256,192,36219,1,0,0:0:0:0:
256,192,36406,1,8,0:0:0:0:
256,192,36594,1,8,0:0:0:0:
256,192,36781,1,0,0:0:0:0:
256,192,36875,1,8,0:0:0:0:
256,192,36969,1,8,0:0:0:0:
256,192,37156,1,8,0:0:0:0:
256,192,37250,1,0,0:0:0:0:
256,192,37344,1,8,0:0:0:0:
256,192,37531,1,8,0:0:0:0:
256,192,37625,1,8,0:0:0:0:
256,192,37719,1,0,0:0:0:0:
256,192,38094,1,8,0:0:0:0:
256,192,38187,1,8,0:0:0:0:
256,192,38281,1,0,0:0:0:0:
256,192,38469,1,8,0:0:0:0:
256,192,38656,1,8,0:0:0:0:
256,192,38750,1,8,0:0:0:0:
256,192,38844,1,0,0:0:0:0:
256,192,38937,1,0,0:0:0:0:
256,192,39031,1,8,0:0:0:0:
256,192,39219,1,0,0:0:0:0:
256,192,39594,1,8,0:0:0:0:
256,192,39781,1,0,0:0:0:0:
256,192,39875,1,8,0:0:0:0:
256,192,39969,1,8,0:0:0:0:
256,192,40156,1,8,0:0:0:0:
256,192,40250,1,8,0:0:0:0:
256,192,40344,1,0,0:0:0:0:
256,192,40437,1,8,0:0:0:0:
256,192,40531,1,8,0:0:0:0:
224,192,40719,1,8,0:0:0:0:
224,192,40812,1,0,0:0:0:0:
224,192,40906,1,0,0:0:0:0:
224,192,41000,1,8,0:0:0:0:
224,192,41187,1,0,0:0:0:0:
224,192,41281,1,8,0:0:0:0:
224,192,41375,1,0,0:0:0:0:
224,192,41469,1,0,0:0:0:0:
256,192,41562,1,8,0:0:0:0:
288,192,41750,1,0,0:0:0:0:
256,192,41844,1,8,0:0:0:0:
224,192,42031,1,8,0:0:0:0:
224,192,42125,1,8,0:0:0:0:
256,192,42219,1,0,0:0:0:0:
256,192,42594,1,8,0:0:0:0:
256,192,42781,1,8,0:0:0:0:
256,192,42875,1,8,0:0:0:0:
256,192,42969,1,0,0:0:0:0:
256,192,43062,1,8,0:0:0:0:
256,192,43250,1,8,0:0:0:0:
256,192,43344,1,8,0:0:0:0:
256,192,43531,1,8,0:0:0:0:
256,192,43625,1,8,0:0:0:0:
256,192,43719,1,0,0:0:0:0:
256,192,44094,1,8,0:0:0:0:
256,192,44187,1,8,0:0:0:0:
256,192,44281,1,0,0:0:0:0:
256,192,44375,1,8,0:0:0:0:
256,192,44469,1,8,0:0:0:0:
256,192,44656,1,8,0:0:0:0:
256,192,44750,1,8,0:0:0:0:
256,192,44844,1,0,0:0:0:0:
256,192,44937,1,0,0:0:0:0:
256,192,45031,1,8,0:0:0:0:
256,192,45219,1,0,0:0:0:0:
256,192,45594,1,8,0:0:0:0:
256,192,45687,1,8,0:0:0:0:
256,192,45781,1,0,0:0:0:0:
256,192,45875,1,8,0:0:0:0:
256,192,45969,1,0,0:0:0:0:
256,192,46156,1,0,0:0:0:0:
256,192,46250,1,8,0:0:0:0:
256,192,46344,1,8,0:0:0:0:
256,192,46437,1,8,0:0:0:0:
256,192,46531,1,0,0:0:0:0:
256,192,46719,1,8,0:0:0:0:
256,192,46812,1,0,0:0:0:0:
256,192,47000,1,8,0:0:0:0:
256,192,47094,1,0,0:0:0:0:
256,192,47281,1,8,0:0:0:0:
256,192,47375,1,0,0:0:0:0:
256,192,47562,1,8,0:0:0:0:
256,192,47656,1,0,0:0:0:0:
256,192,47750,1,0,0:0:0:0:
256,192,47844,1,8,0:0:0:0:
256,192,48031,1,0,0:0:0:0:
256,192,48125,1,0,0:0:0:0:
256,192,48219,1,8,0:0:0:0:
256,192,48594,1,8,0:0:0:0:
256,192,48687,1,8,0:0:0:0:
256,192,48781,1,0,0:0:0:0:
256,192,48969,1,8,0:0:0:0:
256,192,49156,1,0,0:0:0:0:
256,192,49250,1,0,0:0:0:0:
256,192,49344,1,8,0:0:0:0:
256,192,49531,1,8,0:0:0:0:
256,192,49719,1,0,0:0:0:0:
256,192,50094,1,8,0:0:0:0:
256,192,50281,1,0,0:0:0:0:
256,192,50375,1,0,0:0:0:0:
256,192,50469,1,8,0:0:0:0:
256,192,50656,1,0,0:0:0:0:
256,192,50750,1,0,0:0:0:0:
256,192,50844,1,8,0:0:0:0:
256,192,50937,1,0,0:0:0:0:
256,192,51031,1,8,0:0:0:0:
256,192,51219,1,0,0:0:0:0:
256,192,51594,1,8,0:0:0:0:
256,192,51687,1,8,0:0:0:0:
256,192,51781,1,8,0:0:0:0:
256,192,51875,1,8,0:0:0:0:
256,192,51969,1,0,0:0:0:0:
256,192,52156,1,0,0:0:0:0:
256,192,52250,1,0,0:0:0:0:
256,192,52344,1,8,0:0:0:0:
256,192,52531,1,8,0:0:0:0:
256,192,52719,1,0,0:0:0:0:
256,192,52812,1,8,0:0:0:0:
256,192,52906,1,0,0:0:0:0:
256,192,53094,1,8,0:0:0:0:
256,192,53187,1,8,0:0:0:0:
256,192,53281,1,0,0:0:0:0:
256,192,53469,1,8,0:0:0:0:
256,192,53656,1,0,0:0:0:0:
256,192,53750,1,0,0:0:0:0:
256,192,53844,1,8,0:0:0:0:
256,192,53937,1,8,0:0:0:0:
256,192,54031,1,8,0:0:0:0:
256,192,54125,1,8,0:0:0:0:
256,192,54219,1,4,0:0:0:0:
256,192,54594,1,8,0:0:0:0:
256,192,54687,1,8,0:0:0:0:
256,192,54781,1,0,0:0:0:0:
256,192,54875,1,0,0:0:0:0:
256,192,54969,1,8,0:0:0:0:
256,192,55156,1,0,0:0:0:0:
256,192,55344,1,8,0:0:0:0:
256,192,55437,1,0,0:0:0:0:
256,192,55531,1,8,0:0:0:0:
256,192,55625,1,8,0:0:0:0:
256,192,55719,1,0,0:0:0:0:
256,192,55906,1,0,0:0:0:0:
256,192,56000,1,0,0:0:0:0:
256,192,56094,1,8,0:0:0:0:
256,192,56281,1,0,0:0:0:0:
256,192,56469,1,8,0:0:0:0:
256,192,56562,1,8,0:0:0:0:
256,192,56656,1,0,0:0:0:0:
256,192,56844,1,8,0:0:0:0:
256,192,56937,1,8,0:0:0:0:
256,192,57031,1,8,0:0:0:0:
256,192,57125,1,8,0:0:0:0:
256,192,57219,1,0,0:0:0:0:
256,192,57406,1,0,0:0:0:0:
256,192,57594,1,8,0:0:0:0:
256,192,57687,1,8,0:0:0:0:
256,192,57781,1,8,0:0:0:0:
256,192,57875,1,0,0:0:0:0:
256,192,57969,1,8,0:0:0:0:
256,192,58156,1,0,0:0:0:0:
256,192,58250,1,0,0:0:0:0:
256,192,58344,1,8,0:0:0:0:
256,192,58719,1,0,0:0:0:0:
256,192,58812,1,8,0:0:0:0:
256,192,58906,1,0,0:0:0:0:
256,192,59000,1,0,0:0:0:0:
256,192,59094,1,8,0:0:0:0:
256,192,59281,1,0,0:0:0:0:
224,192,59469,1,8,0:0:0:0:
224,192,59562,1,8,0:0:0:0:
224,192,59656,1,0,0:0:0:0:
224,192,59750,1,0,0:0:0:0:
224,192,59844,1,8,0:0:0:0:
224,192,59937,1,8,0:0:0:0:
224,192,60031,1,0,0:0:0:0:
288,160,60219,5,12,0:0:0:0:
256,192,60594,1,8,0:0:0:0:
256,192,60781,1,0,0:0:0:0:
256,192,60969,1,8,0:0:0:0:
256,192,61062,1,0,0:0:0:0:
256,192,61156,1,8,0:0:0:0:
256,192,61250,1,8,0:0:0:0:
256,192,61344,1,0,0:0:0:0:
256,192,61531,1,8,0:0:0:0:
256,192,61719,1,8,0:0:0:0:
256,192,61906,1,0,0:0:0:0:
256,192,62000,1,8,0:0:0:0:
256,192,62187,1,8,0:0:0:0:
256,192,62281,1,0,0:0:0:0:
256,192,62469,1,8,0:0:0:0:
256,192,62656,1,0,0:0:0:0:
256,192,62750,1,0,0:0:0:0:
256,192,62844,1,8,0:0:0:0:
256,192,62937,1,8,0:0:0:0:
256,192,63031,1,0,0:0:0:0:
256,192,63219,1,8,0:0:0:0:
256,192,63406,1,0,0:0:0:0:
256,192,63594,1,8,0:0:0:0:
256,192,63781,1,0,0:0:0:0:
256,192,63969,1,8,0:0:0:0:
256,192,64156,1,8,0:0:0:0:
256,192,64250,1,0,0:0:0:0:
256,192,64437,1,0,0:0:0:0:
256,192,64531,1,8,0:0:0:0:
256,192,64719,1,0,0:0:0:0:
256,192,64906,1,8,0:0:0:0:
256,192,65094,1,0,0:0:0:0:
256,192,65187,1,8,0:0:0:0:
256,192,65281,1,0,0:0:0:0:
256,192,65375,1,0,0:0:0:0:
256,192,65469,1,8,0:0:0:0:
256,192,65656,1,8,0:0:0:0:
256,192,65750,1,0,0:0:0:0:
256,192,65844,1,8,0:0:0:0:
256,192,65937,1,8,0:0:0:0:
256,192,66031,1,0,0:0:0:0:
266,200,66219,1,8,0:0:0:0:
256,192,66594,1,0,0:0:0:0:
256,192,66781,1,0,0:0:0:0:
256,192,66969,1,8,0:0:0:0:
266,200,67156,1,0,0:0:0:0:
266,200,67250,1,8,0:0:0:0:
256,192,67437,1,8,0:0:0:0:
256,192,67531,1,0,0:0:0:0:
256,192,67719,1,8,0:0:0:0:
256,192,67906,1,0,0:0:0:0:
256,192,68000,1,0,0:0:0:0:
256,192,68094,1,8,0:0:0:0:
256,192,68281,1,0,0:0:0:0:
256,192,68469,1,8,0:0:0:0:
256,192,68562,1,8,0:0:0:0:
256,192,68656,1,0,0:0:0:0:
256,192,68844,1,8,0:0:0:0:
256,192,69031,1,8,0:0:0:0:
256,192,69219,1,0,0:0:0:0:
256,192,69594,1,8,0:0:0:0:
256,192,69781,1,0,0:0:0:0:
256,192,69875,1,0,0:0:0:0:
256,192,69969,1,8,0:0:0:0:
224,192,70156,1,0,0:0:0:0:
256,192,70344,1,8,0:0:0:0:
256,192,70531,1,0,0:0:0:0:
256,192,70625,1,8,0:0:0:0:
256,192,70719,1,8,0:0:0:0:
256,192,70906,1,8,0:0:0:0:
242,194,71000,1,8,0:0:0:0:
246,194,71094,1,0,0:0:0:0:
256,192,71281,1,0,0:0:0:0:
256,192,71469,1,8,0:0:0:0:
256,192,71562,1,0,0:0:0:0:
256,192,71656,1,8,0:0:0:0:
256,192,71750,1,8,0:0:0:0:
256,192,71844,1,0,0:0:0:0:
256,192,71937,1,8,0:0:0:0:
259,195,72031,1,0,0:0:0:0:
256,192,72219,1,12,0:0:0:0:
256,192,72594,1,8,0:0:0:0:
256,192,72781,1,0,0:0:0:0:
256,192,72969,1,8,0:0:0:0:
256,192,73062,1,0,0:0:0:0:
256,192,73156,1,8,0:0:0:0:
256,192,73250,1,8,0:0:0:0:
256,192,73344,1,0,0:0:0:0:
256,192,73531,1,8,0:0:0:0:
256,192,73719,1,8,0:0:0:0:
256,192,73906,1,0,0:0:0:0:
256,192,74000,1,8,0:0:0:0:
256,192,74187,1,8,0:0:0:0:
256,192,74281,1,0,0:0:0:0:
256,192,74469,1,0,0:0:0:0:
256,192,74656,1,0,0:0:0:0:
256,192,74750,1,0,0:0:0:0:
256,192,74844,1,8,0:0:0:0:
256,192,74937,1,8,0:0:0:0:
256,192,75031,1,0,0:0:0:0:
256,192,75219,1,8,0:0:0:0:
256,192,75406,1,0,0:0:0:0:
256,192,75594,1,8,0:0:0:0:
256,192,75781,1,0,0:0:0:0:
256,192,75969,1,8,0:0:0:0:
256,192,76156,1,8,0:0:0:0:
256,192,76250,1,0,0:0:0:0:
256,192,76437,1,0,0:0:0:0:
256,192,76531,1,8,0:0:0:0:
256,192,76719,1,0,0:0:0:0:
256,192,76906,1,8,0:0:0:0:
256,192,77094,1,0,0:0:0:0:
256,192,77187,1,8,0:0:0:0:
256,192,77281,1,0,0:0:0:0:
256,192,77469,1,8,0:0:0:0:
256,192,77656,1,8,0:0:0:0:
256,192,77750,1,0,0:0:0:0:
256,192,77844,1,8,0:0:0:0:
256,192,77937,1,8,0:0:0:0:
256,192,78031,5,0,0:0:0:0:
266,200,78219,1,8,0:0:0:0:
256,192,78594,1,0,0:0:0:0:
256,192,78781,1,0,0:0:0:0:
256,192,78969,1,8,0:0:0:0:
266,200,79156,1,0,0:0:0:0:
266,200,79250,1,8,0:0:0:0:
256,192,79437,1,8,0:0:0:0:
256,192,79531,1,0,0:0:0:0:
256,192,79719,1,8,0:0:0:0:
256,192,79906,1,0,0:0:0:0:
256,192,80000,1,0,0:0:0:0:
256,192,80094,1,8,0:0:0:0:
256,192,80281,1,0,0:0:0:0:
256,192,80469,1,8,0:0:0:0:
256,192,80562,1,8,0:0:0:0:
256,192,80656,1,0,0:0:0:0:
224,192,80750,1,0,0:0:0:0:
256,192,80844,1,8,0:0:0:0:
256,192,81031,1,0,0:0:0:0:
256,192,81125,1,8,0:0:0:0:
256,192,81219,1,0,0:0:0:0:
224,192,81406,1,0,0:0:0:0:
224,192,81594,1,8,0:0:0:0:
224,192,81781,1,0,0:0:0:0:
224,192,81875,1,8,0:0:0:0:
224,192,81969,1,8,0:0:0:0:
224,192,82156,1,0,0:0:0:0:
224,192,82344,1,8,0:0:0:0:
224,192,82531,1,0,0:0:0:0:
224,192,82625,1,0,0:0:0:0:
224,192,82719,1,8,0:0:0:0:
224,192,83000,1,8,0:0:0:0:
224,192,83281,1,8,0:0:0:0:
224,192,83562,1,0,0:0:0:0:
224,192,83844,1,8,0:0:0:0:
224,192,83937,1,8,0:0:0:0:
224,192,84031,1,8,0:0:0:0:
224,192,84125,1,8,0:0:0:0:
224,192,84219,1,0,0:0:0:0:
224,192,84594,1,8,0:0:0:0:
224,192,84969,1,8,0:0:0:0:
224,192,85062,1,8,0:0:0:0:
224,192,85250,1,8,0:0:0:0:
224,192,85344,1,8,0:0:0:0:
224,192,85531,1,0,0:0:0:0:
224,192,85625,1,0,0:0:0:0:
224,192,85719,1,8,0:0:0:0:
224,192,86000,1,8,0:0:0:0:
224,192,86094,1,0,0:0:0:0:
224,192,86281,1,0,0:0:0:0:
224,192,86375,1,0,0:0:0:0:
224,192,86469,1,8,0:0:0:0:
224,192,86656,1,8,0:0:0:0:
224,192,86844,1,0,0:0:0:0:
224,192,87031,1,0,0:0:0:0:
224,192,87219,1,8,0:0:0:0:
224,192,87406,1,0,0:0:0:0:
224,192,87594,1,8,0:0:0:0:
224,192,87781,1,0,0:0:0:0:
224,192,87969,1,8,0:0:0:0:
224,192,88250,1,8,0:0:0:0:
224,192,88344,1,0,0:0:0:0:
224,192,88531,1,8,0:0:0:0:
224,192,88719,1,8,0:0:0:0:
224,192,88906,1,0,0:0:0:0:
224,192,89094,1,8,0:0:0:0:
224,192,89281,1,0,0:0:0:0:
224,192,89469,1,8,0:0:0:0:
224,192,89562,1,0,0:0:0:0:
224,192,89656,1,8,0:0:0:0:
224,192,89844,1,8,0:0:0:0:
224,192,89937,1,0,0:0:0:0:
224,192,90031,1,8,0:0:0:0:
224,192,90125,1,8,0:0:0:0:
224,192,90219,1,0,0:0:0:0:
224,192,90594,1,0,0:0:0:0:
224,192,90781,1,0,0:0:0:0:
224,192,90969,1,8,0:0:0:0:
224,192,91156,1,0,0:0:0:0:
224,192,91250,1,8,0:0:0:0:
224,192,91437,1,8,0:0:0:0:
224,192,91531,1,0,0:0:0:0:
224,192,91719,1,8,0:0:0:0:
224,192,91906,1,0,0:0:0:0:
224,192,92000,1,0,0:0:0:0:
224,192,92094,1,8,0:0:0:0:
224,192,92281,1,0,0:0:0:0:
224,192,92469,1,8,0:0:0:0:
224,192,92562,1,8,0:0:0:0:
224,192,92656,1,0,0:0:0:0:
224,192,92750,1,0,0:0:0:0:
224,192,92844,1,8,0:0:0:0:
224,192,93031,1,8,0:0:0:0:
224,192,93219,1,0,0:0:0:0:
224,192,93594,1,8,0:0:0:0:
224,192,93781,1,0,0:0:0:0:
224,192,93875,1,0,0:0:0:0:
224,192,93969,1,8,0:0:0:0:
224,192,94156,1,0,0:0:0:0:
224,192,94344,1,8,0:0:0:0:
224,192,94531,1,0,0:0:0:0:
224,192,94625,1,8,0:0:0:0:
224,192,94719,1,8,0:0:0:0:
224,192,94906,1,8,0:0:0:0:
224,192,95000,1,8,0:0:0:0:
224,192,95094,1,0,0:0:0:0:
224,192,95281,1,8,0:0:0:0:
224,192,95469,1,0,0:0:0:0:
224,192,95562,1,8,0:0:0:0:
224,192,95656,1,0,0:0:0:0:
224,192,95750,1,0,0:0:0:0:
224,192,95844,1,8,0:0:0:0:
224,192,95937,1,8,0:0:0:0:
224,192,96031,1,0,0:0:0:0:
256,192,96219,5,8,0:0:0:0:
256,192,96594,1,8,0:0:0:0:
256,192,96969,1,8,0:0:0:0:
256,192,97062,1,0,0:0:0:0:
256,192,97156,1,8,0:0:0:0:
256,192,97250,1,8,0:0:0:0:
256,192,97344,1,0,0:0:0:0:
256,192,97531,1,8,0:0:0:0:
256,192,97719,1,0,0:0:0:0:
256,192,97906,1,8,0:0:0:0:
256,192,98000,1,0,0:0:0:0:
256,192,98187,1,8,0:0:0:0:
256,192,98281,1,0,0:0:0:0:
256,192,98469,1,8,0:0:0:0:
256,192,98656,1,8,0:0:0:0:
256,192,98750,1,8,0:0:0:0:
256,192,98844,1,0,0:0:0:0:
256,192,98937,1,0,0:0:0:0:
256,192,99031,1,8,0:0:0:0:
256,192,99125,1,0,0:0:0:0:
256,192,99219,1,8,0:0:0:0:
256,192,99500,1,8,0:0:0:0:
256,192,99781,1,8,0:0:0:0:
256,192,99875,1,8,0:0:0:0:
256,192,99969,1,0,0:0:0:0:
256,192,100156,1,0,0:0:0:0:
256,192,100250,1,0,0:0:0:0:
256,192,100344,1,8,0:0:0:0:
256,192,100437,1,8,0:0:0:0:
256,192,100531,1,0,0:0:0:0:
256,192,100719,1,0,0:0:0:0:
256,192,100812,1,0,0:0:0:0:
256,192,100906,1,0,0:0:0:0:
256,192,101094,1,8,0:0:0:0:
256,192,101187,1,8,0:0:0:0:
256,192,101281,1,8,0:0:0:0:
256,192,101469,1,0,0:0:0:0:
256,192,101562,1,8,0:0:0:0:
256,192,101656,1,0,0:0:0:0:
256,192,101844,1,8,0:0:0:0:
256,192,101937,1,0,0:0:0:0:
256,192,102031,1,8,0:0:0:0:
256,192,102125,1,8,0:0:0:0:
239,185,102219,1,0,0:0:0:0:
256,192,102594,1,0,0:0:0:0:
256,192,102781,1,0,0:0:0:0:
256,192,102969,1,8,0:0:0:0:
256,192,103156,1,0,0:0:0:0:
256,192,103250,1,8,0:0:0:0:
256,192,103437,1,0,0:0:0:0:
256,192,103531,1,8,0:0:0:0:
256,192,103719,1,8,0:0:0:0:
256,192,103906,1,0,0:0:0:0:
256,192,104000,1,0,0:0:0:0:
256,192,104094,1,8,0:0:0:0:
256,192,104281,1,0,0:0:0:0:
256,192,104469,1,8,0:0:0:0:
256,192,104562,1,8,0:0:0:0:
256,192,104656,1,0,0:0:0:0:
256,192,104750,1,0,0:0:0:0:
224,192,104844,1,8,0:0:0:0:
256,192,105031,1,0,0:0:0:0:
256,192,105125,1,8,0:0:0:0:
256,192,105219,1,0,0:0:0:0:
256,192,105406,1,0,0:0:0:0:
256,192,105594,1,8,0:0:0:0:
256,192,105781,1,0,0:0:0:0:
256,192,105875,1,8,0:0:0:0:
256,192,105969,1,8,0:0:0:0:
256,192,106156,1,0,0:0:0:0:
256,192,106344,1,8,0:0:0:0:
256,192,106531,1,0,0:0:0:0:
256,192,106625,1,0,0:0:0:0:
256,192,106719,1,12,0:0:0:0:
256,192,107000,1,12,0:0:0:0:
256,192,107281,1,12,0:0:0:0:
256,192,107562,1,4,0:0:0:0:
256,192,107844,1,0,0:0:0:0:
256,192,108031,1,8,0:0:0:0:
256,192,108125,1,8,0:0:0:0:
256,192,108406,1,0,0:0:0:0:
256,192,108500,1,8,0:0:0:0:
256,192,108594,1,0,0:0:0:0:
256,192,108781,1,8,0:0:0:0:
256,192,108875,1,0,0:0:0:0:
256,192,109062,1,8,0:0:0:0:
256,192,109156,1,0,0:0:0:0:
256,192,109344,1,8,0:0:0:0:
256,192,109437,1,8,0:0:0:0:
256,192,109531,1,8,0:0:0:0:
256,192,109625,1,8,0:0:0:0:
256,192,110094,1,8,0:0:0:0:
256,192,110281,1,0,0:0:0:0:
256,192,110375,1,8,0:0:0:0:
256,192,110844,1,8,0:0:0:0:
256,192,111031,1,0,0:0:0:0:
256,192,111219,1,0,0:0:0:0:
256,192,111500,1,8,0:0:0:0:
256,192,111781,1,8,0:0:0:0:
256,192,112062,1,8,0:0:0:0:
256,192,112344,1,0,0:0:0:0:
256,192,112437,1,0,0:0:0:0:
256,192,112531,1,8,0:0:0:0:
256,192,112625,1,8,0:0:0:0:
256,192,112719,1,0,0:0:0:0:
256,192,112906,1,0,0:0:0:0:
256,192,113000,1,8,0:0:0:0:
256,192,113187,1,0,0:0:0:0:
256,192,113281,1,8,0:0:0:0:
256,192,113375,1,8,0:0:0:0:
256,192,113469,1,0,0:0:0:0:
256,192,113562,1,8,0:0:0:0:
256,192,113750,1,0,0:0:0:0:
256,192,113844,1,8,0:0:0:0:
256,192,114031,1,0,0:0:0:0:
256,192,114125,1,8,0:0:0:0:
256,192,114219,1,0,0:0:0:0:
256,192,114500,1,0,0:0:0:0:
256,192,114594,1,8,0:0:0:0:
256,192,114687,1,0,0:0:0:0:
256,192,114781,1,8,0:0:0:0:
256,192,114969,1,8,0:0:0:0:
256,192,115156,1,8,0:0:0:0:
256,192,115250,1,8,0:0:0:0:
256,192,115344,1,0,0:0:0:0:
256,192,115531,1,0,0:0:0:0:
256,192,115625,1,8,0:0:0:0:
256,192,115719,1,0,0:0:0:0:
256,192,115906,1,0,0:0:0:0:
256,192,116094,1,0,0:0:0:0:
256,192,116187,1,0,0:0:0:0:
256,192,116281,1,0,0:0:0:0:
256,192,116375,1,0,0:0:0:0:
256,192,116469,1,8,0:0:0:0:
256,192,116656,1,8,0:0:0:0:
256,192,116750,1,0,0:0:0:0:
256,192,116844,1,8,0:0:0:0:
256,192,116937,1,8,0:0:0:0:
256,192,117031,1,0,0:0:0:0:
256,192,117219,1,8,0:0:0:0:
256,192,117406,1,8,0:0:0:0:
256,192,117500,1,8,0:0:0:0:
256,192,117687,1,8,0:0:0:0:
256,192,117781,1,8,0:0:0:0:
256,192,117875,1,8,0:0:0:0:
256,192,117969,1,8,0:0:0:0:
256,192,118156,1,0,0:0:0:0:
256,192,118250,1,0,0:0:0:0:
256,192,118344,1,8,0:0:0:0:
256,192,118437,1,0,0:0:0:0:
256,192,118531,1,8,0:0:0:0:
256,192,118625,1,8,0:0:0:0:
256,192,118719,1,0,0:0:0:0:
256,192,119094,1,0,0:0:0:0:
256,192,119469,1,0,0:0:0:0:
256,192,119594,1,0,0:0:0:0:
256,192,119719,1,0,0:0:0:0:
256,192,119844,1,8,0:0:0:0:
256,192,120031,1,8,0:0:0:0:
256,192,120125,1,8,0:0:0:0:
256,192,120219,5,4,0:0:0:0:
256,192,120406,1,0,0:0:0:0:
256,192,120500,1,8,0:0:0:0:
256,192,120687,1,8,0:0:0:0:
256,192,120781,1,0,0:0:0:0:
256,192,120969,1,0,0:0:0:0:
256,192,121156,1,8,0:0:0:0:
256,192,121344,1,0,0:0:0:0:
256,192,121437,1,8,0:0:0:0:
256,192,121531,1,0,0:0:0:0:
256,192,121719,1,8,0:0:0:0:
256,192,121906,1,0,0:0:0:0:
256,192,122000,1,8,0:0:0:0:
256,192,122187,1,8,0:0:0:0:
256,192,122281,1,0,0:0:0:0:
256,192,122469,1,8,0:0:0:0:
256,192,122656,1,0,0:0:0:0:
256,192,122844,1,8,0:0:0:0:
256,192,122937,1,8,0:0:0:0:
256,192,123031,1,0,0:0:0:0:
256,192,123219,1,8,0:0:0:0:
256,192,123406,1,0,0:0:0:0:
256,192,123500,1,8,0:0:0:0:
256,192,123687,1,8,0:0:0:0:
256,192,123781,1,0,0:0:0:0:
256,192,123969,1,0,0:0:0:0:
256,192,124156,1,8,0:0:0:0:
256,192,124344,1,0,0:0:0:0:
256,192,124437,1,8,0:0:0:0:
256,192,124531,1,0,0:0:0:0:
256,192,124719,1,8,0:0:0:0:
256,192,124906,1,0,0:0:0:0:
256,192,125000,1,8,0:0:0:0:
256,192,125094,1,0,0:0:0:0:
256,192,125187,1,0,0:0:0:0:
256,192,125281,1,8,0:0:0:0:
256,192,125469,1,0,0:0:0:0:
256,192,125562,1,8,0:0:0:0:
256,192,125656,1,0,0:0:0:0:
256,192,125844,1,8,0:0:0:0:
256,192,126219,5,4,0:0:0:0:
256,192,126406,1,0,0:0:0:0:
256,192,126500,1,8,0:0:0:0:
256,192,126687,1,8,0:0:0:0:
256,192,126781,1,0,0:0:0:0:
256,192,126969,1,0,0:0:0:0:
256,192,127156,1,8,0:0:0:0:
256,192,127344,1,0,0:0:0:0:
256,192,127437,1,8,0:0:0:0:
256,192,127531,1,0,0:0:0:0:
256,192,127719,1,8,0:0:0:0:
256,192,127906,1,0,0:0:0:0:
256,192,128000,1,8,0:0:0:0:
256,192,128187,1,8,0:0:0:0:
256,192,128281,1,0,0:0:0:0:
256,192,128469,1,8,0:0:0:0:
256,192,128656,1,0,0:0:0:0:
256,192,128844,1,8,0:0:0:0:
256,192,128937,1,8,0:0:0:0:
256,192,129031,1,0,0:0:0:0:
256,192,129219,1,8,0:0:0:0:
256,192,129406,1,0,0:0:0:0:
256,192,129500,1,8,0:0:0:0:
256,192,129687,1,8,0:0:0:0:
256,192,129781,1,0,0:0:0:0:
256,192,129969,1,0,0:0:0:0:
256,192,130156,1,8,0:0:0:0:
256,192,130344,1,0,0:0:0:0:
256,192,130437,1,8,0:0:0:0:
256,192,130531,1,0,0:0:0:0:
256,192,130719,1,8,0:0:0:0:
256,192,130906,1,0,0:0:0:0:
256,192,131000,1,8,0:0:0:0:
256,192,131094,1,0,0:0:0:0:
256,192,131187,1,0,0:0:0:0:
256,192,131281,1,8,0:0:0:0:
256,192,131469,1,0,0:0:0:0:
256,192,131562,1,8,0:0:0:0:
256,192,131656,1,0,0:0:0:0:
256,192,131844,5,8,0:0:0:0:
256,192,132219,1,0,0:0:0:0:
256,192,132312,1,8,0:0:0:0:
256,192,132406,1,8,0:0:0:0:
256,192,132500,1,8,0:0:0:0:
256,192,132594,1,0,0:0:0:0:
256,192,132781,1,0,0:0:0:0:
256,192,132969,1,0,0:0:0:0:
256,192,133062,1,8,0:0:0:0:
256,192,133156,1,8,0:0:0:0:
256,192,133250,1,0,0:0:0:0:
256,192,133344,1,8,0:0:0:0:
256,192,133531,1,0,0:0:0:0:
256,192,133625,1,8,0:0:0:0:
256,192,133719,1,0,0:0:0:0:
256,192,133906,1,0,0:0:0:0:
256,192,134000,1,8,0:0:0:0:
256,192,134187,1,8,0:0:0:0:
256,192,134281,1,0,0:0:0:0:
256,192,134469,1,8,0:0:0:0:
256,192,134656,1,0,0:0:0:0:
256,192,134844,1,8,0:0:0:0:
224,192,134937,1,8,0:0:0:0:
224,192,135031,1,0,0:0:0:0:
256,192,135125,1,0,0:0:0:0:
224,192,135219,1,8,0:0:0:0:
256,192,135500,1,0,0:0:0:0:
224,192,135594,1,8,0:0:0:0:
256,192,135687,1,8,0:0:0:0:
256,192,135781,1,0,0:0:0:0:
256,192,135969,1,8,0:0:0:0:
256,192,136156,1,0,0:0:0:0:
256,192,136250,1,0,0:0:0:0:
256,192,136344,1,8,0:0:0:0:
256,192,136531,1,0,0:0:0:0:
256,192,136719,1,8,0:0:0:0:
256,192,136812,1,8,0:0:0:0:
256,192,136906,1,0,0:0:0:0:
256,192,137000,1,8,0:0:0:0:
256,192,137187,1,0,0:0:0:0:
256,192,137281,1,8,0:0:0:0:
256,192,137469,1,8,0:0:0:0:
256,192,137562,1,0,0:0:0:0:
256,192,137656,1,0,0:0:0:0:
256,192,137844,1,8,0:0:0:0:
256,192,138031,1,0,0:0:0:0:
256,192,138125,1,0,0:0:0:0:
256,192,138219,1,8,0:0:0:0:
256,192,138594,1,8,0:0:0:0:
256,192,138687,1,8,0:0:0:0:
256,192,138781,1,0,0:0:0:0:
256,192,138969,1,0,0:0:0:0:
256,192,139156,1,0,0:0:0:0:
256,192,139250,1,0,0:0:0:0:
256,192,139344,1,8,0:0:0:0:
256,192,139531,1,8,0:0:0:0:
256,192,139719,1,0,0:0:0:0:
256,192,139906,1,8,0:0:0:0:
256,192,140000,1,0,0:0:0:0:
256,192,140094,1,8,0:0:0:0:
256,192,140187,1,8,0:0:0:0:
256,192,140281,1,0,0:0:0:0:
256,192,140469,1,8,0:0:0:0:
256,192,140656,1,0,0:0:0:0:
256,192,140750,1,0,0:0:0:0:
256,192,140844,1,8,0:0:0:0:
256,192,140937,1,8,0:0:0:0:
256,192,141031,1,0,0:0:0:0:
256,192,141219,1,8,0:0:0:0:
256,192,141406,1,0,0:0:0:0:
256,192,141500,1,8,0:0:0:0:
256,192,141594,1,0,0:0:0:0:
256,192,141687,1,0,0:0:0:0:
256,192,141781,1,8,0:0:0:0:
256,192,141969,1,0,0:0:0:0:
256,192,142062,1,8,0:0:0:0:
256,192,142156,1,0,0:0:0:0:
256,192,142344,1,8,0:0:0:0:
256,192,142531,1,0,0:0:0:0:
256,192,142625,1,0,0:0:0:0:
256,192,142719,1,8,0:0:0:0:
256,192,142906,1,8,0:0:0:0:
256,192,143094,1,0,0:0:0:0:
256,192,143187,1,8,0:0:0:0:
256,192,143281,1,8,0:0:0:0:
256,192,143375,1,0,0:0:0:0:
256,192,143562,1,0,0:0:0:0:
256,192,143656,1,8,0:0:0:0:
256,192,143844,1,8,0:0:0:0:
256,192,143937,1,8,0:0:0:0:
256,192,144031,1,8,0:0:0:0:
256,192,144125,1,8,0:0:0:0:
256,192,144219,1,0,0:0:0:0:
288,192,144594,5,8,0:0:0:0:
288,192,144969,1,8,0:0:0:0:
288,192,145062,1,8,0:0:0:0:
288,192,145156,1,8,0:0:0:0:
288,192,145250,1,0,0:0:0:0:
288,192,145531,1,0,0:0:0:0:
288,192,145719,1,8,0:0:0:0:
288,192,146000,1,8,0:0:0:0:
288,192,146281,1,0,0:0:0:0:
256,192,147031,1,0,0:0:0:0:
256,192,147219,1,8,0:0:0:0:
256,192,147406,1,0,0:0:0:0:
256,192,147594,1,8,0:0:0:0:
256,192,147781,1,0,0:0:0:0:
256,192,147969,1,8,0:0:0:0:
256,192,148250,1,8,0:0:0:0:
256,192,148531,1,8,0:0:0:0:
256,192,150219,1,8,0:0:0:0:
256,192,150969,1,0,0:0:0:0:
256,192,151250,1,8,0:0:0:0:
256,192,151531,1,8,0:0:0:0:
256,192,151719,1,0,0:0:0:0:
256,192,152094,1,0,0:0:0:0:
256,192,152469,1,8,0:0:0:0:
256,192,152844,1,8,0:0:0:0:
256,192,153219,1,0,0:0:0:0:
256,192,153781,1,0,0:0:0:0:
256,192,153875,1,0,0:0:0:0:
256,192,153969,1,8,0:0:0:0:
256,192,154531,1,0,0:0:0:0:
256,192,154625,1,8,0:0:0:0:
256,192,154719,1,8,0:0:0:0:
256,192,155094,1,0,0:0:0:0:
256,192,155469,1,8,0:0:0:0:
256,192,155844,1,8,0:0:0:0:
256,192,156219,1,0,0:0:0:0:
256,192,156406,1,0,0:0:0:0:
256,192,156594,1,8,0:0:0:0:
256,192,156781,1,0,0:0:0:0:
256,192,156969,1,0,0:0:0:0:
256,192,157156,1,8,0:0:0:0:
256,192,157344,1,8,0:0:0:0:
256,192,157719,1,0,0:0:0:0:
256,192,157906,1,0,0:0:0:0:
256,192,158094,1,8,0:0:0:0:
256,192,158281,1,0,0:0:0:0:
256,192,158469,1,8,0:0:0:0:
256,192,158656,1,8,0:0:0:0:
256,192,158844,1,8,0:0:0:0:
256,192,159031,1,8,0:0:0:0:
256,192,159219,1,0,0:0:0:0:
256,192,159406,1,8,0:0:0:0:
256,192,159594,1,0,0:0:0:0:
256,192,159781,1,8,0:0:0:0:
256,192,159969,1,8,0:0:0:0:
256,192,160156,1,0,0:0:0:0:
256,192,160344,1,8,0:0:0:0:
256,192,160531,1,8,0:0:0:0:
256,192,160719,1,0,0:0:0:0:
256,192,160812,1,0,0:0:0:0:
256,192,160906,1,0,0:0:0:0:
256,192,161000,1,0,0:0:0:0:
256,192,161094,1,8,0:0:0:0:
256,192,161281,1,0,0:0:0:0:
256,192,161469,1,8,0:0:0:0:
256,192,161750,1,8,0:0:0:0:
256,192,162031,1,8,0:0:0:0:
256,192,162219,1,0,0:0:0:0:
256,192,162594,1,8,0:0:0:0:
256,192,162781,1,0,0:0:0:0:
256,192,162969,1,8,0:0:0:0:
256,192,163156,1,0,0:0:0:0:
256,192,163250,1,8,0:0:0:0:
256,192,163437,1,8,0:0:0:0:
256,192,163531,1,0,0:0:0:0:
256,192,163719,1,8,0:0:0:0:
256,192,163906,1,0,0:0:0:0:
256,192,164000,1,0,0:0:0:0:
256,192,164094,1,8,0:0:0:0:
256,192,164281,1,0,0:0:0:0:
256,192,164469,1,8,0:0:0:0:
256,192,164562,1,8,0:0:0:0:
256,192,164656,1,0,0:0:0:0:
256,192,164844,1,8,0:0:0:0:
256,192,165031,1,8,0:0:0:0:
256,192,165219,1,0,0:0:0:0:
256,192,165406,1,0,0:0:0:0:
256,192,165594,1,0,0:0:0:0:
256,192,165781,1,0,0:0:0:0:
256,192,165875,1,0,0:0:0:0:
256,192,165969,1,8,0:0:0:0:
256,192,166156,1,0,0:0:0:0:
256,192,166344,1,0,0:0:0:0:
256,192,166531,1,0,0:0:0:0:
256,192,166625,1,0,0:0:0:0:
256,192,166719,1,8,0:0:0:0:
256,192,167000,1,8,0:0:0:0:
256,192,167094,1,0,0:0:0:0:
256,192,167281,1,8,0:0:0:0:
256,192,167469,1,8,0:0:0:0:
256,192,167562,1,8,0:0:0:0:
256,192,167656,1,0,0:0:0:0:
256,192,167750,1,0,0:0:0:0:
256,192,167844,1,8,0:0:0:0:
256,192,167937,1,8,0:0:0:0:
256,192,168031,1,0,0:0:0:0:
256,192,168219,5,12,0:0:0:0:
256,192,168594,1,8,0:0:0:0:
256,192,168969,1,8,0:0:0:0:
256,192,169062,1,8,0:0:0:0:
256,192,169250,1,8,0:0:0:0:
256,192,169344,1,8,0:0:0:0:
256,192,169531,1,0,0:0:0:0:
256,192,169625,1,0,0:0:0:0:
256,192,169719,1,8,0:0:0:0:
256,192,170000,1,8,0:0:0:0:
256,192,170094,1,0,0:0:0:0:
256,192,170281,1,8,0:0:0:0:
256,192,170469,1,0,0:0:0:0:
256,192,170656,1,0,0:0:0:0:
256,192,170750,1,0,0:0:0:0:
256,192,170844,1,8,0:0:0:0:
256,192,170937,1,8,0:0:0:0:
256,192,171031,1,0,0:0:0:0:
256,192,171219,1,8,0:0:0:0:
256,192,171406,1,8,0:0:0:0:
256,192,171594,1,0,0:0:0:0:
256,192,171687,1,0,0:0:0:0:
256,192,171781,1,0,0:0:0:0:
256,192,171875,1,0,0:0:0:0:
256,192,171969,1,8,0:0:0:0:
256,192,172250,1,8,0:0:0:0:
256,192,172344,1,0,0:0:0:0:
256,192,172531,1,8,0:0:0:0:
256,192,172719,1,0,0:0:0:0:
256,192,172906,1,0,0:0:0:0:
256,192,173094,1,8,0:0:0:0:
256,192,173281,1,8,0:0:0:0:
256,192,173469,1,8,0:0:0:0:
256,192,173562,1,0,0:0:0:0:
256,192,173656,1,8,0:0:0:0:
256,192,173844,1,8,0:0:0:0:
256,192,173937,1,8,0:0:0:0:
256,192,174031,1,0,0:0:0:0:
256,192,174125,1,0,0:0:0:0:
256,192,174219,1,8,0:0:0:0:
256,192,174594,1,0,0:0:0:0:
256,192,174781,1,0,0:0:0:0:
256,192,174969,1,8,0:0:0:0:
266,200,175156,1,0,0:0:0:0:
266,200,175250,1,8,0:0:0:0:
256,192,175437,1,8,0:0:0:0:
256,192,175531,1,0,0:0:0:0:
256,192,175719,1,8,0:0:0:0:
256,192,175906,1,0,0:0:0:0:
256,192,176000,1,0,0:0:0:0:
256,192,176094,1,8,0:0:0:0:
256,192,176281,1,0,0:0:0:0:
256,192,176469,1,8,0:0:0:0:
256,192,176562,1,8,0:0:0:0:
256,192,176656,1,0,0:0:0:0:
256,192,176844,1,8,0:0:0:0:
256,192,177031,1,8,0:0:0:0:
256,192,177219,1,0,0:0:0:0:
256,192,177594,1,8,0:0:0:0:
256,192,177781,1,0,0:0:0:0:
256,192,177875,1,0,0:0:0:0:
256,192,177969,1,8,0:0:0:0:
224,192,178156,1,0,0:0:0:0:
256,192,178344,1,8,0:0:0:0:
256,192,178437,1,8,0:0:0:0:
256,192,178531,1,0,0:0:0:0:
256,192,178625,1,0,0:0:0:0:
256,192,178719,1,8,0:0:0:0:
256,192,178906,1,8,0:0:0:0:
256,192,179000,1,8,0:0:0:0:
256,192,179094,1,0,0:0:0:0:
256,192,179281,1,0,0:0:0:0:
256,192,179469,1,8,0:0:0:0:
256,192,179562,1,8,0:0:0:0:
256,192,179656,1,0,0:0:0:0:
256,192,179750,1,0,0:0:0:0:
256,192,179844,1,8,0:0:0:0:
256,192,179937,1,8,0:0:0:0:
256,192,180031,1,8,0:0:0:0:
256,192,180125,1,8,0:0:0:0:
256,192,180219,1,0,0:0:0:0:
256,192,180594,1,8,0:0:0:0:
256,192,180969,1,8,0:0:0:0:
256,192,181062,1,8,0:0:0:0:
256,192,181156,1,0,0:0:0:0:
256,192,181250,1,8,0:0:0:0:
256,192,181344,1,0,0:0:0:0:
256,192,181531,1,8,0:0:0:0:
256,192,181719,1,8,0:0:0:0:
256,192,181906,1,0,0:0:0:0:
256,192,182000,1,8,0:0:0:0:
256,192,182187,1,8,0:0:0:0:
256,192,182281,1,0,0:0:0:0:
256,192,182469,1,0,0:0:0:0:
256,192,182656,1,8,0:0:0:0:
256,192,182750,1,8,0:0:0:0:
256,192,182844,1,0,0:0:0:0:
224,192,182937,1,8,0:0:0:0:
256,192,183031,1,0,0:0:0:0:
256,192,183125,1,0,0:0:0:0:
256,192,183219,1,8,0:0:0:0:
256,192,183406,1,0,0:0:0:0:
256,192,183594,1,8,0:0:0:0:
256,192,183781,1,0,0:0:0:0:
256,192,183969,1,8,0:0:0:0:
256,192,184156,1,0,0:0:0:0:
256,192,184250,1,8,0:0:0:0:
256,192,184437,1,0,0:0:0:0:
256,192,184531,1,8,0:0:0:0:
256,192,184719,1,0,0:0:0:0:
256,192,184812,1,0,0:0:0:0:
256,192,184906,1,8,0:0:0:0:
256,192,185094,1,8,0:0:0:0:
256,192,185187,1,8,0:0:0:0:
256,192,185281,1,0,0:0:0:0:
256,192,185375,1,0,0:0:0:0:
256,192,185469,1,8,0:0:0:0:
256,192,185656,1,8,0:0:0:0:
256,192,185844,1,0,0:0:0:0:
256,192,186031,1,0,0:0:0:0:
256,192,186219,1,8,0:0:0:0:
256,192,186594,1,0,0:0:0:0:
256,192,186781,1,0,0:0:0:0:
256,192,186969,1,8,0:0:0:0:
256,192,187156,1,0,0:0:0:0:
256,192,187250,1,8,0:0:0:0:
256,192,187437,1,8,0:0:0:0:
256,192,187531,1,0,0:0:0:0:
256,192,187719,1,8,0:0:0:0:
256,192,187906,1,0,0:0:0:0:
256,192,188000,1,0,0:0:0:0:
256,192,188094,1,8,0:0:0:0:
256,192,188281,1,0,0:0:0:0:
256,192,188469,1,8,0:0:0:0:
256,192,188562,1,8,0:0:0:0:
256,192,188656,1,0,0:0:0:0:
256,192,188844,1,8,0:0:0:0:
256,192,188937,1,8,0:0:0:0:
256,192,189031,1,8,0:0:0:0:
256,192,189125,1,8,0:0:0:0:
256,192,189219,1,0,0:0:0:0:
256,192,189406,1,8,0:0:0:0:
256,192,189594,1,0,0:0:0:0:
256,192,189781,1,0,0:0:0:0:
256,192,189875,1,8,0:0:0:0:
256,192,189969,1,8,0:0:0:0:
256,192,190156,1,0,0:0:0:0:
266,196,190250,1,8,0:0:0:0:
266,196,190437,1,0,0:0:0:0:
266,196,190531,1,8,0:0:0:0:
266,196,190625,1,8,0:0:0:0:
266,196,190719,1,4,0:0:0:0:
266,196,191000,1,4,0:0:0:0:
256,192,191281,1,12,0:0:0:0:
256,192,191562,1,4,0:0:0:0:
256,192,191844,1,12,0:0:0:0:
256,192,192031,1,12,0:0:0:0:
256,192,192219,1,0,0:0:0:0:
256,192,192406,1,8,0:0:0:0:
256,192,192594,1,0,0:0:0:0:
256,192,192687,1,8,0:0:0:0:
256,192,192781,1,0,0:0:0:0:
256,192,192969,1,8,0:0:0:0:
256,192,193062,1,8,0:0:0:0:
256,192,193156,1,0,0:0:0:0:
256,192,193250,1,8,0:0:0:0:
256,192,193344,1,0,0:0:0:0:
256,192,193719,1,0,0:0:0:0:
256,192,193906,1,8,0:0:0:0:
256,192,194000,1,0,0:0:0:0:
256,192,194094,1,0,0:0:0:0:
256,192,194281,1,8,0:0:0:0:
256,192,194469,1,0,0:0:0:0:
256,192,194656,1,8,0:0:0:0:
256,192,194844,1,0,0:0:0:0:
256,192,195219,1,0,0:0:0:0:
256,192,195406,1,8,0:0:0:0:
256,192,195500,1,8,0:0:0:0:
256,192,195594,1,0,0:0:0:0:
256,192,195781,1,8,0:0:0:0:
256,192,195969,1,0,0:0:0:0:
256,192,196156,1,8,0:0:0:0:
256,192,196344,1,0,0:0:0:0:
256,192,196719,1,0,0:0:0:0:
256,192,196906,1,0,0:0:0:0:
256,192,197000,1,8,0:0:0:0:
256,192,197094,1,0,0:0:0:0:
256,192,197281,1,8,0:0:0:0:
256,192,197469,1,0,0:0:0:0:
256,192,197656,1,8,0:0:0:0:
256,192,197844,1,0,0:0:0:0:
256,192,198219,1,0,0:0:0:0:
256,192,198406,1,8,0:0:0:0:
256,192,198500,1,8,0:0:0:0:
256,192,198594,1,0,0:0:0:0:
256,192,198781,1,8,0:0:0:0:
256,192,198969,1,0,0:0:0:0:
256,192,199156,1,8,0:0:0:0:
256,192,199344,1,0,0:0:0:0:
256,192,199719,1,0,0:0:0:0:
256,192,199906,1,8,0:0:0:0:
256,192,200000,1,0,0:0:0:0:
256,192,200094,1,0,0:0:0:0:
256,192,200281,1,8,0:0:0:0:
256,192,200469,1,0,0:0:0:0:
256,192,200656,1,8,0:0:0:0:
256,192,200844,1,0,0:0:0:0:
256,192,201219,1,0,0:0:0:0:
256,192,201406,1,8,0:0:0:0:
256,192,201500,1,8,0:0:0:0:
256,192,201594,1,0,0:0:0:0:
256,192,201781,1,8,0:0:0:0:
256,192,201969,1,0,0:0:0:0:
256,192,202156,1,0,0:0:0:0:
256,192,202344,1,12,0:0:0:0:
256,192,203094,1,0,0:0:0:0:
256,192,203187,1,0,0:0:0:0:
256,192,203281,1,0,0:0:0:0:
256,192,203375,1,0,0:0:0:0:
256,192,203469,1,0,0:0:0:0:
256,192,203719,1,0,0:0:0:0:
256,192,203844,1,12,0:0:0:0:
