osu file format v14

[General]
AudioFilename: audio.mp3
AudioLeadIn: 0
PreviewTime: 60125
Countdown: 0
SampleSet: Normal
StackLeniency: 0.7
Mode: 1
LetterboxInBreaks: 0
WidescreenStoryboard: 1

[Editor]
Bookmarks: 12219,24219,48219,84219,120219,132219,144219,156219,168219
DistanceSpacing: 5.5
BeatDivisor: 4
GridSize: 32
TimelineZoom: 0.4999999

[Metadata]
Title:Silver Winds
TitleUnicode:Silver Winds
Artist:Cyte
ArtistUnicode:Cyte
Creator:Cychloryn
Version:Kantan
Source:
Tags:cytekinesis i'm 11! hatsune miku treow chaining intention vocaloid lolicore electronic japanese sv
BeatmapID:2592442
BeatmapSetID:1242018

[Difficulty]
HPDrainRate:8
CircleSize:2
OverallDifficulty:2.5
ApproachRate:10
SliderMultiplier:1.4
SliderTickRate:1

[Events]
//Background and Video events
0,0,"silvermiku.jpg",0,116
//Break Periods
2,144419,155769
//Storyboard Layer 0 (Background)
//Storyboard Layer 1 (Fail)
//Storyboard Layer 2 (Pass)
//Storyboard Layer 3 (Foreground)
//Storyboard Layer 4 (Overlay)
//Storyboard Sound Samples

[TimingPoints]
219,375,4,1,0,75,1,0
24219,-100,4,1,0,80,0,0
36219,-100,4,1,0,90,0,0
48406,-100,4,1,0,90,0,0
59469,-99.009900990099,4,1,0,90,0,0
59844,-98.0392156862745,4,1,0,90,0,0
60219,-95.2380952380952,4,1,0,100,0,1
107844,-100,4,1,0,90,0,0
120312,-100,4,1,0,80,0,0
132219,-100,4,1,0,90,0,0
144219,-100,4,1,0,90,0,0
144594,-111.111111111111,4,1,0,60,0,0
156219,-105.263157894737,4,1,0,80,0,0
165969,-103.092783505155,4,1,0,80,0,0
166719,-101.010101010101,4,1,0,90,0,0
167469,-99.009900990099,4,1,0,90,0,0
167844,-98.0392156862745,4,1,0,90,0,0
168219,-95.2380952380952,4,1,0,100,0,1
179094,-94.3396226415094,4,1,0,100,0,1
179469,-93.4579439252336,4,1,0,100,0,1
179844,-92.5925925925926,4,1,0,100,0,1
180219,-91.743119266055,4,1,0,100,0,1
180500,-95.2380952380952,4,1,0,100,0,1
190719,-92.5925925925926,4,1,0,100,0,1
191281,-95.2380952380952,4,1,0,100,0,1
191844,-98.0392156862745,4,1,0,100,0,1
192219,-100,4,1,0,75,0,0

[HitObjects]
256,192,12219,5,0,0:0:0:0:
256,192,12594,1,0,0:0:0:0:
256,192,12969,1,0,0:0:0:0:
256,192,13719,1,0,0:0:0:0:
256,192,14094,1,0,0:0:0:0:
256,192,14469,1,0,0:0:0:0:
256,192,15219,1,0,0:0:0:0:
256,192,15594,1,0,0:0:0:0:
256,192,15969,1,0,0:0:0:0:
256,192,16719,1,0,0:0:0:0:
256,192,18219,1,0,0:0:0:0:
256,192,18594,1,0,0:0:0:0:
256,192,18969,1,0,0:0:0:0:
256,192,19719,1,0,0:0:0:0:
256,192,20094,1,0,0:0:0:0:
256,192,20469,1,0,0:0:0:0:
256,192,21219,1,0,0:0:0:0:
256,192,21969,1,0,0:0:0:0:
256,192,22344,5,12,0:0:0:0:
288,192,23094,1,0,0:0:0:0:
288,192,23469,1,0,0:0:0:0:
256,192,23844,1,8,0:0:0:0:
224,192,24219,1,4,0:0:0:0:
256,192,25344,1,8,0:0:0:0:
256,192,25719,1,0,0:0:0:0:
256,192,26469,1,0,0:0:0:0:
256,192,26844,1,8,0:0:0:0:
256,192,27219,1,0,0:0:0:0:
256,192,27969,1,0,0:0:0:0:
256,192,28344,1,8,0:0:0:0:
256,192,28719,1,8,0:0:0:0:
256,192,29281,1,0,0:0:0:0:
256,192,29844,1,8,0:0:0:0:
256,192,30219,1,0,0:0:0:0:
256,192,31344,1,0,0:0:0:0:
288,224,31719,1,8,0:0:0:0:
288,224,32469,1,0,0:0:0:0:
256,192,33219,1,0,0:0:0:0:
256,192,33594,1,8,0:0:0:0:
256,192,33969,1,0,0:0:0:0:
256,192,34719,1,8,0:0:0:0:
256,192,35281,1,8,0:0:0:0:
256,192,35844,1,0,0:0:0:0:
256,192,36969,1,0,0:0:0:0:
256,192,37344,1,8,0:0:0:0:
256,192,37719,1,0,0:0:0:0:
256,192,38469,1,8,0:0:0:0:
256,192,38844,1,8,0:0:0:0:
256,192,39219,1,0,0:0:0:0:
256,192,39969,1,8,0:0:0:0:
256,192,40344,1,0,0:0:0:0:
256,192,40719,1,8,0:0:0:0:
256,192,41281,1,8,0:0:0:0:
256,192,41844,1,8,0:0:0:0:
256,192,42219,1,0,0:0:0:0:
256,192,43344,1,8,0:0:0:0:
256,192,43719,1,0,0:0:0:0:
256,192,44469,1,8,0:0:0:0:
256,192,44844,1,8,0:0:0:0:
256,192,45219,1,0,0:0:0:0:
256,192,45969,1,8,0:0:0:0:
256,192,46344,1,0,0:0:0:0:
256,192,46719,1,8,0:0:0:0:
256,192,47281,1,8,0:0:0:0:
256,192,47844,1,8,0:0:0:0:
256,192,48219,1,0,0:0:0:0:
256,192,49344,1,8,0:0:0:0:
256,192,49719,1,0,0:0:0:0:
256,192,50469,1,8,0:0:0:0:
256,192,50844,1,8,0:0:0:0:
256,192,51219,1,0,0:0:0:0:
256,192,51969,1,0,0:0:0:0:
256,192,52719,1,8,0:0:0:0:
256,192,53094,1,0,0:0:0:0:
256,192,53469,1,8,0:0:0:0:
256,192,53844,1,8,0:0:0:0:
256,192,54219,1,0,0:0:0:0:
256,192,55344,1,0,0:0:0:0:
256,192,55719,1,8,0:0:0:0:
256,192,56469,1,8,0:0:0:0:
256,192,56844,1,8,0:0:0:0:
256,192,57219,1,0,0:0:0:0:
256,192,58344,1,8,0:0:0:0:
256,192,58719,1,0,0:0:0:0:
256,192,59094,1,0,0:0:0:0:
256,192,59469,1,8,0:0:0:0:
256,192,59844,1,0,0:0:0:0:
256,192,60219,1,12,0:0:0:0:
256,192,61344,1,0,0:0:0:0:
256,192,61719,1,8,0:0:0:0:
256,192,62094,1,8,0:0:0:0:
256,192,62469,1,0,0:0:0:0:
256,192,63219,1,8,0:0:0:0:
256,192,63969,1,0,0:0:0:0:
256,192,64344,1,0,0:0:0:0:
256,192,64719,1,8,0:0:0:0:
256,192,65469,1,8,0:0:0:0:
256,192,65844,1,8,0:0:0:0:
256,192,66219,1,0,0:0:0:0:
256,192,67344,1,8,0:0:0:0:
256,192,67719,1,0,0:0:0:0:
256,192,68094,1,0,0:0:0:0:
256,192,68469,1,8,0:0:0:0:
256,192,69219,1,0,0:0:0:0:
256,192,69969,1,8,0:0:0:0:
256,192,70719,1,8,0:0:0:0:
256,192,71094,1,0,0:0:0:0:
256,192,71469,1,8,0:0:0:0:
256,192,71844,1,8,0:0:0:0:
256,192,72219,1,0,0:0:0:0:
256,192,73344,1,0,0:0:0:0:
256,192,73719,1,8,0:0:0:0:
256,192,74094,1,8,0:0:0:0:
256,192,74469,1,0,0:0:0:0:
256,192,75219,1,8,0:0:0:0:
256,192,75969,1,0,0:0:0:0:
256,192,76344,1,0,0:0:0:0:
256,192,76719,1,8,0:0:0:0:
256,192,77469,1,8,0:0:0:0:
256,192,77844,1,8,0:0:0:0:
256,192,78219,1,0,0:0:0:0:
256,192,79719,1,8,0:0:0:0:
256,192,80094,1,0,0:0:0:0:
256,192,80469,1,8,0:0:0:0:
256,192,80844,1,8,0:0:0:0:
256,192,81219,1,0,0:0:0:0:
256,192,81969,1,0,0:0:0:0:
224,192,82719,1,8,0:0:0:0:
224,192,83281,1,8,0:0:0:0:
224,192,83844,1,8,0:0:0:0:
224,192,84219,1,0,0:0:0:0:
224,192,84969,1,0,0:0:0:0:
224,192,85719,1,8,0:0:0:0:
224,192,86094,1,8,0:0:0:0:
224,192,86469,1,0,0:0:0:0:
224,192,87219,1,8,0:0:0:0:
224,192,87969,1,0,0:0:0:0:
224,192,88344,1,0,0:0:0:0:
224,192,88719,1,8,0:0:0:0:
224,192,89469,1,8,0:0:0:0:
224,192,89844,1,8,0:0:0:0:
224,192,90219,1,0,0:0:0:0:
256,192,91344,1,8,0:0:0:0:
256,192,91719,1,0,0:0:0:0:
256,192,92094,1,0,0:0:0:0:
256,192,92469,1,8,0:0:0:0:
256,192,93219,1,0,0:0:0:0:
256,192,93969,1,8,0:0:0:0:
256,192,94719,1,8,0:0:0:0:
256,192,95094,1,0,0:0:0:0:
256,192,95469,1,8,0:0:0:0:
256,192,95844,1,8,0:0:0:0:
256,192,96219,1,0,0:0:0:0:
256,192,97344,1,0,0:0:0:0:
256,192,97719,1,8,0:0:0:0:
256,192,98469,1,8,0:0:0:0:
256,192,98844,1,8,0:0:0:0:
256,192,99219,1,0,0:0:0:0:
256,192,99969,1,0,0:0:0:0:
256,192,100344,1,8,0:0:0:0:
256,192,100719,1,0,0:0:0:0:
256,192,101094,1,0,0:0:0:0:
256,192,101469,1,8,0:0:0:0:
256,192,102219,1,0,0:0:0:0:
256,192,103719,1,8,0:0:0:0:
256,192,104094,1,0,0:0:0:0:
256,192,104469,1,8,0:0:0:0:
256,192,104844,1,8,0:0:0:0:
256,192,105219,1,0,0:0:0:0:
256,192,105969,1,8,0:0:0:0:
256,192,106719,1,12,0:0:0:0:
256,192,107281,1,12,0:0:0:0:
256,192,108219,12,0,109250,0:0:0:0:
256,160,110094,5,8,0:0:0:0:
256,192,110844,1,8,0:0:0:0:
256,192,111219,1,0,0:0:0:0:
256,192,111781,1,8,0:0:0:0:
256,192,112719,1,8,0:0:0:0:
256,192,113469,1,0,0:0:0:0:
256,192,113844,1,8,0:0:0:0:
256,192,114219,1,0,0:0:0:0:
256,192,114969,1,8,0:0:0:0:
256,192,115719,1,0,0:0:0:0:
256,192,116094,1,0,0:0:0:0:
256,192,116469,1,8,0:0:0:0:
256,192,116844,1,8,0:0:0:0:
256,192,117219,1,0,0:0:0:0:
256,192,117969,1,0,0:0:0:0:
256,192,118344,1,8,0:0:0:0:
256,192,118719,1,0,0:0:0:0:
256,192,119469,1,0,0:0:0:0:
256,192,119844,1,0,0:0:0:0:
256,192,120219,1,12,0:0:0:0:
256,192,121344,1,0,0:0:0:0:
256,192,121719,1,8,0:0:0:0:
256,192,122469,1,0,0:0:0:0:
256,192,122844,1,0,0:0:0:0:
256,192,123219,1,8,0:0:0:0:
256,192,123969,1,0,0:0:0:0:
256,192,124719,1,8,0:0:0:0:
256,192,125281,1,8,0:0:0:0:
256,192,125844,1,8,0:0:0:0:
256,224,126219,1,0,0:0:0:0:
256,192,127344,1,0,0:0:0:0:
256,192,127719,1,8,0:0:0:0:
256,192,128469,1,0,0:0:0:0:
256,192,128844,1,0,0:0:0:0:
256,192,129219,1,8,0:0:0:0:
256,192,129969,1,0,0:0:0:0:
256,192,130719,1,8,0:0:0:0:
256,192,131281,1,8,0:0:0:0:
256,192,131844,1,8,0:0:0:0:
256,224,132219,1,4,0:0:0:0:
256,192,133344,1,0,0:0:0:0:
256,192,133719,1,8,0:0:0:0:
256,192,134469,1,8,0:0:0:0:
256,192,134844,1,8,0:0:0:0:
256,192,135219,1,0,0:0:0:0:
256,192,135969,1,8,0:0:0:0:
256,192,136719,1,0,0:0:0:0:
256,192,137281,1,0,0:0:0:0:
256,192,137844,1,0,0:0:0:0:
256,192,138219,1,8,0:0:0:0:
256,192,139344,1,0,0:0:0:0:
256,192,139719,1,8,0:0:0:0:
256,192,140469,1,8,0:0:0:0:
256,192,140844,1,0,0:0:0:0:
256,192,141219,1,8,0:0:0:0:
256,192,141969,1,0,0:0:0:0:
256,192,142719,1,8,0:0:0:0:
256,192,143094,1,8,0:0:0:0:
256,192,143469,1,0,0:0:0:0:
256,192,143844,1,8,0:0:0:0:
256,192,144219,5,0,0:0:0:0:
256,192,156219,5,0,0:0:0:0:
256,192,156969,1,8,0:0:0:0:
256,192,157719,1,0,0:0:0:0:
256,192,158094,1,0,0:0:0:0:
256,192,158469,1,8,0:0:0:0:
256,192,158844,1,8,0:0:0:0:
256,192,159219,1,0,0:0:0:0:
256,192,159969,1,0,0:0:0:0:
256,192,160344,1,8,0:0:0:0:
256,192,160719,1,0,0:0:0:0:
256,192,162219,1,8,0:0:0:0:
256,192,162969,1,0,0:0:0:0:
256,192,163719,1,8,0:0:0:0:
256,192,164094,1,0,0:0:0:0:
256,192,164469,1,8,0:0:0:0:
256,192,164844,1,8,0:0:0:0:
256,192,165219,1,0,0:0:0:0:
256,192,165969,1,8,0:0:0:0:
256,192,166719,1,8,0:0:0:0:
256,192,167469,1,8,0:0:0:0:
256,192,167844,1,8,0:0:0:0:
256,192,168219,1,4,0:0:0:0:
256,192,168969,1,8,0:0:0:0:
256,192,169719,1,8,0:0:0:0:
256,192,170094,1,8,0:0:0:0:
256,192,170469,1,0,0:0:0:0:
256,192,170844,1,0,0:0:0:0:
256,192,171219,1,8,0:0:0:0:
256,192,171969,1,0,0:0:0:0:
256,192,172719,1,8,0:0:0:0:
256,192,173094,1,8,0:0:0:0:
256,192,173469,1,0,0:0:0:0:
256,192,173844,1,8,0:0:0:0:
256,192,174219,1,0,0:0:0:0:
256,192,175344,5,8,0:0:0:0:
256,192,175719,1,0,0:0:0:0:
256,192,176094,1,0,0:0:0:0:
256,192,176469,1,8,0:0:0:0:
256,192,177219,1,0,0:0:0:0:
226,180,177969,1,8,0:0:0:0:
256,192,178719,1,0,0:0:0:0:
256,192,179094,1,0,0:0:0:0:
256,192,179469,1,8,0:0:0:0:
256,192,179844,1,8,0:0:0:0:
256,192,180219,1,0,0:0:0:0:
256,192,181344,1,0,0:0:0:0:
256,192,181719,1,8,0:0:0:0:
256,192,182469,1,0,0:0:0:0:
256,192,182844,1,0,0:0:0:0:
256,192,183219,1,8,0:0:0:0:
256,192,183969,1,0,0:0:0:0:
256,192,184719,1,8,0:0:0:0:
256,192,185094,1,0,0:0:0:0:
256,192,185469,1,8,0:0:0:0:
256,192,185844,1,8,0:0:0:0:
256,192,186219,1,0,0:0:0:0:
256,192,187719,1,0,0:0:0:0:
256,192,188094,1,8,0:0:0:0:
256,192,188469,1,8,0:0:0:0:
256,192,188844,1,8,0:0:0:0:
256,192,189219,1,0,0:0:0:0:
256,192,189969,1,8,0:0:0:0:
224,192,190719,1,12,0:0:0:0:
256,192,191281,1,12,0:0:0:0:
256,192,191844,1,12,0:0:0:0:
256,192,192219,5,0,0:0:0:0:
256,192,192594,1,0,0:0:0:0:
256,192,192969,1,0,0:0:0:0:
256,192,193719,1,0,0:0:0:0:
256,192,194094,1,0,0:0:0:0:
256,192,194469,1,0,0:0:0:0:
256,192,195219,1,0,0:0:0:0:
256,192,195594,1,0,0:0:0:0:
256,192,195969,1,0,0:0:0:0:
256,192,196719,1,0,0:0:0:0:
256,192,198219,1,0,0:0:0:0:
256,192,198594,1,0,0:0:0:0:
256,192,198969,1,0,0:0:0:0:
256,192,199719,1,0,0:0:0:0:
256,192,200094,1,0,0:0:0:0:
256,192,200469,1,0,0:0:0:0:
256,192,201219,1,0,0:0:0:0:
256,192,201969,1,0,0:0:0:0:
256,192,202344,1,12,0:0:0:0:
256,192,203094,1,0,0:0:0:0:
256,192,203469,1,0,0:0:0:0:
256,192,203844,1,8,0:0:0:0:
