osu file format v14

[General]
AudioFilename: audio.mp3
AudioLeadIn: 0
PreviewTime: 60125
Countdown: 0
SampleSet: Normal
StackLeniency: 0.7
Mode: 1
LetterboxInBreaks: 0
WidescreenStoryboard: 1

[Editor]
Bookmarks: 12219,24219,48219,84219,120219,132219,144219,156219,168219
DistanceSpacing: 5.5
BeatDivisor: 8
GridSize: 32
TimelineZoom: 1.1

[Metadata]
Title:Silver Winds
TitleUnicode:Silver Winds
Artist:Cyte
ArtistUnicode:Cyte
Creator:Cychloryn
Version:Futsuu
Source:
Tags:cytekinesis i'm 11! hatsune miku treow chaining intention vocaloid lolicore electronic japanese sv
BeatmapID:2590772
BeatmapSetID:1242018

[Difficulty]
HPDrainRate:7
CircleSize:2
OverallDifficulty:3.5
ApproachRate:10
SliderMultiplier:1.4
SliderTickRate:1

[Events]
//Background and Video events
0,0,"silvermiku.jpg",0,116
//Break Periods
2,144419,155769
//Storyboard Layer 0 (Background)
//Storyboard Layer 1 (Fail)
//Storyboard Layer 2 (Pass)
//Storyboard Layer 3 (Foreground)
//Storyboard Layer 4 (Overlay)
//Storyboard Sound Samples

[TimingPoints]
219,375,4,1,0,75,1,0
24219,-100,4,1,0,80,0,0
36219,-100,4,1,0,90,0,0
48406,-100,4,1,0,90,0,0
59469,-99.009900990099,4,1,0,90,0,0
59656,-98.0392156862745,4,1,0,90,0,0
59844,-97.0873786407767,4,1,0,90,0,0
60031,-96.1538461538461,4,1,0,90,0,0
60219,-93.4579439252336,4,1,0,100,0,1
60312,-95.2380952380952,4,1,0,100,0,1
71844,-93.4579439252336,4,1,0,100,0,1
72219,-90.9090909090909,4,1,0,100,0,1
72406,-95.2380952380952,4,1,0,100,0,1
95844,-93.4579439252336,4,1,0,100,0,1
96219,-90.9090909090909,4,1,0,100,0,1
96406,-95.2380952380952,4,1,0,100,0,1
106719,-92.5925925925926,4,1,0,100,0,1
107844,-100,4,1,0,90,0,0
118344,-97.0873786407767,4,1,0,90,0,0
118531,-94.3396226415094,4,1,0,90,0,0
118719,-91.743119266055,4,1,0,90,0,0
119000,-93.4579439252336,4,1,0,90,0,0
119469,-95.2380952380952,4,1,0,90,0,0
119844,-97.0873786407767,4,1,0,90,0,0
120219,-99.009900990099,4,1,0,90,0,0
120312,-100,4,1,0,80,0,0
132219,-100,4,1,0,90,0,0
143844,-94.3396226415094,4,1,0,90,0,0
144031,-97.0873786407767,4,1,0,90,0,0
144219,-100,4,1,0,90,0,0
144594,-111.111111111111,4,1,0,60,0,0
156219,-105.263157894737,4,1,0,80,0,0
165594,-104.166666666667,4,1,0,80,0,0
165781,-103.092783505155,4,1,0,80,0,0
165969,-102.040816326531,4,1,0,80,0,0
166719,-100,4,1,0,90,0,0
167281,-100,4,1,0,90,0,0
167469,-99.009900990099,4,1,0,90,0,0
167656,-98.0392156862745,4,1,0,90,0,0
167844,-97.0873786407767,4,1,0,90,0,0
168219,-93.4579439252336,4,1,0,100,0,1
168312,-95.2380952380952,4,1,0,100,0,1
179469,-93.4579439252336,4,1,0,100,0,1
179656,-91.743119266055,4,1,0,100,0,1
179844,-90.0900900900901,4,1,0,100,0,1
180031,-88.4955752212389,4,1,0,100,0,1
180219,-86.9565217391304,4,1,0,100,0,1
180500,-89.2857142857143,4,1,0,100,0,1
180969,-91.743119266055,4,1,0,100,0,1
181156,-92.5925925925926,4,1,0,100,0,1
181344,-93.4579439252336,4,1,0,100,0,1
181437,-95.2380952380952,4,1,0,100,0,1
190719,-90.9090909090909,4,1,0,100,0,1
191000,-91.743119266055,4,1,0,100,0,1
191281,-92.5925925925926,4,1,0,100,0,1
191562,-93.4579439252336,4,1,0,100,0,1
191844,-94.3396226415094,4,1,0,100,0,1
192219,-97.0873786407767,4,1,0,75,0,0
192406,-98.0392156862745,4,1,0,75,0,0
192594,-99.009900990099,4,1,0,75,0,0
192687,-100,4,1,0,75,0,0

[HitObjects]
256,192,12219,5,0,0:0:0:0:
256,192,12406,1,8,0:0:0:0:
256,192,12594,1,0,0:0:0:0:
256,192,12969,1,8,0:0:0:0:
256,192,13156,1,8,0:0:0:0:
256,192,13344,1,0,0:0:0:0:
256,192,13719,1,0,0:0:0:0:
256,192,14094,1,8,0:0:0:0:
256,192,14469,1,8,0:0:0:0:
256,192,14844,1,0,0:0:0:0:
256,192,15219,1,8,0:0:0:0:
256,192,15594,1,0,0:0:0:0:
256,192,15781,1,8,0:0:0:0:
256,192,15969,1,0,0:0:0:0:
256,192,16344,1,8,0:0:0:0:
256,192,16719,1,8,0:0:0:0:
256,192,17094,1,0,0:0:0:0:
256,192,17469,1,8,0:0:0:0:
256,192,18219,1,0,0:0:0:0:
256,192,18594,1,8,0:0:0:0:
256,192,18969,1,0,0:0:0:0:
256,192,19344,1,8,0:0:0:0:
256,192,19531,1,8,0:0:0:0:
256,192,19719,1,0,0:0:0:0:
256,192,20094,1,8,0:0:0:0:
256,192,20469,1,0,0:0:0:0:
256,192,20844,1,0,0:0:0:0:
256,192,21219,1,8,0:0:0:0:
256,192,21594,1,0,0:0:0:0:
256,192,21781,1,8,0:0:0:0:
256,192,21969,1,0,0:0:0:0:
256,192,22344,1,12,0:0:0:0:
256,192,23094,1,0,0:0:0:0:
256,192,23281,1,0,0:0:0:0:
256,192,23469,1,0,0:0:0:0:
256,192,23844,1,12,0:0:0:0:
256,192,24219,1,4,0:0:0:0:
256,192,24594,1,8,0:0:0:0:
256,192,24781,1,0,0:0:0:0:
256,192,24969,1,0,0:0:0:0:
256,192,25344,1,8,0:0:0:0:
256,192,25719,1,0,0:0:0:0:
256,192,26000,1,8,0:0:0:0:
256,192,26281,1,0,0:0:0:0:
256,192,26656,1,0,0:0:0:0:
256,192,26844,1,8,0:0:0:0:
256,192,27031,1,0,0:0:0:0:
256,192,27219,1,0,0:0:0:0:
256,192,27594,1,8,0:0:0:0:
256,192,27969,1,0,0:0:0:0:
256,192,28156,1,0,0:0:0:0:
256,192,28344,1,8,0:0:0:0:
256,192,28719,1,8,0:0:0:0:
256,192,29000,1,8,0:0:0:0:
256,192,29281,1,0,0:0:0:0:
256,192,29562,1,0,0:0:0:0:
256,192,29844,1,8,0:0:0:0:
256,192,30594,1,8,0:0:0:0:
256,192,30781,1,0,0:0:0:0:
256,192,30969,1,0,0:0:0:0:
256,192,31344,1,8,0:0:0:0:
256,192,31719,1,0,0:0:0:0:
256,192,32000,1,8,0:0:0:0:
256,192,32281,1,0,0:0:0:0:
256,192,32656,1,0,0:0:0:0:
256,192,32844,1,8,0:0:0:0:
256,192,33031,1,0,0:0:0:0:
256,192,33219,1,0,0:0:0:0:
256,192,33594,1,8,0:0:0:0:
256,192,33969,1,0,0:0:0:0:
256,192,34156,1,0,0:0:0:0:
256,192,34344,1,8,0:0:0:0:
256,192,34719,1,8,0:0:0:0:
256,192,35000,1,0,0:0:0:0:
256,192,35281,1,8,0:0:0:0:
256,192,35562,1,0,0:0:0:0:
256,192,35844,1,8,0:0:0:0:
256,192,36594,1,8,0:0:0:0:
256,192,36781,1,8,0:0:0:0:
256,192,36969,1,8,0:0:0:0:
256,192,37344,1,8,0:0:0:0:
256,192,37531,1,8,0:0:0:0:
256,192,37719,1,0,0:0:0:0:
256,192,38094,1,8,0:0:0:0:
256,192,38469,1,8,0:0:0:0:
256,192,38656,1,0,0:0:0:0:
256,192,38844,1,8,0:0:0:0:
256,192,39219,1,0,0:0:0:0:
256,192,39594,1,8,0:0:0:0:
256,192,39781,1,8,0:0:0:0:
256,192,39969,1,0,0:0:0:0:
256,192,40156,1,0,0:0:0:0:
256,192,40344,1,8,0:0:0:0:
256,192,40719,1,8,0:0:0:0:
256,192,41000,1,0,0:0:0:0:
256,192,41281,1,0,0:0:0:0:
256,192,41562,1,0,0:0:0:0:
256,192,41844,1,8,0:0:0:0:
256,192,42594,1,8,0:0:0:0:
256,192,42781,1,8,0:0:0:0:
256,192,42969,1,8,0:0:0:0:
256,192,43344,1,8,0:0:0:0:
256,192,43531,1,8,0:0:0:0:
256,192,43719,1,0,0:0:0:0:
256,192,44094,1,8,0:0:0:0:
256,192,44469,1,8,0:0:0:0:
256,192,44656,1,0,0:0:0:0:
256,192,44844,1,8,0:0:0:0:
256,192,45219,1,0,0:0:0:0:
256,192,45594,1,8,0:0:0:0:
256,192,45781,1,0,0:0:0:0:
256,192,45969,1,8,0:0:0:0:
256,192,46156,1,8,0:0:0:0:
256,192,46344,1,0,0:0:0:0:
256,192,46719,1,8,0:0:0:0:
256,192,47000,1,0,0:0:0:0:
256,192,47281,1,8,0:0:0:0:
256,192,47562,1,0,0:0:0:0:
256,192,47844,1,8,0:0:0:0:
256,192,48219,1,4,0:0:0:0:
256,192,48969,1,8,0:0:0:0:
256,192,49344,1,8,0:0:0:0:
256,192,49531,1,0,0:0:0:0:
256,192,49906,1,0,0:0:0:0:
256,192,50281,1,0,0:0:0:0:
256,192,50469,1,8,0:0:0:0:
256,192,50844,1,8,0:0:0:0:
256,192,51031,1,8,0:0:0:0:
256,192,51219,1,0,0:0:0:0:
256,192,51781,1,0,0:0:0:0:
256,192,51969,1,8,0:0:0:0:
256,192,52344,1,8,0:0:0:0:
256,192,52531,1,8,0:0:0:0:
256,192,52719,1,0,0:0:0:0:
256,192,53094,1,8,0:0:0:0:
256,192,53281,1,8,0:0:0:0:
256,192,53656,1,0,0:0:0:0:
256,192,54031,1,0,0:0:0:0:
256,192,54219,1,8,0:0:0:0:
256,192,54969,1,8,0:0:0:0:
256,192,55344,1,8,0:0:0:0:
256,192,55531,1,0,0:0:0:0:
256,192,55906,1,0,0:0:0:0:
256,192,56281,1,0,0:0:0:0:
256,192,56469,1,8,0:0:0:0:
256,192,56844,1,8,0:0:0:0:
256,192,57031,1,8,0:0:0:0:
256,192,57219,1,0,0:0:0:0:
256,192,57594,1,8,0:0:0:0:
256,192,57969,1,0,0:0:0:0:
256,192,58719,1,0,0:0:0:0:
256,192,58906,1,0,0:0:0:0:
256,192,59094,1,8,0:0:0:0:
256,192,59469,1,8,0:0:0:0:
256,192,59656,1,8,0:0:0:0:
256,192,59844,1,0,0:0:0:0:
256,192,60031,1,0,0:0:0:0:
256,192,60219,1,12,0:0:0:0:
256,192,60594,1,8,0:0:0:0:
256,192,60969,1,8,0:0:0:0:
256,192,61156,1,8,0:0:0:0:
256,192,61344,1,0,0:0:0:0:
256,192,61719,1,8,0:0:0:0:
256,192,62000,1,8,0:0:0:0:
256,192,62281,1,0,0:0:0:0:
256,192,62656,1,0,0:0:0:0:
256,192,62844,1,8,0:0:0:0:
256,192,63031,1,0,0:0:0:0:
256,192,63219,1,8,0:0:0:0:
256,192,63594,1,0,0:0:0:0:
256,192,63969,1,8,0:0:0:0:
256,192,64250,1,8,0:0:0:0:
256,192,64531,1,8,0:0:0:0:
256,192,65094,1,8,0:0:0:0:
256,192,65469,1,0,0:0:0:0:
256,192,65656,1,8,0:0:0:0:
256,192,65844,1,8,0:0:0:0:
256,192,66031,1,0,0:0:0:0:
256,192,66219,1,8,0:0:0:0:
256,192,66969,1,0,0:0:0:0:
256,192,67250,1,8,0:0:0:0:
256,192,67531,1,8,0:0:0:0:
256,192,67719,1,0,0:0:0:0:
256,192,68094,1,0,0:0:0:0:
256,192,68469,1,8,0:0:0:0:
256,192,68656,1,0,0:0:0:0:
256,192,68844,1,8,0:0:0:0:
256,192,69219,1,0,0:0:0:0:
256,192,69781,1,0,0:0:0:0:
256,192,69969,1,8,0:0:0:0:
256,192,70719,1,8,0:0:0:0:
256,192,70906,1,8,0:0:0:0:
256,192,71094,1,0,0:0:0:0:
256,192,71281,1,0,0:0:0:0:
256,192,71469,1,8,0:0:0:0:
256,192,71844,1,0,0:0:0:0:
256,192,72219,1,12,0:0:0:0:
256,192,72594,1,8,0:0:0:0:
256,192,72969,1,8,0:0:0:0:
256,192,73156,1,8,0:0:0:0:
256,192,73344,1,0,0:0:0:0:
256,192,73719,1,8,0:0:0:0:
256,192,74000,1,8,0:0:0:0:
256,192,74281,1,0,0:0:0:0:
256,192,74656,1,8,0:0:0:0:
256,192,74844,1,0,0:0:0:0:
256,192,75031,1,0,0:0:0:0:
256,192,75219,1,8,0:0:0:0:
256,192,75594,1,0,0:0:0:0:
256,192,75969,1,8,0:0:0:0:
256,192,76250,1,8,0:0:0:0:
256,192,76531,1,8,0:0:0:0:
256,192,77094,1,0,0:0:0:0:
256,192,77469,1,0,0:0:0:0:
256,192,77656,1,8,0:0:0:0:
256,192,77844,1,8,0:0:0:0:
256,192,78031,1,8,0:0:0:0:
256,192,78219,1,0,0:0:0:0:
256,192,78969,1,0,0:0:0:0:
256,192,79250,1,8,0:0:0:0:
256,192,79531,1,8,0:0:0:0:
256,192,79719,1,0,0:0:0:0:
256,192,80094,1,8,0:0:0:0:
256,192,80469,1,8,0:0:0:0:
256,192,80656,1,8,0:0:0:0:
256,192,80844,1,8,0:0:0:0:
256,192,81219,1,0,0:0:0:0:
256,192,81781,1,0,0:0:0:0:
256,192,81969,1,8,0:0:0:0:
224,192,82719,1,8,0:0:0:0:
224,192,83000,1,8,0:0:0:0:
224,192,83281,1,8,0:0:0:0:
224,192,83562,1,0,0:0:0:0:
224,192,83844,1,8,0:0:0:0:
224,192,84031,1,8,0:0:0:0:
224,192,84219,1,0,0:0:0:0:
224,192,84594,1,0,0:0:0:0:
224,192,84969,1,8,0:0:0:0:
224,192,85250,1,8,0:0:0:0:
224,192,85719,1,8,0:0:0:0:
224,192,86000,1,8,0:0:0:0:
224,192,86281,1,0,0:0:0:0:
224,192,86469,1,8,0:0:0:0:
224,192,86844,1,0,0:0:0:0:
224,192,87219,1,8,0:0:0:0:
224,192,87406,1,0,0:0:0:0:
224,192,87594,1,8,0:0:0:0:
224,192,87969,1,0,0:0:0:0:
224,192,88250,1,0,0:0:0:0:
224,192,88531,1,8,0:0:0:0:
224,192,88719,1,8,0:0:0:0:
224,192,89094,1,8,0:0:0:0:
224,192,89469,1,8,0:0:0:0:
224,192,89656,1,8,0:0:0:0:
224,192,89844,1,0,0:0:0:0:
224,192,90031,1,0,0:0:0:0:
224,192,90219,1,8,0:0:0:0:
224,192,90969,1,0,0:0:0:0:
224,192,91250,1,8,0:0:0:0:
256,192,91531,1,8,0:0:0:0:
256,192,91719,1,0,0:0:0:0:
256,192,92094,1,0,0:0:0:0:
256,192,92469,1,8,0:0:0:0:
256,192,92656,1,0,0:0:0:0:
256,192,92844,1,8,0:0:0:0:
256,192,93219,1,0,0:0:0:0:
256,192,93781,1,0,0:0:0:0:
256,192,93969,1,8,0:0:0:0:
256,192,94719,1,8,0:0:0:0:
256,192,94906,1,8,0:0:0:0:
256,192,95094,1,0,0:0:0:0:
256,192,95281,1,0,0:0:0:0:
256,192,95469,1,8,0:0:0:0:
256,192,95844,1,0,0:0:0:0:
256,192,96219,1,12,0:0:0:0:
256,192,96594,1,8,0:0:0:0:
252,189,96969,1,8,0:0:0:0:
256,192,97156,1,8,0:0:0:0:
256,192,97344,1,0,0:0:0:0:
256,192,97719,1,0,0:0:0:0:
252,189,98000,1,0,0:0:0:0:
256,192,98281,1,0,0:0:0:0:
256,192,98469,1,8,0:0:0:0:
252,189,98844,1,0,0:0:0:0:
256,192,99219,1,8,0:0:0:0:
256,192,99500,1,8,0:0:0:0:
256,192,99781,1,8,0:0:0:0:
256,192,99969,1,0,0:0:0:0:
256,192,100344,1,8,0:0:0:0:
256,192,100719,1,0,0:0:0:0:
256,192,100906,1,0,0:0:0:0:
256,192,101094,1,8,0:0:0:0:
256,192,101469,1,8,0:0:0:0:
256,192,101656,1,0,0:0:0:0:
256,192,101844,1,8,0:0:0:0:
256,192,102219,1,0,0:0:0:0:
256,192,102969,1,8,0:0:0:0:
256,192,103250,1,8,0:0:0:0:
256,192,103531,1,0,0:0:0:0:
256,192,103719,1,8,0:0:0:0:
256,192,104094,1,0,0:0:0:0:
256,192,104469,1,8,0:0:0:0:
256,192,104656,1,8,0:0:0:0:
256,192,104844,1,8,0:0:0:0:
256,192,105219,1,0,0:0:0:0:
256,192,105781,1,0,0:0:0:0:
256,192,105969,1,8,0:0:0:0:
224,192,106719,1,12,0:0:0:0:
256,192,107000,1,12,0:0:0:0:
256,192,107281,1,12,0:0:0:0:
256,192,107562,1,4,0:0:0:0:
256,192,108594,1,0,0:0:0:0:
256,192,108875,1,0,0:0:0:0:
256,192,109156,1,0,0:0:0:0:
256,192,109344,1,8,0:0:0:0:
256,192,109531,1,8,0:0:0:0:
256,192,110094,1,8,0:0:0:0:
256,192,110281,1,0,0:0:0:0:
256,192,110844,1,8,0:0:0:0:
256,192,111031,1,8,0:0:0:0:
256,192,111219,1,0,0:0:0:0:
256,192,111500,1,0,0:0:0:0:
256,192,111781,1,8,0:0:0:0:
256,192,112344,1,0,0:0:0:0:
256,192,112531,1,0,0:0:0:0:
256,192,112719,1,8,0:0:0:0:
256,192,113000,1,8,0:0:0:0:
256,192,113281,1,8,0:0:0:0:
256,192,114219,1,8,0:0:0:0:
256,192,114781,1,8,0:0:0:0:
256,192,114969,1,0,0:0:0:0:
256,192,115156,1,0,0:0:0:0:
256,192,115344,1,8,0:0:0:0:
256,192,115719,1,0,0:0:0:0:
256,192,116094,1,0,0:0:0:0:
256,192,116281,1,0,0:0:0:0:
256,192,116469,1,8,0:0:0:0:
256,192,116844,1,8,0:0:0:0:
256,192,117219,1,0,0:0:0:0:
256,192,117500,1,0,0:0:0:0:
256,192,117781,1,0,0:0:0:0:
256,192,117969,1,0,0:0:0:0:
256,192,118344,1,8,0:0:0:0:
256,192,118531,1,8,0:0:0:0:
256,192,118719,1,0,0:0:0:0:
256,192,119094,1,0,0:0:0:0:
256,192,119469,1,0,0:0:0:0:
256,192,119844,1,8,0:0:0:0:
256,192,120219,5,4,0:0:0:0:
256,192,120969,1,0,0:0:0:0:
256,192,121156,1,0,0:0:0:0:
256,192,121344,1,8,0:0:0:0:
256,192,121719,1,0,0:0:0:0:
256,192,122094,1,8,0:0:0:0:
256,192,122281,1,0,0:0:0:0:
256,192,122656,1,0,0:0:0:0:
256,192,122844,1,8,0:0:0:0:
256,192,123031,1,0,0:0:0:0:
256,192,123219,1,0,0:0:0:0:
256,192,123594,1,8,0:0:0:0:
256,192,123969,1,0,0:0:0:0:
256,192,124156,1,0,0:0:0:0:
256,192,124344,1,8,0:0:0:0:
256,192,124719,1,8,0:0:0:0:
256,192,125000,1,8,0:0:0:0:
256,192,125281,1,0,0:0:0:0:
256,192,125562,1,0,0:0:0:0:
256,192,125844,1,8,0:0:0:0:
256,192,126219,1,0,0:0:0:0:
256,192,126969,1,0,0:0:0:0:
256,192,127156,1,0,0:0:0:0:
256,192,127344,1,8,0:0:0:0:
256,192,127719,1,0,0:0:0:0:
256,192,128094,1,8,0:0:0:0:
256,192,128281,1,0,0:0:0:0:
256,192,128656,1,0,0:0:0:0:
256,192,128844,1,8,0:0:0:0:
256,192,129031,1,0,0:0:0:0:
256,192,129219,1,0,0:0:0:0:
256,192,129594,1,8,0:0:0:0:
256,192,129969,1,0,0:0:0:0:
256,192,130156,1,0,0:0:0:0:
256,192,130344,1,8,0:0:0:0:
256,192,130719,1,8,0:0:0:0:
256,192,131000,1,0,0:0:0:0:
256,192,131281,1,8,0:0:0:0:
256,192,131562,1,0,0:0:0:0:
256,192,131844,1,8,0:0:0:0:
256,192,132219,5,12,0:0:0:0:
256,192,132969,1,0,0:0:0:0:
256,192,133156,1,8,0:0:0:0:
256,192,133344,1,0,0:0:0:0:
256,192,133719,1,8,0:0:0:0:
256,192,134094,1,8,0:0:0:0:
256,192,134281,1,0,0:0:0:0:
256,192,134656,1,0,0:0:0:0:
256,192,134844,1,8,0:0:0:0:
256,192,135031,1,8,0:0:0:0:
256,192,135219,1,0,0:0:0:0:
256,192,135594,1,8,0:0:0:0:
256,192,135781,1,0,0:0:0:0:
256,192,136156,1,0,0:0:0:0:
256,192,136344,1,8,0:0:0:0:
256,192,136719,1,8,0:0:0:0:
256,192,137000,1,8,0:0:0:0:
256,192,137281,1,0,0:0:0:0:
256,192,138219,1,0,0:0:0:0:
256,192,138594,1,8,0:0:0:0:
256,192,138781,1,0,0:0:0:0:
256,192,138969,1,0,0:0:0:0:
256,192,139156,1,0,0:0:0:0:
256,192,139344,1,8,0:0:0:0:
256,192,139719,1,0,0:0:0:0:
256,192,140094,1,8,0:0:0:0:
256,192,140281,1,0,0:0:0:0:
256,192,140656,1,0,0:0:0:0:
256,192,140844,1,8,0:0:0:0:
256,192,141031,1,8,0:0:0:0:
256,192,141219,1,0,0:0:0:0:
256,192,141594,1,8,0:0:0:0:
256,192,141781,1,8,0:0:0:0:
256,192,141969,1,0,0:0:0:0:
256,192,142344,1,8,0:0:0:0:
256,192,142531,1,0,0:0:0:0:
256,192,142906,1,8,0:0:0:0:
256,192,143094,1,0,0:0:0:0:
256,192,143469,1,0,0:0:0:0:
256,192,143844,1,8,0:0:0:0:
256,192,144031,1,8,0:0:0:0:
256,192,144219,5,0,0:0:0:0:
256,192,156219,5,0,0:0:0:0:
256,192,156594,1,8,0:0:0:0:
256,192,156781,1,0,0:0:0:0:
256,192,157156,1,8,0:0:0:0:
256,192,157344,1,8,0:0:0:0:
256,192,157719,1,0,0:0:0:0:
256,192,158094,1,8,0:0:0:0:
256,192,158469,1,8,0:0:0:0:
256,192,158656,1,8,0:0:0:0:
256,192,158844,1,8,0:0:0:0:
256,192,159219,1,0,0:0:0:0:
256,192,159594,1,0,0:0:0:0:
256,192,159969,1,8,0:0:0:0:
256,192,160344,1,8,0:0:0:0:
256,192,160719,1,0,0:0:0:0:
256,192,160906,1,0,0:0:0:0:
256,192,161094,1,8,0:0:0:0:
256,192,161469,1,8,0:0:0:0:
256,192,162219,1,0,0:0:0:0:
256,192,162594,1,8,0:0:0:0:
256,192,162781,1,8,0:0:0:0:
256,192,162969,1,0,0:0:0:0:
256,192,163344,1,8,0:0:0:0:
256,192,163719,1,0,0:0:0:0:
256,192,164094,1,8,0:0:0:0:
256,192,164469,1,0,0:0:0:0:
256,192,164656,1,8,0:0:0:0:
256,192,164844,1,8,0:0:0:0:
256,192,165031,1,8,0:0:0:0:
256,192,165219,1,0,0:0:0:0:
256,192,165594,1,0,0:0:0:0:
256,192,165781,1,0,0:0:0:0:
256,192,165969,1,8,0:0:0:0:
256,192,166719,1,8,0:0:0:0:
256,192,167000,1,8,0:0:0:0:
256,192,167281,1,0,0:0:0:0:
256,192,167469,1,8,0:0:0:0:
256,192,167656,1,8,0:0:0:0:
256,192,167844,1,8,0:0:0:0:
256,192,168219,1,4,0:0:0:0:
256,192,168594,1,8,0:0:0:0:
256,192,168969,1,8,0:0:0:0:
256,192,169250,1,8,0:0:0:0:
256,192,169719,1,0,0:0:0:0:
256,192,170000,1,8,0:0:0:0:
256,192,170281,1,8,0:0:0:0:
256,192,170469,1,0,0:0:0:0:
256,192,170844,1,0,0:0:0:0:
256,192,171219,1,8,0:0:0:0:
256,192,171406,1,8,0:0:0:0:
256,192,171594,1,0,0:0:0:0:
256,192,171969,1,0,0:0:0:0:
256,192,172250,1,8,0:0:0:0:
256,192,172531,1,8,0:0:0:0:
256,192,172719,1,0,0:0:0:0:
256,192,173094,1,8,0:0:0:0:
256,192,173469,1,0,0:0:0:0:
256,192,173656,1,8,0:0:0:0:
256,192,173844,1,0,0:0:0:0:
256,192,174031,1,0,0:0:0:0:
256,192,174219,1,8,0:0:0:0:
256,192,174969,1,0,0:0:0:0:
256,192,175250,1,8,0:0:0:0:
256,192,175531,1,8,0:0:0:0:
256,192,175719,1,0,0:0:0:0:
256,192,176094,1,0,0:0:0:0:
256,192,176469,1,8,0:0:0:0:
256,224,176656,1,0,0:0:0:0:
256,192,176844,1,8,0:0:0:0:
256,192,177219,1,0,0:0:0:0:
256,192,177781,1,0,0:0:0:0:
256,192,177969,1,8,0:0:0:0:
256,192,178719,1,8,0:0:0:0:
256,192,178906,1,8,0:0:0:0:
256,192,179094,1,0,0:0:0:0:
256,192,179469,1,8,0:0:0:0:
224,192,179656,1,8,0:0:0:0:
256,192,179844,1,8,0:0:0:0:
256,192,180031,1,8,0:0:0:0:
256,192,180219,5,0,0:0:0:0:
256,192,180594,1,0,0:0:0:0:
256,192,180969,1,8,0:0:0:0:
256,192,181156,1,8,0:0:0:0:
256,192,181344,1,0,0:0:0:0:
256,192,181719,1,8,0:0:0:0:
256,192,182000,1,8,0:0:0:0:
256,192,182281,1,0,0:0:0:0:
224,192,182656,1,0,0:0:0:0:
224,192,182844,1,8,0:0:0:0:
224,192,183031,1,0,0:0:0:0:
224,192,183219,1,8,0:0:0:0:
256,192,183594,1,8,0:0:0:0:
256,192,183969,1,8,0:0:0:0:
256,192,184250,1,0,0:0:0:0:
256,192,184531,1,8,0:0:0:0:
256,192,184719,1,0,0:0:0:0:
256,192,185094,1,8,0:0:0:0:
256,192,185281,1,8,0:0:0:0:
256,192,185469,1,0,0:0:0:0:
256,192,185844,1,8,0:0:0:0:
256,192,186219,1,0,0:0:0:0:
256,192,186969,1,8,0:0:0:0:
256,192,187250,1,8,0:0:0:0:
256,192,187531,1,0,0:0:0:0:
256,192,187719,1,8,0:0:0:0:
256,192,188094,1,0,0:0:0:0:
256,192,188469,1,0,0:0:0:0:
256,192,188656,1,8,0:0:0:0:
256,192,188844,1,8,0:0:0:0:
256,192,189031,1,8,0:0:0:0:
256,192,189219,1,0,0:0:0:0:
256,192,189781,1,0,0:0:0:0:
256,192,189969,1,8,0:0:0:0:
224,192,190719,1,12,0:0:0:0:
256,192,191000,1,12,0:0:0:0:
256,192,191281,1,12,0:0:0:0:
256,192,191562,1,4,0:0:0:0:
256,192,191844,1,12,0:0:0:0:
256,192,192219,5,0,0:0:0:0:
256,192,192406,1,8,0:0:0:0:
256,192,192594,1,0,0:0:0:0:
256,192,192969,1,8,0:0:0:0:
256,192,193156,1,8,0:0:0:0:
256,192,193344,1,0,0:0:0:0:
256,192,193719,1,0,0:0:0:0:
256,192,194094,1,8,0:0:0:0:
256,192,194469,1,8,0:0:0:0:
256,192,194844,1,0,0:0:0:0:
256,192,195219,1,8,0:0:0:0:
256,192,195594,1,0,0:0:0:0:
256,192,195781,1,8,0:0:0:0:
256,192,195969,1,0,0:0:0:0:
256,192,196344,1,8,0:0:0:0:
256,192,196719,1,8,0:0:0:0:
256,192,197094,1,0,0:0:0:0:
256,192,197469,1,8,0:0:0:0:
256,192,198219,1,0,0:0:0:0:
256,192,198594,1,8,0:0:0:0:
256,192,198969,1,0,0:0:0:0:
256,192,199344,1,8,0:0:0:0:
256,192,199531,1,8,0:0:0:0:
256,192,199719,1,0,0:0:0:0:
256,192,200094,1,8,0:0:0:0:
256,192,200469,1,0,0:0:0:0:
256,192,200844,1,0,0:0:0:0:
256,192,201219,1,8,0:0:0:0:
256,192,201594,1,0,0:0:0:0:
256,192,201781,1,8,0:0:0:0:
256,192,201969,1,0,0:0:0:0:
256,192,202344,1,12,0:0:0:0:
256,192,203094,1,0,0:0:0:0:
256,192,203281,1,0,0:0:0:0:
256,192,203469,1,0,0:0:0:0:
256,192,203844,1,12,0:0:0:0:
