osu file format v14

[General]
AudioFilename: audio.ogg
AudioLeadIn: 0
PreviewTime: 100133
Countdown: 0
SampleSet: Normal
StackLeniency: 0.7
Mode: 1
LetterboxInBreaks: 0
WidescreenStoryboard: 0

[Editor]
Bookmarks: 12396,23368,34339,39483,45312,56282,67254,78225,89196,94683,100168,111139,122111,133082,144054,155026,167368,178339,189311,200282,211254,222225,233196,244168,255139
DistanceSpacing: 0.7
BeatDivisor: 4
GridSize: 32
TimelineZoom: 4.41675

[Metadata]
Title:Melty Loud Nightcore (Expansion Kit)
TitleUnicode:Melty Loud Nightcore (Expansion Kit)
Artist:Cyte
ArtistUnicode:Cyte
Creator:paz08
Version:Wish
Source:
Tags:electronic instrumental japanese lolicore breakcore jungle BEST OF 2016​-​2020 Cytekinesis PAST PERFECT loveloli love loli land nightmare はるまきごはん 初音ミク T-03a
BeatmapID:3553680
BeatmapSetID:1738726

[Difficulty]
HPDrainRate:6
CircleSize:2
OverallDifficulty:6.6
ApproachRate:10
SliderMultiplier:1.4
SliderTickRate:1

[Events]
//Background and Video events
0,0,"ggm0cl_2fa6ec145428eba9sexob595a20c576c35c375e24adf.jpg",0,-80
//Break Periods
//Storyboard Layer 0 (Background)
//Storyboard Layer 1 (Fail)
//Storyboard Layer 2 (Pass)
//Storyboard Layer 3 (Foreground)
//Storyboard Layer 4 (Overlay)
//Storyboard Sound Samples

[TimingPoints]
62,342.857142857143,4,1,0,70,1,0
62,-83.33333,4,1,0,70,0,0
319,-83.6515,4,1,0,70,0,0
576,-85.165726,4,1,0,70,0,0
747,-87.179115,4,1,0,70,0,0
833,-88.58558,4,1,0,70,0,0
919,-90.30802,4,1,0,70,0,0
1004,-92.36991,4,1,0,70,0,0
1090,-94.881424,4,1,0,70,0,0
1133,-96.321335,4,1,0,70,0,0
1176,-97.899284,4,1,0,70,0,0
1262,-101.524994,4,1,0,70,0,0
1347,-105.83624,4,1,0,70,0,0
1433,-111.111115,4,1,0,90,0,0
1690,-117.647058823529,4,1,0,90,0,0
6490,-115.154594,4,1,0,92,0,0
6576,-114.33238,4,1,0,93,0,0
6747,-112.71492,4,1,0,94,0,0
6833,-111.91014,4,1,0,94,0,0
6919,-111.1111,4,1,0,95,0,0
10862,-111.111115,4,1,0,90,0,0
11033,-111.1055,4,1,0,91,0,0
11204,-111.047714,4,1,0,92,0,0
11376,-110.84774,4,1,0,93,0,0
11462,-110.65927,4,1,0,94,0,0
11547,-110.39443,4,1,0,94,0,0
11633,-110.0305,4,1,0,95,0,0
11719,-109.553276,4,1,0,96,0,0
11804,-108.95395,4,1,0,96,0,0
11890,-108.20257,4,1,0,97,0,0
11976,-107.290596,4,1,0,97,0,0
12062,-106.204956,4,1,0,98,0,0
12233,-103.49044,4,1,0,99,0,0
12404,-100,4,1,0,100,0,0
21490,-99.51442,4,1,0,100,0,0
21576,-99.2711,4,1,0,100,0,0
21662,-99.02838,4,1,0,100,0,0
21704,-98.91005,4,1,0,100,0,0
21747,-98.78906,4,1,0,100,0,0
21833,-98.547516,4,1,0,100,0,0
21919,-98.306564,4,1,0,100,0,0
22004,-98.06899,4,1,0,100,0,0
22176,-97.59001,4,1,0,100,0,0
22347,-97.116135,4,1,0,100,0,0
22433,-96.878685,4,1,0,100,0,0
22519,-96.6418,4,1,0,100,0,0
22604,-96.40826,4,1,0,100,0,0
22690,-96.17253,4,1,0,100,0,0
22862,-95.70281,4,1,0,100,0,0
23033,-95.2381,4,1,0,100,0,0
23376,-95.2380952380952,4,1,0,90,0,0
23719,-111.111111111111,4,1,0,90,0,0
32976,-111.087746,4,1,0,90,0,0
33147,-111.0149,4,1,0,90,0,0
33319,-110.8473,4,1,0,90,0,0
33490,-110.53781,4,1,0,90,0,0
33576,-110.311554,4,1,0,90,0,0
33662,-110.028694,4,1,0,90,0,0
33833,-109.270035,4,1,0,90,0,0
33919,-108.77596,4,1,0,90,0,0
34004,-108.20497,4,1,0,90,0,0
34176,-106.77416,4,1,0,90,0,0
34347,-104.95269,4,1,0,90,0,0
34690,-95.2380952380952,4,1,0,90,0,0
34947,-100,4,1,0,90,0,0
52690,-99.931015,4,1,0,90,0,0
52776,-99.766174,4,1,0,90,0,0
52862,-99.4459,4,1,0,90,0,0
52947,-98.929054,4,1,0,90,0,0
53033,-98.159515,4,1,0,90,0,0
53204,-95.750626,4,1,0,90,0,0
53376,-92.004196,4,1,0,90,0,0
53547,-86.95652,4,1,0,90,0,0
53890,-105.263157894737,4,1,0,90,0,0
54233,-86.95652,4,1,0,90,0,0
54576,-100,4,1,0,90,0,0
54747,-86.95652,4,1,0,90,0,0
54919,-105.263157894737,4,1,0,90,0,0
55090,-80.25724,4,1,0,90,0,0
55433,-74.07409,4,1,0,90,0,0
55604,-81.237305,4,1,0,90,0,0
55776,-89.14133,4,1,0,90,0,0
55947,-97.7616,4,1,0,90,0,0
56119,-107.27336,4,1,0,90,0,0
56290,-64.5161290322581,4,1,0,90,0,0
56804,-100,4,1,0,90,0,0
57319,-117.647058823529,4,1,0,90,0,0
57662,-133.333333333333,4,1,0,90,0,0
57663,-100,4,1,0,90,0,0
58176,-108.45664,4,1,0,90,0,0
58690,-117.64706,4,1,0,90,0,0
59033,-140.842756056731,4,1,0,90,0,0
59034,-100,4,1,0,90,0,0
59547,-108.45664,4,1,0,90,0,0
60061,-117.64706,4,1,0,90,0,0
60404,-149.248533524873,4,1,0,90,0,0
60405,-100,4,1,0,90,0,0
60919,-108.45664,4,1,0,90,0,0
61433,-117.64706,4,1,0,90,0,0
61776,-158.728688989456,4,1,0,90,0,0
61777,-100,4,1,0,90,0,0
62290,-108.45664,4,1,0,90,0,0
62804,-117.64706,4,1,0,90,0,0
63147,-169.486498177099,4,1,0,90,0,0
63148,-100,4,1,0,90,0,0
63662,-108.45664,4,1,0,90,0,0
64176,-117.64706,4,1,0,90,0,0
64519,-181.818181818182,4,1,0,90,0,0
64520,-99.98814,4,1,0,90,0,0
65033,-106.27454,4,1,0,90,0,0
65376,-110.687935,4,1,0,90,0,0
65547,-112.95619,4,1,0,90,0,0
65719,-115.28459,4,1,0,90,0,0
65890,-100,4,1,0,90,0,0
66062,-99.93108,4,1,0,90,0,0
66233,-99.4561,4,1,0,90,0,0
66404,-98.192924,4,1,0,90,0,0
66576,-95.80838,4,1,0,90,0,0
66662,-94.13067,4,1,0,90,0,0
66747,-92.140434,4,1,0,90,0,0
66833,-89.795425,4,1,0,90,0,0
66919,-87.13411,4,1,0,90,0,0
66962,-85.69337,4,1,0,90,0,0
67004,-84.22093,4,1,0,90,0,0
67090,-81.02547,4,1,0,90,0,0
67262,-74.07407,4,1,0,90,0,0
67604,-95.2380952380952,4,1,0,90,0,0
67776,-105.263157894737,4,1,0,90,0,0
68119,-95.2380952380952,4,1,0,90,0,0
68290,-86.9565217391304,4,1,0,90,0,0
68633,-133.333333333333,4,1,0,90,0,0
68634,-80,4,1,0,90,0,0
68976,-95.2380952380952,4,1,0,90,0,0
69147,-105.263157894737,4,1,0,90,0,0
69490,-95.2380952380952,4,1,0,90,0,0
69662,-86.9418418164936,4,1,0,90,0,0
69747,-83.3535647810957,4,1,0,90,0,0
69919,-76.9288221674509,4,1,0,90,0,0
70004,-140.842756056731,4,1,0,90,0,0
70005,-74.0740740740741,4,1,0,90,0,0
70347,-95.2380952380952,4,1,0,90,0,0
70519,-105.263157894737,4,1,0,90,0,0
70862,-95.2380952380952,4,1,0,90,0,0
71033,-86.9565217391304,4,1,0,90,0,0
71376,-149.255030854456,4,1,0,90,0,0
71377,-80,4,1,0,90,0,0
71719,-95.2380952380952,4,1,0,90,0,0
71890,-105.263157894737,4,1,0,90,0,0
72233,-95.179276,4,1,0,90,0,0
72404,-105.78584,4,1,0,90,0,0
72576,-117.647058823529,4,1,0,90,0,0
72747,-80,4,1,0,90,0,0
73090,-95.2380952380952,4,1,0,90,0,0
73262,-105.263157894737,4,1,0,90,0,0
73604,-95.2380952380952,4,1,0,90,0,0
73776,-86.9565217391304,4,1,0,90,0,0
74119,-169.49487708717,4,1,0,90,0,0
74120,-80,4,1,0,90,0,0
74462,-95.2380952380952,4,1,0,90,0,0
74633,-105.263157894737,4,1,0,90,0,0
74976,-95.2380952380952,4,1,0,90,0,0
75147,-86.9418418164936,4,1,0,90,0,0
75233,-83.3535647810957,4,1,0,90,0,0
75404,-76.9288221674509,4,1,0,90,0,0
75490,-181.818181818182,4,1,0,90,0,0
75491,-74.0740740740741,4,1,0,90,0,0
75833,-95.2380952380952,4,1,0,90,0,0
76004,-105.263157894737,4,1,0,90,0,0
76347,-95.2380952380952,4,1,0,90,0,0
76519,-86.9565217391304,4,1,0,90,0,0
76861,-80,4,1,0,90,0,0
76947,-83.542885,4,1,0,90,0,0
77033,-87.287155,4,1,0,90,0,0
77119,-91.19925,4,1,0,90,0,0
77204,-95.2381,4,1,0,90,0,0
77376,-80,4,1,0,90,0,0
77462,-83.1688,4,1,0,90,0,0
77547,-86.424065,4,1,0,90,0,0
77633,-89.84731,4,1,0,90,0,0
77719,-93.40616,4,1,0,90,0,0
77762,-95.2381,4,1,0,90,0,0
77890,-90.830696,4,1,0,90,0,0
77933,-89.39634,4,1,0,90,0,0
78062,-85.22774,4,1,0,90,0,0
78104,-83.91292,4,1,0,90,0,0
78233,-66.6666666666667,4,1,0,90,0,0
78576,-95.2380952380952,4,1,0,90,0,0
78747,-105.263157894737,4,1,0,90,0,0
79090,-95.2380952380952,4,1,0,90,0,0
79262,-89.5418586455707,4,1,0,90,0,0
79347,-86.9712066199443,4,1,0,90,0,0
79519,-82.1961535392227,4,1,0,90,0,0
79604,-133.333333333333,4,1,0,90,0,0
79605,-80,4,1,0,90,0,0
79947,-95.2380952380952,4,1,0,90,0,0
80119,-105.263157894737,4,1,0,90,0,0
80462,-95.2380952380952,4,1,0,90,0,0
80633,-86.9712351945854,4,1,0,90,0,0
80719,-83.3333333333333,4,1,0,90,0,0
80890,-76.9345906301452,4,1,0,90,0,0
80976,-146.344933051194,4,1,0,90,0,0
80977,-74.0740740740741,4,1,0,90,0,0
81319,-95.2380952380952,4,1,0,90,0,0
81490,-105.263157894737,4,1,0,90,0,0
81833,-95.2380952380952,4,1,0,90,0,0
82004,-89.5418586455707,4,1,0,90,0,0
82090,-86.9712066199443,4,1,0,90,0,0
82262,-82.1961535392227,4,1,0,90,0,0
82347,-162.157901995941,4,1,0,90,0,0
82348,-80,4,1,0,90,0,0
82690,-95.2380952380952,4,1,0,90,0,0
82862,-105.26316,4,1,0,90,0,0
83033,-99.65401,4,1,0,90,0,0
83204,-94.34374,4,1,0,90,0,0
83376,-89.28785,4,1,0,90,0,0
83547,-84.52996,4,1,0,90,0,0
83719,-66.6666666666667,4,1,0,90,0,0
84062,-95.2380952380952,4,1,0,90,0,0
84233,-105.263157894737,4,1,0,90,0,0
84576,-95.2380952380952,4,1,0,90,0,0
84747,-89.5418586455707,4,1,0,90,0,0
84833,-86.9712066199443,4,1,0,90,0,0
85004,-82.1961535392227,4,1,0,90,0,0
85090,-133.333333333333,4,1,0,90,0,0
85091,-80,4,1,0,90,0,0
85433,-95.2380952380952,4,1,0,90,0,0
85604,-105.263157894737,4,1,0,90,0,0
85947,-95.2380952380952,4,1,0,90,0,0
86119,-86.9712351945854,4,1,0,90,0,0
86204,-83.3333333333333,4,1,0,90,0,0
86376,-76.9345906301452,4,1,0,90,0,0
86461,-147.058823529412,4,1,0,90,0,0
86463,-74.0740740740741,4,1,0,90,0,0
86804,-95.2380952380952,4,1,0,90,0,0
86976,-105.263157894737,4,1,0,90,0,0
87319,-95.2380952380952,4,1,0,90,0,0
87490,-86.9565217391304,4,1,0,90,0,0
87833,-80,4,1,0,90,0,0
87919,-81.95894,4,1,0,90,0,0
88004,-83.94224,4,1,0,90,0,0
88176,-88.10352,4,1,0,90,0,0
88347,-92.44509,4,1,0,90,0,0
88519,-97.0279,4,1,0,90,0,0
88690,-101.80924,4,1,0,90,0,0
88776,-104.30222,4,1,0,90,0,0
88862,-106.85625,4,1,0,90,0,0
89033,-112.12191,4,1,0,90,0,0
89204,-66.6666666666667,4,1,0,90,0,0
89547,-95.2380952380952,4,1,0,90,0,0
89719,-105.263157894737,4,1,0,90,0,0
90062,-95.2380952380952,4,1,0,90,0,0
90233,-86.9565217391304,4,1,0,90,0,0
90319,-89.8876404494382,4,1,0,90,0,0
90404,-92.9855385862954,4,1,0,90,0,0
90490,-96.3450497129254,4,1,0,90,0,0
90576,-133.333333333333,4,1,0,90,0,0
90577,-100,4,1,0,90,0,0
90919,-95.2380952380952,4,1,0,90,0,0
91090,-105.263157894737,4,1,0,90,0,0
91433,-95.2380952380952,4,1,0,90,0,0
91604,-86.9565217391304,4,1,0,90,0,0
91690,-89.8876404494382,4,1,0,90,0,0
91776,-92.9855385862954,4,1,0,90,0,0
91862,-96.3450497129254,4,1,0,90,0,0
91947,-146.337993099278,4,1,0,90,0,0
91948,-100,4,1,0,90,0,0
92290,-95.2380952380952,4,1,0,90,0,0
92462,-105.263157894737,4,1,0,90,0,0
92804,-95.2380952380952,4,1,0,90,0,0
92976,-86.9565217391304,4,1,0,90,0,0
93062,-89.8876404494382,4,1,0,90,0,0
93147,-92.9855385862954,4,1,0,90,0,0
93233,-96.3450497129254,4,1,0,90,0,0
93319,-162.166423587843,4,1,0,90,0,0
93320,-100.02043,4,1,0,90,0,0
93490,-96.58602,4,1,0,90,0,0
93662,-93.25048,4,1,0,90,0,0
93833,-90.04853,4,1,0,90,0,0
94004,-80,4,1,0,90,0,0
94090,-82.26618,4,1,0,90,0,0
94176,-84.59657,4,1,0,90,0,0
94262,-86.99297,4,1,0,90,0,0
94347,-89.42819,4,1,0,90,0,0
94433,-91.96146,4,1,0,90,0,0
94519,-94.56648,4,1,0,90,0,0
94604,-97.21372,4,1,0,90,0,0
94690,-133.333333333333,4,1,0,90,0,0
94691,-99.96753,4,1,0,90,0,0
95033,-95.2380952380952,4,1,0,90,0,0
95204,-105.263157894737,4,1,0,90,0,0
95547,-95.2380952380952,4,1,0,90,0,0
95719,-86.9565217391304,4,1,0,90,0,0
95804,-89.8876404494382,4,1,0,90,0,0
95890,-92.9855385862954,4,1,0,90,0,0
95976,-96.3450497129254,4,1,0,90,0,0
96062,-109.081267400239,4,1,0,90,0,0
96063,-100.02043,4,1,0,90,0,0
96233,-99.96525,4,1,0,90,0,0
96404,-99.76575,4,1,0,91,0,0
96576,-99.39725,4,1,0,91,0,0
96662,-99.146255,4,1,0,92,0,0
96747,-98.853355,4,1,0,92,0,0
96919,-98.12286,4,1,0,92,0,0
97090,-80,4,1,0,93,0,0
97133,-81.726906,4,1,0,93,0,0
97176,-83.49108,4,1,0,93,0,0
97262,-87.1345,4,1,0,93,0,0
97347,-90.89176,4,1,0,93,0,0
97433,-92.3042405205295,4,1,0,93,0,0
97434,-94.85813,4,1,0,93,0,0
97604,-93.433945,4,1,0,94,0,0
97776,-91.84855,4,1,0,94,0,0
97947,-90.13378,4,1,0,95,0,0
98119,-88.28448,4,1,0,95,0,0
98204,-87.3293,4,1,0,95,0,0
98290,-86.33782,4,1,0,96,0,0
98376,-85.32316,4,1,0,96,0,0
98462,-84.28739,4,1,0,96,0,0
98633,-82.17334,4,1,0,97,0,0
98804,-80,4,1,0,97,0,0
98890,-81.121704,4,1,0,97,0,0
98976,-82.25913,4,1,0,97,0,0
99062,-83.41252,4,1,0,97,0,0
99147,-84.568375,4,1,0,97,0,0
99319,-86.95652,4,1,0,97,0,0
99490,-74.0740740740741,4,1,0,97,0,0
99576,-76.9230769230769,4,1,0,97,0,0
99662,-74.0740740740741,4,1,0,97,0,0
99747,-76.9230769230769,4,1,0,97,0,0
99833,-74.07407,4,1,0,97,0,0
99919,-75.51731,4,1,0,98,0,0
100004,-76.9714,4,1,0,98,0,0
100090,-78.47109,4,1,0,99,0,0
100176,-74.0740740740741,4,1,0,100,0,1
100347,-95.2380952380952,4,1,0,100,0,1
111147,-80,4,1,0,100,0,1
111319,-95.2380952380952,4,1,0,100,0,1
116119,-98.47532,4,1,0,100,0,1
116204,-100.11551,4,1,0,100,0,1
116290,-101.802795,4,1,0,100,0,1
116462,-105.26316,4,1,0,100,0,1
116633,-90.9090909090909,4,1,0,100,0,1
116804,-95.2380952380952,4,1,0,100,0,1
118690,-83.3333333333333,4,1,0,100,0,1
118862,-86.9565217391304,4,1,0,100,0,1
118947,-90.9090909090909,4,1,0,100,0,1
119119,-86.9565217391304,4,1,0,100,0,1
119204,-90.9090909090909,4,1,0,100,0,1
119376,-95.2381,4,1,0,100,0,1
119547,-95.2249,4,1,0,100,0,1
119633,-95.201546,4,1,0,100,0,1
119719,-95.162926,4,1,0,100,0,1
119890,-95.03173,4,1,0,100,0,1
119976,-94.93461,4,1,0,100,0,1
120062,-94.81443,4,1,0,100,0,1
120147,-94.6716,4,1,0,100,0,1
120233,-94.5015,4,1,0,100,0,1
120319,-94.30452,4,1,0,100,0,1
120404,-94.08244,4,1,0,100,0,1
120576,-93.54641,4,1,0,100,0,1
120747,-92.8943,4,1,0,100,0,1
120919,-92.11502,4,1,0,100,0,1
121004,-91.68369,4,1,0,100,0,1
121176,-90.71736,4,1,0,100,0,1
121262,-90.187546,4,1,0,100,0,1
121433,-89.043335,4,1,0,100,0,1
121519,-88.423195,4,1,0,100,0,1
121604,-87.78169,4,1,0,100,0,1
121690,-87.10443,4,1,0,100,0,1
121776,-86.39963,4,1,0,100,0,1
121947,-84.91994,4,1,0,100,0,1
122119,-83.33333,4,1,0,100,0,0
122462,-100,4,1,0,100,0,0
132233,-99.953995,4,1,0,100,0,0
132319,-99.843994,4,1,0,100,0,0
132404,-99.63314,4,1,0,100,0,0
132490,-99.28348,4,1,0,100,0,0
132576,-98.76543,4,1,0,100,0,0
132747,-97.12637,4,1,0,100,0,0
132833,-95.95203,4,1,0,100,0,0
132919,-94.5235,4,1,0,100,0,0
132962,-93.71158,4,1,0,100,0,0
133004,-92.85536,4,1,0,100,0,0
133090,-90.90909,4,1,0,100,0,0
133433,-111.111111111111,4,1,0,90,0,0
143204,-113.30734,4,1,0,90,0,0
143290,-114.42824,4,1,0,90,0,0
143376,-115.56022,4,1,0,90,0,0
143547,-117.84439,4,1,0,90,0,0
143633,-119.010155,4,1,0,90,0,0
143719,-120.18747,4,1,0,90,0,0
143890,-122.563095,4,1,0,90,0,0
144061,-125,4,1,0,90,0,0
144404,-133.333333333333,4,1,0,90,0,0
144747,-111.111111111111,4,1,0,90,0,0
145090,-133.333333333333,4,1,0,90,0,0
146804,-105.26316,4,1,0,90,0,0
146890,-109.50148,4,1,0,90,0,0
146976,-113.91047,4,1,0,90,0,0
147062,-118.49696,4,1,0,90,0,0
147147,-123.21156,4,1,0,90,0,0
147233,-128.17258,4,1,0,90,0,0
147319,-133.33333,4,1,0,90,0,0
147490,-105.263157894737,4,1,0,90,0,0
148004,-117.647058823529,4,1,0,90,0,0
148176,-125,4,1,0,90,0,0
148519,-133.33333,4,1,0,90,0,0
148862,-123.22098,4,1,0,90,0,0
149033,-118.46977,4,1,0,90,0,0
149119,-116.14997,4,1,0,90,0,0
149204,-113.90177,4,1,0,90,0,0
149376,-109.48472,4,1,0,90,0,0
149547,-105.26316,4,1,0,90,0,0
149633,-109.50148,4,1,0,90,0,0
149719,-113.91047,4,1,0,90,0,0
149804,-118.49696,4,1,0,90,0,0
149890,-123.21156,4,1,0,90,0,0
149976,-128.17258,4,1,0,90,0,0
150062,-133.33333,4,1,0,90,0,0
150233,-105.263157894737,4,1,0,90,0,0
150576,-133.33333,4,1,0,90,0,0
150747,-128.19221,4,1,0,90,0,0
150919,-123.22098,4,1,0,90,0,0
151090,-118.46977,4,1,0,90,0,0
151176,-116.14997,4,1,0,90,0,0
151262,-113.87558,4,1,0,90,0,0
151433,-109.48472,4,1,0,90,0,0
151604,-105.26316,4,1,0,90,0,0
151947,-108.23123,4,1,0,90,0,0
152119,-109.75094,4,1,0,90,0,0
152290,-111.28298,4,1,0,90,0,0
152462,-112.84555,4,1,0,90,0,0
152633,-114.420784,4,1,0,90,0,0
152804,-116.01801,4,1,0,90,0,0
152976,-117.64706,4,1,0,90,0,0
154347,-117.20658,4,1,0,90,0,0
154604,-115.32713,4,1,0,90,0,0
154862,-111.111115,4,1,0,90,0,0
155033,-100,4,1,0,90,0,0
164119,-99.93013,4,1,0,90,0,0
164204,-99.84414,4,1,0,90,0,0
164290,-99.72272,4,1,0,90,0,0
164462,-99.377075,4,1,0,90,0,0
164633,-98.90005,4,1,0,90,0,0
164804,-98.293846,4,1,0,90,0,0
164890,-97.941635,4,1,0,90,0,0
164976,-97.55866,4,1,0,90,0,0
165147,-96.70876,4,1,0,90,0,0
165319,-95.74072,4,1,0,90,0,0
165490,-94.67292,4,1,0,90,0,0
165662,-93.50059,4,1,0,90,0,0
165833,-92.24539,4,1,0,90,0,0
166004,-90.90909,4,1,0,90,0,0
166176,-90.56403,4,1,0,90,0,0
166347,-89.55224,4,1,0,90,0,0
166519,-87.906456,4,1,0,90,0,0
166690,-85.71428,4,1,0,90,0,0
166862,-83.036606,4,1,0,90,0,0
167033,-80,4,1,0,90,0,0
167119,-83.3333333333333,4,1,0,93,0,0
167204,-80,4,1,0,95,0,0
167290,-83.3333333333333,4,1,0,97,0,0
167376,-74.0740740740741,4,1,0,100,0,1
167547,-95.2380952380952,4,1,0,100,0,1
177147,-95.1458,4,1,0,100,0,1
177233,-94.98293,4,1,0,100,0,1
177319,-94.71451,4,1,0,100,0,1
177490,-93.81247,4,1,0,100,0,1
177576,-93.15401,4,1,0,100,0,1
177662,-92.350174,4,1,0,100,0,1
177747,-91.41013,4,1,0,100,0,1
177833,-90.31165,4,1,0,100,0,1
178004,-87.69908,4,1,0,100,0,1
178047,-86.95652,4,1,0,100,0,1
178347,-80,4,1,0,100,0,1
178519,-95.2380952380952,4,1,0,100,0,1
183147,-97.64397,4,1,0,100,0,1
183233,-98.87682,4,1,0,100,0,1
183319,-100.12524,4,1,0,100,0,1
183404,-101.37462,4,1,0,100,0,1
183490,-102.65457,4,1,0,100,0,1
183662,-105.26316,4,1,0,100,0,1
183833,-86.9565217391304,4,1,0,100,0,1
184004,-95.2380952380952,4,1,0,100,0,1
188119,-95.22023,4,1,0,100,0,1
188204,-95.17851,4,1,0,100,0,1
188376,-94.96162,4,1,0,100,0,1
188462,-94.76079,4,1,0,100,0,1
188633,-94.117645,4,1,0,100,0,1
188719,-93.64918,4,1,0,100,0,1
188804,-93.07769,4,1,0,100,0,1
188890,-92.38137,4,1,0,100,0,1
188976,-91.55937,4,1,0,100,0,1
189033,-90.94268,4,1,0,100,0,1
189090,-90.26739,4,1,0,100,0,1
189147,-89.53285,4,1,0,100,0,1
189204,-88.73878,4,1,0,100,0,1
189262,-87.86983,4,1,0,100,0,1
189319,-86.95652,4,1,0,100,0,1
189490,-86.92174,4,1,0,100,0,1
189576,-86.83854,4,1,0,100,0,1
189662,-86.67655,4,1,0,100,0,1
189747,-86.41422,4,1,0,100,0,1
189833,-86.02151,4,1,0,100,0,1
189919,-85.47866,4,1,0,100,0,1
190004,-84.775475,4,1,0,100,0,1
190047,-84.35152,4,1,0,100,0,1
190090,-83.87942,4,1,0,100,0,1
190176,-82.785706,4,1,0,100,0,1
190262,-81.48704,4,1,0,100,0,1
190347,-80,4,1,0,100,0,1
190519,-74.07407,4,1,0,100,0,1
190576,-75.40298,4,1,0,100,0,1
190633,-76.75572,4,1,0,100,0,1
190690,-78.13274,4,1,0,100,0,1
190776,-80.25723,4,1,0,100,0,1
190862,-82.4395,4,1,0,100,0,1
190947,-84.654686,4,1,0,100,0,1
191033,-80,4,1,0,100,0,1
191076,-80.84064,4,1,0,100,0,1
191119,-81.690094,4,1,0,100,0,1
191204,-83.39563,4,1,0,100,0,1
191290,-85.15746,4,1,0,100,0,1
191376,-86.95652,4,1,0,100,0,1
191547,-100,4,1,0,100,0,1
191633,-96.34229,4,1,0,100,0,1
191719,-92.818375,4,1,0,100,0,1
191804,-89.4621,4,1,0,100,0,1
191890,-86.18983,4,1,0,100,0,1
191976,-83.03726,4,1,0,100,0,1
192062,-80,4,1,0,100,0,1
192233,-86.95652,4,1,0,100,0,1
192319,-90.05771,4,1,0,100,0,1
192404,-93.23148,4,1,0,100,0,1
192490,-96.55646,4,1,0,100,0,1
192576,-100,4,1,0,100,0,1
192747,-74.07407,4,1,0,100,0,1
192804,-75.9444,4,1,0,100,0,1
192862,-77.896,4,1,0,100,0,1
192919,-79.86282,4,1,0,100,0,1
193004,-82.88843,4,1,0,100,0,1
193090,-86.0663,4,1,0,100,0,1
193147,-88.2394,4,1,0,100,0,1
193204,-90.46739,4,1,0,100,0,1
193262,-92.79222,4,1,0,100,0,1
193347,-96.307655,4,1,0,100,0,1
193433,-100,4,1,0,100,0,1
193519,-98.78414,4,1,0,100,0,1
193604,-97.59695,4,1,0,100,0,1
193690,-96.41031,4,1,0,100,0,1
193776,-95.2381,4,1,0,100,0,1
193947,-91.18758,4,1,0,100,0,1
194033,-89.216064,4,1,0,100,0,1
194119,-87.287155,4,1,0,100,0,1
194204,-85.42167,4,1,0,100,0,1
194290,-76.92308,4,1,0,100,0,1
194347,-77.60892,4,1,0,100,0,1
194404,-78.300865,4,1,0,100,0,1
194462,-79.011284,4,1,0,100,0,1
194547,-80.06408,4,1,0,100,0,1
194633,-81.14353,4,1,0,100,0,1
194719,-82.23755,4,1,0,100,0,1
194804,-83.33333,4,1,0,100,0,1
194890,-80,4,1,0,100,0,1
194976,-83.3333333333333,4,1,0,100,0,1
195062,-80,4,1,0,100,0,1
195147,-83.3333369444446,4,1,0,100,0,1
195233,-80,4,1,0,100,0,1
195319,-83.3333369444446,4,1,0,100,0,1
195490,-95.2381,4,1,0,100,0,1
195576,-92.10229,4,1,0,100,0,1
195662,-89.06974,4,1,0,100,0,1
195747,-86.17057,4,1,0,100,0,1
195833,-76.92308,4,1,0,100,0,1
195890,-78.50641,4,1,0,100,0,1
195947,-80.1223,4,1,0,100,0,1
196004,-81.77148,4,1,0,100,0,1
196090,-84.32415,4,1,0,100,0,1
196176,-76.92308,4,1,0,100,0,1
196262,-78.51732,4,1,0,100,0,1
196347,-80.12548,4,1,0,100,0,1
196433,-81.78609,4,1,0,100,0,1
196519,-83.4811,4,1,0,100,0,1
196604,-85.19093,4,1,0,100,0,1
196690,-76.92308,4,1,0,100,0,1
196776,-79.32441,4,1,0,100,0,1
196862,-81.800705,4,1,0,100,0,1
196947,-84.32415,4,1,0,100,0,1
197033,-86.95652,4,1,0,100,0,1
197204,-80,4,1,0,100,0,1
197262,-82.39371,4,1,0,100,0,1
197319,-84.815926,4,1,0,100,0,1
197376,-87.30934,4,1,0,100,0,1
197462,-91.21077,4,1,0,100,0,1
197547,-95.2380952380952,4,1,0,100,0,1
197719,-100,4,1,0,100,0,1
197804,-93.2886,4,1,0,100,0,1
197890,-86.95652,4,1,0,100,0,1
198062,-74.07407,4,1,0,100,0,1
198147,-77.217445,4,1,0,100,0,1
198190,-78.85807,4,1,0,100,0,1
198233,-80.53357,4,1,0,100,0,1
198319,-83.9921,4,1,0,100,0,1
198404,-87.55634,4,1,0,100,0,1
198490,-91.316475,4,1,0,100,0,1
198576,-95.2381,4,1,0,100,0,1
198747,-83.33333,4,1,0,100,0,1
198833,-87.03882,4,1,0,100,0,1
198919,-90.90909,4,1,0,100,0,1
199176,-86.9565217391304,4,1,0,100,0,1
199262,-83.3333333333333,4,1,0,100,0,1
199433,-90.9090909090909,4,1,0,100,0,1
199604,-86.9565217391304,4,1,0,100,0,1
199690,-83.33333,4,1,0,100,0,1
199862,-86.58509,4,1,0,100,0,1
199947,-83.3333333333333,4,1,0,100,0,1
200119,-91.68177,4,1,0,100,0,1
200290,-95.2381,4,1,0,100,0,1
200376,-93.179,4,1,0,100,0,1
200462,-91.164406,4,1,0,100,0,1
200547,-89.216064,4,1,0,100,0,1
200633,-87.287155,4,1,0,100,0,1
200719,-85.399956,4,1,0,100,0,1
200804,-83.57481,4,1,0,100,0,1
200890,-81.76787,4,1,0,100,0,1
200976,-76.92308,4,1,0,100,0,1
201019,-77.54417,4,1,0,100,0,1
201062,-78.170265,4,1,0,100,0,1
201147,-79.42281,4,1,0,100,0,1
201233,-80.710526,4,1,0,100,0,1
201319,-82.01911,4,1,0,100,0,1
201404,-83.33333,4,1,0,100,0,1
201490,-74.07407,4,1,0,100,0,1
201533,-75.64792,4,1,0,100,0,1
201576,-77.2552,4,1,0,100,0,1
201662,-80.57295,4,1,0,100,0,1
201747,-83.9921,4,1,0,100,0,1
201833,-87.59917,4,1,0,100,0,1
201919,-91.36114,4,1,0,100,0,1
202004,-95.2381,4,1,0,100,0,1
202176,-100,4,1,0,100,0,1
202262,-95.2381,4,1,0,100,0,1
202433,-100,4,1,0,100,0,1
202519,-95.2381,4,1,0,100,0,1
202690,-80,4,1,0,100,0,1
202776,-83.5748,4,1,0,100,0,1
202862,-87.30934,4,1,0,100,0,1
202947,-91.164406,4,1,0,100,0,1
203033,-95.2381,4,1,0,100,0,1
203204,-100,4,1,0,100,0,1
203290,-93.25048,4,1,0,100,0,1
203376,-86.95652,4,1,0,100,0,1
203547,-80,4,1,0,100,0,1
203633,-83.037254,4,1,0,100,0,1
203719,-86.18984,4,1,0,100,0,1
203804,-89.42334,4,1,0,100,0,1
203890,-92.818375,4,1,0,100,0,1
203976,-96.34229,4,1,0,100,0,1
204062,-100,4,1,0,100,0,1
204147,-94.60502,4,1,0,100,0,1
204233,-89.44272,4,1,0,100,0,1
204319,-84.56211,4,1,0,100,0,1
204404,-80,4,1,0,100,0,1
204662,-74.0740740740741,4,1,0,100,0,1
204919,-80,4,1,0,100,0,1
205090,-74.07407,4,1,0,100,0,1
205176,-76.29423,4,1,0,100,0,1
205262,-78.58091,4,1,0,100,0,1
205347,-80.90835,4,1,0,100,0,1
205433,-83.33333,4,1,0,100,0,1
205519,-78.79897,4,1,0,100,0,1
205604,-74.559845,4,1,0,100,0,1
205690,-70.502884,4,1,0,100,0,1
205776,-66.666664,4,1,0,100,0,1
205947,-80,4,1,0,100,0,1
206033,-83.5748,4,1,0,100,0,1
206119,-87.30934,4,1,0,100,0,1
206290,-95.2381,4,1,0,100,0,1
206462,-92.382545,4,1,0,100,0,1
206504,-91.69837,4,1,0,100,0,1
206547,-91.00315,4,1,0,100,0,1
206633,-89.62849,4,1,0,100,0,1
206719,-88.27458,4,1,0,100,0,1
206804,-86.95652,4,1,0,100,0,1
206976,-74.07407,4,1,0,100,0,1
207033,-76.16752,4,1,0,100,0,1
207090,-78.32013,4,1,0,100,0,1
207147,-80.53357,4,1,0,100,0,1
207233,-83.9921,4,1,0,100,0,1
207319,-87.59917,4,1,0,100,0,1
207404,-91.316475,4,1,0,100,0,1
207490,-95.2381,4,1,0,100,0,1
207662,-89.840515,4,1,0,100,0,1
207747,-87.287155,4,1,0,100,0,1
207833,-84.7776,4,1,0,100,0,1
208004,-80,4,1,0,100,0,1
208176,-86.18984,4,1,0,100,0,1
208262,-89.46209,4,1,0,100,0,1
208347,-92.818375,4,1,0,100,0,1
208433,-96.34229,4,1,0,100,0,1
208519,-100,4,1,0,100,0,1
208690,-40,4,1,0,100,0,1
209890,-80,4,1,0,100,0,1
209891,-20,4,1,0,100,0,1
211262,-66.6666666666667,4,1,0,90,0,0
212462,-142.85715,4,1,0,80,0,0
212633,-142.85585,4,1,0,80,0,0
214004,-141.91237,4,1,0,80,0,0
215204,-137.70256,4,1,0,80,0,0
215376,-136.71481,4,1,0,80,0,0
216747,-125,4,1,0,80,0,0
217090,-124.99938,4,1,0,81,0,0
217433,-124.990105,4,1,0,81,0,0
217776,-124.94994,4,1,0,82,0,0
217947,-124.907455,4,1,0,82,0,0
218119,-124.84193,4,1,0,83,0,0
218290,-124.74732,4,1,0,83,0,0
218462,-124.61479,4,1,0,83,0,0
218633,-124.43741,4,1,0,84,0,0
218804,-124.2054,4,1,0,84,0,0
219147,-123.53543,4,1,0,85,0,0
219319,-123.07544,4,1,0,85,0,0
219490,-122.5215,4,1,0,85,0,0
219662,-121.85605,4,1,0,86,0,0
219833,-121.076126,4,1,0,86,0,0
220004,-120.16792,4,1,0,86,0,0
220176,-119.11546,4,1,0,87,0,0
220347,-117.922485,4,1,0,87,0,0
220433,-117.26494,4,1,0,87,0,0
220519,-116.56783,4,1,0,87,0,0
220690,-115.061714,4,1,0,88,0,0
220862,-113.38283,4,1,0,88,0,0
220947,-112.491875,4,1,0,88,0,0
221033,-111.54918,4,1,0,88,0,0
221119,-110.56514,4,1,0,89,0,0
221204,-109.55224,4,1,0,89,0,0
221376,-107.38209,4,1,0,89,0,0
221547,-105.0696,4,1,0,89,0,0
221890,-100,4,1,0,90,0,0
222233,-80,4,1,0,100,0,1
222404,-95.2380952380952,4,1,0,100,0,1
233204,-80,4,1,0,100,0,1
233376,-95.2380952380952,4,1,0,100,0,1
238176,-98.47532,4,1,0,100,0,1
238262,-100.11551,4,1,0,100,0,1
238347,-101.802795,4,1,0,100,0,1
238519,-105.26316,4,1,0,100,0,1
238690,-86.9565217391304,4,1,0,100,0,1
238862,-95.2380952380952,4,1,0,100,0,1
240747,-83.3333333333333,4,1,0,100,0,1
240919,-86.9565217391304,4,1,0,100,0,1
241004,-90.9090909090909,4,1,0,100,0,1
241176,-86.9565217391304,4,1,0,100,0,1
241262,-90.9090909090909,4,1,0,100,0,1
241433,-95.2381,4,1,0,100,0,1
241604,-95.23151,4,1,0,100,0,1
241690,-95.21572,4,1,0,100,0,1
241776,-95.18492,4,1,0,100,0,1
241862,-95.13412,4,1,0,100,0,1
241947,-95.05939,4,1,0,100,0,1
242033,-94.95416,4,1,0,100,0,1
242119,-94.814354,4,1,0,100,0,1
242204,-94.637634,4,1,0,100,0,1
242290,-94.4154,4,1,0,100,0,1
242376,-94.14517,4,1,0,100,0,1
242462,-93.82292,4,1,0,100,0,1
242633,-93.01303,4,1,0,100,0,1
242804,-91.95749,4,1,0,100,0,1
242976,-90.62897,4,1,0,100,0,1
243147,-89.03181,4,1,0,100,0,1
243233,-88.12329,4,1,0,100,0,1
243319,-87.144875,4,1,0,100,0,1
243404,-86.11023,4,1,0,100,0,1
243490,-84.99669,4,1,0,100,0,1
243547,-84.22273,4,1,0,100,0,1
243604,-83.421036,4,1,0,100,0,1
243662,-82.5777,4,1,0,100,0,1
243747,-81.29365,4,1,0,100,0,1
243833,-79.93955,4,1,0,100,0,1
243876,-79.243034,4,1,0,100,0,1
243919,-78.53423,4,1,0,100,0,1
244004,-77.099205,4,1,0,100,0,1
244090,-75.60532,4,1,0,100,0,1
244176,-74.07407,4,1,0,100,0,0
244347,-100,4,1,0,100,0,0
252576,-99.994484,4,1,0,100,0,0
252748,-99.95585,4,1,0,100,0,0
252919,-99.852005,4,1,0,100,0,0
253005,-99.765,4,1,0,100,0,0
253091,-99.649414,4,1,0,100,0,0
253176,-99.50324,4,1,0,100,0,0
253262,-99.319305,4,1,0,100,0,0
253347,-99.09831,4,1,0,100,0,0
253433,-98.83158,4,1,0,100,0,0
253519,-98.51817,4,1,0,100,0,0
253605,-98.15499,4,1,0,100,0,0
253691,-97.739204,4,1,0,100,0,0
253776,-97.274055,4,1,0,100,0,0
253947,-96.15946,4,1,0,100,0,0
254119,-94.81071,4,1,0,100,0,0
254204,-94.03916,4,1,0,100,0,0
254290,-93.204666,4,1,0,100,0,0
254376,-92.31815,4,1,0,100,0,0
254462,-91.359344,4,1,0,100,0,0
254547,-90.35151,4,1,0,100,0,0
254633,-89.25945,4,1,0,100,0,0
254804,-86.95652,4,1,0,100,0,0
255147,-80,4,1,0,90,0,0
255490,-100,4,1,0,90,0,0
255833,-100.001015,4,1,0,90,0,0
256176,-100.008064,4,1,0,89,0,0
256347,-100.015724,4,1,0,89,0,0
256519,-100.02723,4,1,0,89,0,0
256690,-100.04319,4,1,0,89,0,0
256862,-100.06456,4,1,0,89,0,0
257033,-100.091866,4,1,0,89,0,0
257119,-100.108116,4,1,0,88,0,0
257204,-100.12596,4,1,0,88,0,0
257376,-100.16788,4,1,0,88,0,0
257547,-100.21792,4,1,0,88,0,0
257890,-100.34656,4,1,0,88,0,0
258233,-100.51828,4,1,0,87,0,0
258576,-100.73966,4,1,0,87,0,0
258919,-101.01752,4,1,0,87,0,0
259090,-101.17935,4,1,0,87,0,0
259261,-101.35791,4,1,0,86,0,0
259433,-101.55535,4,1,0,86,0,0
259604,-101.770355,4,1,0,86,0,0
259776,-102.00645,4,1,0,86,0,0
259947,-102.26197,4,1,0,86,0,0
260119,-102.54099,4,1,0,86,0,0
260204,-102.687386,4,1,0,86,0,0
260290,-102.84142,4,1,0,85,0,0
260633,-103.51811,4,1,0,85,0,0
260976,-104.302345,4,1,0,85,0,0
261319,-105.20553,4,1,0,85,0,0
261662,-106.24038,4,1,0,84,0,0
261833,-106.80988,4,1,0,84,0,0
262004,-107.41759,4,1,0,84,0,0
262176,-108.069496,4,1,0,84,0,0
262347,-108.760254,4,1,0,84,0,0
262690,-110.2838,4,1,0,83,0,0
263033,-112.00969,4,1,0,83,0,0
263376,-113.96298,4,1,0,83,0,0
263719,-116.173,4,1,0,82,0,0
263890,-117.38123,4,1,0,82,0,0
264062,-118.674446,4,1,0,82,0,0
264404,-121.499985,4,1,0,82,0,0
264576,-123.06129,4,1,0,81,0,0
264747,-124.715904,4,1,0,81,0,0
265090,-128.3752,4,1,0,81,0,0
265433,-132.55249,4,1,0,81,0,0
265776,-137.34074,4,1,0,80,0,0
265947,-139.99142,4,1,0,80,0,0
266119,-142.85715,4,1,0,80,0,0

[HitObjects]
256,192,62,5,8,0:0:0:0:
256,192,319,1,8,0:0:0:0:
256,192,576,1,8,0:0:0:0:
256,192,747,1,8,0:0:0:0:
256,192,833,1,8,0:0:0:0:
256,192,919,1,8,0:0:0:0:
256,192,1004,1,8,0:0:0:0:
256,192,1090,1,0,0:0:0:0:
256,192,1133,1,0,0:0:0:0:
256,192,1176,1,0,0:0:0:0:
256,192,1262,1,8,0:0:0:0:
256,192,1347,1,8,0:0:0:0:
256,192,1433,1,0,0:0:0:0:
256,192,1690,1,0,0:0:0:0:
256,192,1776,1,8,0:0:0:0:
256,192,1947,1,0,0:0:0:0:
256,192,2119,1,8,0:0:0:0:
256,192,2376,1,8,0:0:0:0:
256,192,2633,1,0,0:0:0:0:
256,192,2976,1,0,0:0:0:0:
256,192,3062,1,0,0:0:0:0:
256,192,3147,1,8,0:0:0:0:
256,192,3319,1,0,0:0:0:0:
256,192,3490,1,8,0:0:0:0:
256,192,3747,1,8,0:0:0:0:
256,192,3833,1,0,0:0:0:0:
256,192,4176,1,0,0:0:0:0:
256,192,4347,1,8,0:0:0:0:
256,192,4519,1,0,0:0:0:0:
256,192,4690,1,0,0:0:0:0:
256,192,4862,1,8,0:0:0:0:
256,192,4947,1,8,0:0:0:0:
256,192,5033,1,0,0:0:0:0:
256,192,5119,1,0,0:0:0:0:
256,192,5204,1,8,0:0:0:0:
256,192,5376,1,0,0:0:0:0:
256,192,5719,1,0,0:0:0:0:
256,192,5890,1,8,0:0:0:0:
256,192,6062,1,0,0:0:0:0:
256,192,6233,1,8,0:0:0:0:
256,192,6490,1,8,0:0:0:0:
256,192,6576,1,0,0:0:0:0:
256,192,6747,1,0,0:0:0:0:
256,192,6833,1,0,0:0:0:0:
256,192,6919,1,12,0:0:0:0:
256,192,7090,1,0,0:0:0:0:
256,192,7262,1,8,0:0:0:0:
256,192,7433,1,0,0:0:0:0:
256,192,7519,1,0,0:0:0:0:
256,192,7604,1,8,0:0:0:0:
256,192,7776,1,0,0:0:0:0:
256,192,7862,1,8,0:0:0:0:
256,192,8119,1,0,0:0:0:0:
256,192,8376,1,0,0:0:0:0:
256,192,8462,1,8,0:0:0:0:
256,192,8633,1,0,0:0:0:0:
256,192,8804,1,0,0:0:0:0:
256,192,8890,1,0,0:0:0:0:
256,192,8976,1,8,0:0:0:0:
256,192,9147,1,0,0:0:0:0:
256,192,9319,1,8,0:0:0:0:
256,192,9490,1,0,0:0:0:0:
256,192,9662,1,4,0:0:0:0:
256,192,10004,1,0,0:0:0:0:
256,192,10176,1,8,0:0:0:0:
256,192,10262,1,8,0:0:0:0:
256,192,10347,1,0,0:0:0:0:
256,192,10519,1,8,0:0:0:0:
256,192,10604,1,8,0:0:0:0:
256,192,10690,1,0,0:0:0:0:
256,192,10776,1,0,0:0:0:0:
256,192,10862,1,8,0:0:0:0:
256,192,11033,1,0,0:0:0:0:
256,192,11204,1,0,0:0:0:0:
256,192,11376,1,8,0:0:0:0:
256,192,11462,1,8,0:0:0:0:
256,192,11547,1,0,0:0:0:0:
256,192,11633,1,0,0:0:0:0:
256,192,11719,1,8,0:0:0:0:
256,192,11804,1,8,0:0:0:0:
256,192,11890,1,8,0:0:0:0:
256,192,11976,1,0,0:0:0:0:
256,192,12062,1,8,0:0:0:0:
256,192,12233,1,8,0:0:0:0:
256,192,12404,1,4,0:0:0:0:
256,192,12576,1,0,0:0:0:0:
256,192,12747,1,8,0:0:0:0:
256,192,12919,1,8,0:0:0:0:
256,192,13004,1,0,0:0:0:0:
256,192,13090,1,8,0:0:0:0:
256,192,13176,1,8,0:0:0:0:
256,192,13262,1,0,0:0:0:0:
256,192,13347,1,0,0:0:0:0:
256,192,13433,1,8,0:0:0:0:
256,192,13604,1,8,0:0:0:0:
256,192,13776,1,0,0:0:0:0:
256,192,13947,1,0,0:0:0:0:
256,192,14119,1,8,0:0:0:0:
256,192,14162,1,8,0:0:0:0:
256,192,14290,1,0,0:0:0:0:
256,192,14462,1,8,0:0:0:0:
256,192,14547,1,8,0:0:0:0:
256,192,14633,1,0,0:0:0:0:
256,192,14804,1,8,0:0:0:0:
256,192,14890,1,0,0:0:0:0:
256,192,14976,1,8,0:0:0:0:
256,192,15062,1,8,0:0:0:0:
256,192,15147,1,0,0:0:0:0:
256,192,15319,1,0,0:0:0:0:
256,192,15490,1,8,0:0:0:0:
256,192,15662,1,8,0:0:0:0:
256,192,15747,1,8,0:0:0:0:
256,192,15833,1,0,0:0:0:0:
256,192,15919,1,8,0:0:0:0:
256,192,16004,1,0,0:0:0:0:
256,192,16090,1,0,0:0:0:0:
256,192,16176,1,8,0:0:0:0:
256,192,16347,1,8,0:0:0:0:
256,192,16433,1,8,0:0:0:0:
256,192,16519,1,0,0:0:0:0:
256,192,16690,1,0,0:0:0:0:
256,192,16776,1,0,0:0:0:0:
256,192,16862,1,8,0:0:0:0:
256,192,17033,1,0,0:0:0:0:
256,192,17119,1,0,0:0:0:0:
256,192,17204,1,8,0:0:0:0:
256,192,17290,1,0,0:0:0:0:
256,192,17376,1,8,0:0:0:0:
256,192,17462,1,0,0:0:0:0:
256,192,17547,1,8,0:0:0:0:
256,192,17633,1,8,0:0:0:0:
256,192,17719,1,8,0:0:0:0:
256,192,17804,1,8,0:0:0:0:
256,192,17890,1,0,0:0:0:0:
256,192,18062,1,0,0:0:0:0:
256,192,18233,1,8,0:0:0:0:
256,192,18404,1,8,0:0:0:0:
256,192,18490,1,0,0:0:0:0:
256,192,18576,1,8,0:0:0:0:
256,192,18662,1,0,0:0:0:0:
256,192,18747,1,8,0:0:0:0:
256,192,18833,1,8,0:0:0:0:
256,192,18919,1,0,0:0:0:0:
256,192,19090,1,8,0:0:0:0:
256,192,19262,1,0,0:0:0:0:
256,192,19433,1,0,0:0:0:0:
256,192,19604,1,8,0:0:0:0:
256,192,19776,1,0,0:0:0:0:
256,192,19862,1,0,0:0:0:0:
256,192,19947,1,8,0:0:0:0:
256,192,20033,1,0,0:0:0:0:
256,192,20119,1,8,0:0:0:0:
256,192,20290,1,0,0:0:0:0:
256,192,20462,1,8,0:0:0:0:
256,192,20633,1,0,0:0:0:0:
256,192,20719,1,8,0:0:0:0:
256,192,20804,1,8,0:0:0:0:
256,192,20890,1,0,0:0:0:0:
256,192,20976,1,8,0:0:0:0:
256,192,21062,1,8,0:0:0:0:
256,192,21147,1,0,0:0:0:0:
256,192,21233,1,0,0:0:0:0:
256,192,21319,1,8,0:0:0:0:
256,192,21490,1,0,0:0:0:0:
256,192,21576,1,0,0:0:0:0:
256,192,21662,1,8,0:0:0:0:
256,192,21704,1,8,0:0:0:0:
256,192,21747,1,0,0:0:0:0:
256,192,21833,1,8,0:0:0:0:
256,192,21919,1,8,0:0:0:0:
256,192,22004,1,0,0:0:0:0:
256,192,22176,1,8,0:0:0:0:
256,192,22347,1,8,0:0:0:0:
256,192,22433,1,0,0:0:0:0:
256,192,22519,1,0,0:0:0:0:
256,192,22604,1,0,0:0:0:0:
256,192,22690,1,8,0:0:0:0:
256,192,22862,1,0,0:0:0:0:
256,192,23033,1,8,0:0:0:0:
256,192,23376,1,4,0:0:0:0:
256,192,23719,1,0,0:0:0:0:
256,192,24062,1,8,0:0:0:0:
256,192,24404,1,8,0:0:0:0:
256,192,24747,1,0,0:0:0:0:
256,192,24919,1,8,0:0:0:0:
256,192,25090,1,0,0:0:0:0:
256,192,25433,1,8,0:0:0:0:
256,192,25776,1,8,0:0:0:0:
256,192,26119,1,0,0:0:0:0:
256,192,26290,1,8,0:0:0:0:
256,192,26462,1,0,0:0:0:0:
256,192,26633,1,8,0:0:0:0:
256,192,26976,1,0,0:0:0:0:
256,192,27147,1,8,0:0:0:0:
256,192,27319,1,8,0:0:0:0:
256,192,27490,1,0,0:0:0:0:
256,192,27833,1,8,0:0:0:0:
256,192,28176,1,0,0:0:0:0:
256,192,28347,1,0,0:0:0:0:
256,192,28519,1,8,0:0:0:0:
256,192,28862,1,0,0:0:0:0:
256,192,29033,1,0,0:0:0:0:
256,192,29204,1,8,0:0:0:0:
256,192,29376,1,0,0:0:0:0:
256,192,29547,1,8,0:0:0:0:
256,192,29719,1,0,0:0:0:0:
256,192,29890,1,8,0:0:0:0:
256,192,30062,1,8,0:0:0:0:
256,192,30233,1,0,0:0:0:0:
256,192,30576,1,8,0:0:0:0:
256,192,30747,1,0,0:0:0:0:
256,192,30919,1,0,0:0:0:0:
256,192,31262,1,8,0:0:0:0:
256,192,31604,1,0,0:0:0:0:
256,192,31947,1,8,0:0:0:0:
256,192,32119,1,0,0:0:0:0:
256,192,32290,1,8,0:0:0:0:
256,192,32633,1,0,0:0:0:0:
256,192,32976,1,8,0:0:0:0:
256,192,33147,1,0,0:0:0:0:
256,192,33319,1,8,0:0:0:0:
256,192,33490,1,0,0:0:0:0:
256,192,33576,1,0,0:0:0:0:
256,192,33662,1,8,0:0:0:0:
256,192,33833,1,8,0:0:0:0:
256,192,33919,1,8,0:0:0:0:
256,192,34004,1,0,0:0:0:0:
256,192,34176,1,8,0:0:0:0:
256,192,34347,1,0,0:0:0:0:
256,192,34690,1,12,0:0:0:0:
256,192,34947,1,8,0:0:0:0:
256,192,35033,1,0,0:0:0:0:
256,192,35204,1,0,0:0:0:0:
256,192,35376,1,8,0:0:0:0:
256,192,35547,1,8,0:0:0:0:
256,192,35633,1,8,0:0:0:0:
256,192,35719,1,0,0:0:0:0:
256,192,35890,1,0,0:0:0:0:
256,192,36062,1,8,0:0:0:0:
256,192,36233,1,0,0:0:0:0:
256,192,36319,1,0,0:0:0:0:
256,192,36404,1,0,0:0:0:0:
256,192,36576,1,0,0:0:0:0:
256,192,36747,1,8,0:0:0:0:
256,192,36919,1,8,0:0:0:0:
256,192,37004,1,8,0:0:0:0:
256,192,37090,1,0,0:0:0:0:
256,192,37262,1,0,0:0:0:0:
256,192,37433,1,8,0:0:0:0:
256,192,37604,1,0,0:0:0:0:
256,192,37690,1,8,0:0:0:0:
256,192,37776,1,0,0:0:0:0:
256,192,37947,1,0,0:0:0:0:
256,192,38119,1,8,0:0:0:0:
256,192,38290,1,8,0:0:0:0:
256,192,38376,1,0,0:0:0:0:
256,192,38462,1,8,0:0:0:0:
256,192,38547,1,8,0:0:0:0:
256,192,38633,1,0,0:0:0:0:
256,192,38804,1,8,0:0:0:0:
256,192,38976,1,0,0:0:0:0:
256,192,39062,1,0,0:0:0:0:
256,192,39147,1,0,0:0:0:0:
256,192,39319,1,0,0:0:0:0:
256,192,39490,1,8,0:0:0:0:
256,192,39833,1,0,0:0:0:0:
256,192,40004,1,0,0:0:0:0:
256,192,40176,1,8,0:0:0:0:
256,192,40347,1,8,0:0:0:0:
256,192,40433,1,8,0:0:0:0:
256,192,40519,1,0,0:0:0:0:
256,192,40690,1,0,0:0:0:0:
256,192,40862,1,8,0:0:0:0:
256,192,41033,1,0,0:0:0:0:
256,192,41119,1,8,0:0:0:0:
256,192,41204,1,0,0:0:0:0:
256,192,41376,1,0,0:0:0:0:
256,192,41547,1,8,0:0:0:0:
256,192,41719,1,8,0:0:0:0:
256,192,41804,1,8,0:0:0:0:
256,192,41890,1,0,0:0:0:0:
256,192,42062,1,0,0:0:0:0:
256,192,42233,1,8,0:0:0:0:
256,192,42404,1,0,0:0:0:0:
256,192,42490,1,0,0:0:0:0:
256,192,42576,1,8,0:0:0:0:
256,192,42747,1,0,0:0:0:0:
256,192,42919,1,8,0:0:0:0:
256,192,43090,1,0,0:0:0:0:
256,192,43176,1,8,0:0:0:0:
256,192,43262,1,8,0:0:0:0:
256,192,43347,1,8,0:0:0:0:
256,192,43433,1,0,0:0:0:0:
256,192,43604,1,8,0:0:0:0:
256,192,43776,1,0,0:0:0:0:
256,192,43862,1,0,0:0:0:0:
256,192,43947,1,0,0:0:0:0:
256,192,44119,1,0,0:0:0:0:
256,192,44290,1,8,0:0:0:0:
256,192,44462,1,8,0:0:0:0:
256,192,44547,1,8,0:0:0:0:
256,192,44633,1,0,0:0:0:0:
256,192,44804,1,8,0:0:0:0:
256,192,44976,1,0,0:0:0:0:
256,192,45147,1,8,0:0:0:0:
256,192,45319,1,0,0:0:0:0:
256,192,45490,1,0,0:0:0:0:
256,192,45662,1,8,0:0:0:0:
256,192,45833,1,8,0:0:0:0:
256,192,45919,1,8,0:0:0:0:
256,192,46004,1,0,0:0:0:0:
256,192,46090,1,8,0:0:0:0:
256,192,46176,1,0,0:0:0:0:
256,192,46347,1,8,0:0:0:0:
256,192,46519,1,0,0:0:0:0:
256,192,46604,1,0,0:0:0:0:
256,192,46690,1,8,0:0:0:0:
256,192,46862,1,0,0:0:0:0:
256,192,47033,1,8,0:0:0:0:
256,192,47204,1,0,0:0:0:0:
256,192,47290,1,8,0:0:0:0:
256,192,47376,1,8,0:0:0:0:
256,192,47462,1,8,0:0:0:0:
256,192,47547,1,0,0:0:0:0:
256,192,47719,1,8,0:0:0:0:
256,192,47890,1,8,0:0:0:0:
256,192,47976,1,0,0:0:0:0:
256,192,48062,1,0,0:0:0:0:
256,192,48233,1,0,0:0:0:0:
256,192,48404,1,8,0:0:0:0:
256,192,48576,1,0,0:0:0:0:
256,192,48662,1,8,0:0:0:0:
256,192,48747,1,0,0:0:0:0:
256,192,48833,1,0,0:0:0:0:
256,192,48919,1,8,0:0:0:0:
256,192,49090,1,8,0:0:0:0:
256,192,49262,1,0,0:0:0:0:
256,192,49347,1,8,0:0:0:0:
256,192,49433,1,0,0:0:0:0:
256,192,49604,1,0,0:0:0:0:
256,192,49776,1,8,0:0:0:0:
256,192,49947,1,8,0:0:0:0:
256,192,50033,1,8,0:0:0:0:
256,192,50119,1,0,0:0:0:0:
256,192,50204,1,0,0:0:0:0:
256,192,50290,1,0,0:0:0:0:
256,192,50462,1,8,0:0:0:0:
256,192,50633,1,0,0:0:0:0:
256,192,50719,1,0,0:0:0:0:
256,192,50804,1,8,0:0:0:0:
256,192,50976,1,0,0:0:0:0:
256,192,51147,1,8,0:0:0:0:
256,192,51319,1,0,0:0:0:0:
256,192,51404,1,8,0:0:0:0:
256,192,51490,1,0,0:0:0:0:
256,192,51576,1,0,0:0:0:0:
256,192,51662,1,0,0:0:0:0:
256,192,51833,1,8,0:0:0:0:
256,192,52004,1,0,0:0:0:0:
256,192,52090,1,8,0:0:0:0:
256,192,52176,1,0,0:0:0:0:
256,192,52347,1,0,0:0:0:0:
256,192,52519,1,8,0:0:0:0:
256,192,52690,1,0,0:0:0:0:
256,192,52776,1,8,0:0:0:0:
256,192,52862,1,0,0:0:0:0:
256,192,52947,1,0,0:0:0:0:
256,192,53033,1,8,0:0:0:0:
256,192,53204,1,8,0:0:0:0:
256,192,53376,1,0,0:0:0:0:
256,192,53547,1,8,0:0:0:0:
256,192,53890,1,0,0:0:0:0:
256,192,54233,1,8,0:0:0:0:
256,192,54576,1,0,0:0:0:0:
256,192,54747,1,8,0:0:0:0:
256,192,55090,1,8,0:0:0:0:
256,192,55433,1,8,0:0:0:0:
256,192,55604,1,0,0:0:0:0:
256,192,55776,1,0,0:0:0:0:
256,192,55947,1,0,0:0:0:0:
256,192,56119,1,0,0:0:0:0:
256,192,56290,1,12,0:0:0:0:
256,192,56804,1,8,0:0:0:0:
256,192,57319,1,8,0:0:0:0:
256,192,57663,1,8,0:0:0:0:
256,192,58176,1,8,0:0:0:0:
256,192,58690,1,8,0:0:0:0:
256,192,59034,1,8,0:0:0:0:
256,192,59547,1,8,0:0:0:0:
256,192,60062,1,8,0:0:0:0:
256,192,60405,1,8,0:0:0:0:
256,192,60919,1,8,0:0:0:0:
256,192,61433,1,8,0:0:0:0:
256,192,61777,1,0,0:0:0:0:
256,192,62290,1,8,0:0:0:0:
256,192,62804,1,8,0:0:0:0:
256,192,63148,1,8,0:0:0:0:
256,192,63662,1,8,0:0:0:0:
256,192,64176,1,8,0:0:0:0:
256,192,64520,1,8,0:0:0:0:
256,192,65033,1,8,0:0:0:0:
256,192,65376,1,8,0:0:0:0:
256,192,65547,1,8,0:0:0:0:
256,192,65719,1,8,0:0:0:0:
256,192,65890,1,0,0:0:0:0:
256,192,66062,1,8,0:0:0:0:
256,192,66233,1,0,0:0:0:0:
256,192,66404,1,8,0:0:0:0:
256,192,66576,1,0,0:0:0:0:
256,192,66662,1,8,0:0:0:0:
256,192,66747,1,0,0:0:0:0:
256,192,66833,1,0,0:0:0:0:
256,192,66919,1,8,0:0:0:0:
256,192,66962,1,8,0:0:0:0:
256,192,67004,1,8,0:0:0:0:
256,192,67090,1,8,0:0:0:0:
256,192,67262,1,0,0:0:0:0:
256,192,67604,1,8,0:0:0:0:
256,192,67776,1,0,0:0:0:0:
256,192,68119,1,0,0:0:0:0:
256,192,68290,1,8,0:0:0:0:
256,192,68634,1,0,0:0:0:0:
256,192,68976,1,8,0:0:0:0:
256,192,69147,1,0,0:0:0:0:
256,192,69490,1,0,0:0:0:0:
256,192,69662,1,8,0:0:0:0:
256,192,69747,1,8,0:0:0:0:
256,192,69919,1,8,0:0:0:0:
256,192,70005,1,0,0:0:0:0:
256,192,70347,1,8,0:0:0:0:
256,192,70519,1,0,0:0:0:0:
256,192,70862,1,0,0:0:0:0:
256,192,71033,1,8,0:0:0:0:
256,192,71377,1,0,0:0:0:0:
256,192,71719,1,8,0:0:0:0:
256,192,71890,1,0,0:0:0:0:
256,192,72233,1,8,0:0:0:0:
256,192,72404,1,8,0:0:0:0:
256,192,72576,1,0,0:0:0:0:
256,192,72747,1,8,0:0:0:0:
256,192,73090,1,8,0:0:0:0:
256,192,73262,1,0,0:0:0:0:
256,192,73604,1,0,0:0:0:0:
256,192,73776,1,8,0:0:0:0:
256,192,74120,1,0,0:0:0:0:
256,192,74462,1,8,0:0:0:0:
256,192,74633,1,0,0:0:0:0:
256,192,74976,1,0,0:0:0:0:
256,192,75147,1,8,0:0:0:0:
256,192,75233,1,8,0:0:0:0:
256,192,75404,1,8,0:0:0:0:
256,192,75491,1,0,0:0:0:0:
256,192,75833,1,8,0:0:0:0:
256,192,76004,1,0,0:0:0:0:
256,192,76347,1,0,0:0:0:0:
256,192,76519,1,8,0:0:0:0:
256,192,76862,1,0,0:0:0:0:
256,192,76947,1,0,0:0:0:0:
256,192,77033,1,0,0:0:0:0:
256,192,77119,1,0,0:0:0:0:
256,192,77204,1,8,0:0:0:0:
256,192,77376,1,0,0:0:0:0:
256,192,77462,1,0,0:0:0:0:
256,192,77547,1,8,0:0:0:0:
256,192,77633,1,8,0:0:0:0:
256,192,77719,1,0,0:0:0:0:
256,192,77762,1,0,0:0:0:0:
256,192,77890,1,0,0:0:0:0:
256,192,77933,1,0,0:0:0:0:
256,192,78062,1,8,0:0:0:0:
256,192,78104,1,8,0:0:0:0:
256,192,78233,1,4,0:0:0:0:
256,192,78576,1,8,0:0:0:0:
256,192,78747,1,0,0:0:0:0:
256,192,79090,1,0,0:0:0:0:
256,192,79262,1,8,0:0:0:0:
256,192,79347,1,0,0:0:0:0:
256,192,79519,1,8,0:0:0:0:
256,192,79605,1,0,0:0:0:0:
256,192,79947,1,8,0:0:0:0:
256,192,80119,1,0,0:0:0:0:
256,192,80462,1,0,0:0:0:0:
256,192,80633,1,8,0:0:0:0:
256,192,80719,1,8,0:0:0:0:
256,192,80890,1,8,0:0:0:0:
256,192,80977,1,0,0:0:0:0:
256,192,81319,1,8,0:0:0:0:
256,192,81490,1,0,0:0:0:0:
256,192,81833,1,0,0:0:0:0:
256,192,82004,1,8,0:0:0:0:
256,192,82090,1,0,0:0:0:0:
256,192,82262,1,8,0:0:0:0:
256,192,82348,1,0,0:0:0:0:
256,192,82690,1,8,0:0:0:0:
256,192,82862,1,0,0:0:0:0:
256,192,83033,1,8,0:0:0:0:
256,192,83204,1,8,0:0:0:0:
256,192,83376,1,8,0:0:0:0:
256,192,83547,1,8,0:0:0:0:
256,192,83719,1,4,0:0:0:0:
256,192,84062,1,8,0:0:0:0:
256,192,84233,1,0,0:0:0:0:
256,192,84576,1,0,0:0:0:0:
256,192,84747,1,8,0:0:0:0:
256,192,84833,1,0,0:0:0:0:
256,192,85004,1,8,0:0:0:0:
256,192,85091,1,0,0:0:0:0:
256,192,85433,1,8,0:0:0:0:
256,192,85604,1,0,0:0:0:0:
256,192,85947,1,0,0:0:0:0:
256,192,86119,1,8,0:0:0:0:
256,192,86204,1,8,0:0:0:0:
256,192,86376,1,8,0:0:0:0:
256,192,86463,1,0,0:0:0:0:
256,192,86804,1,8,0:0:0:0:
256,192,86976,1,0,0:0:0:0:
256,192,87319,1,0,0:0:0:0:
256,192,87490,1,8,0:0:0:0:
256,192,87833,1,0,0:0:0:0:
256,192,87919,1,0,0:0:0:0:
256,192,88004,1,0,0:0:0:0:
256,192,88176,1,8,0:0:0:0:
256,192,88347,1,0,0:0:0:0:
256,192,88519,1,8,0:0:0:0:
256,192,88690,1,0,0:0:0:0:
256,192,88776,1,0,0:0:0:0:
256,192,88862,1,8,0:0:0:0:
256,192,89033,1,8,0:0:0:0:
256,192,89204,1,4,0:0:0:0:
256,192,89547,1,8,0:0:0:0:
256,192,89719,1,0,0:0:0:0:
256,192,90062,1,8,0:0:0:0:
256,192,90233,1,8,0:0:0:0:
256,192,90319,1,8,0:0:0:0:
256,192,90404,1,0,0:0:0:0:
256,192,90490,1,8,0:0:0:0:
256,192,90577,1,0,0:0:0:0:
256,192,90919,1,8,0:0:0:0:
256,192,91090,1,0,0:0:0:0:
256,192,91433,1,0,0:0:0:0:
256,192,91604,1,8,0:0:0:0:
256,192,91690,1,0,0:0:0:0:
256,192,91776,1,0,0:0:0:0:
256,192,91862,1,8,0:0:0:0:
256,192,91948,1,0,0:0:0:0:
256,192,92290,1,8,0:0:0:0:
256,192,92462,1,0,0:0:0:0:
256,192,92804,1,8,0:0:0:0:
256,192,92976,1,8,0:0:0:0:
256,192,93062,1,8,0:0:0:0:
256,192,93147,1,0,0:0:0:0:
256,192,93233,1,8,0:0:0:0:
256,192,93320,1,0,0:0:0:0:
256,192,93490,1,8,0:0:0:0:
256,192,93662,1,0,0:0:0:0:
256,192,93833,1,0,0:0:0:0:
256,192,94004,1,0,0:0:0:0:
256,192,94090,1,8,0:0:0:0:
256,192,94176,1,8,0:0:0:0:
256,192,94262,1,0,0:0:0:0:
256,192,94347,1,8,0:0:0:0:
256,192,94433,1,0,0:0:0:0:
256,192,94519,1,8,0:0:0:0:
256,192,94604,1,8,0:0:0:0:
256,192,94691,1,0,0:0:0:0:
256,192,95033,1,8,0:0:0:0:
256,192,95204,1,0,0:0:0:0:
256,192,95547,1,8,0:0:0:0:
256,192,95719,1,8,0:0:0:0:
256,192,95804,1,0,0:0:0:0:
256,192,95890,1,0,0:0:0:0:
256,192,95976,1,8,0:0:0:0:
256,192,96063,1,0,0:0:0:0:
256,192,96233,1,0,0:0:0:0:
256,192,96404,1,8,0:0:0:0:
256,192,96576,1,0,0:0:0:0:
256,192,96662,1,0,0:0:0:0:
256,192,96747,1,0,0:0:0:0:
256,192,96919,1,8,0:0:0:0:
256,192,97090,1,8,0:0:0:0:
256,192,97133,1,8,0:0:0:0:
256,192,97176,1,0,0:0:0:0:
256,192,97262,1,8,0:0:0:0:
256,192,97347,1,8,0:0:0:0:
256,192,97434,1,0,0:0:0:0:
256,192,97604,1,0,0:0:0:0:
256,192,97776,1,8,0:0:0:0:
256,192,97947,1,8,0:0:0:0:
256,192,98119,1,0,0:0:0:0:
256,192,98204,1,0,0:0:0:0:
256,192,98290,1,8,0:0:0:0:
256,192,98376,1,0,0:0:0:0:
256,192,98462,1,8,0:0:0:0:
256,192,98633,1,8,0:0:0:0:
256,192,98804,1,0,0:0:0:0:
256,192,98890,1,8,0:0:0:0:
256,192,98976,1,0,0:0:0:0:
256,192,99062,1,0,0:0:0:0:
256,192,99147,1,8,0:0:0:0:
256,192,99319,1,0,0:0:0:0:
256,192,99490,1,8,0:0:0:0:
256,192,99576,1,8,0:0:0:0:
256,192,99662,1,0,0:0:0:0:
256,192,99747,1,0,0:0:0:0:
256,192,99833,1,8,0:0:0:0:
256,192,99919,1,8,0:0:0:0:
256,192,100004,1,8,0:0:0:0:
256,192,100090,1,8,0:0:0:0:
256,192,100176,1,4,0:0:0:0:
256,192,100347,1,0,0:0:0:0:
256,192,100519,1,8,0:0:0:0:
256,192,100690,1,8,0:0:0:0:
256,192,100776,1,8,0:0:0:0:
256,192,100862,1,0,0:0:0:0:
256,192,100947,1,8,0:0:0:0:
256,192,101033,1,0,0:0:0:0:
256,192,101204,1,0,0:0:0:0:
256,192,101376,1,8,0:0:0:0:
256,192,101547,1,0,0:0:0:0:
256,192,101719,1,0,0:0:0:0:
256,192,101804,1,0,0:0:0:0:
256,192,101890,1,8,0:0:0:0:
256,192,102062,1,0,0:0:0:0:
256,192,102233,1,8,0:0:0:0:
256,192,102404,1,0,0:0:0:0:
256,192,102490,1,8,0:0:0:0:
256,192,102662,1,0,0:0:0:0:
256,192,102747,1,8,0:0:0:0:
256,192,102833,1,8,0:0:0:0:
256,192,102919,1,0,0:0:0:0:
256,192,103090,1,0,0:0:0:0:
256,192,103176,1,0,0:0:0:0:
256,192,103262,1,8,0:0:0:0:
256,192,103433,1,8,0:0:0:0:
256,192,103519,1,0,0:0:0:0:
256,192,103604,1,8,0:0:0:0:
256,192,103690,1,0,0:0:0:0:
256,192,103776,1,0,0:0:0:0:
256,192,103947,1,8,0:0:0:0:
256,192,104119,1,0,0:0:0:0:
256,192,104204,1,0,0:0:0:0:
256,192,104290,1,8,0:0:0:0:
256,192,104462,1,8,0:0:0:0:
256,192,104547,1,8,0:0:0:0:
256,192,104633,1,0,0:0:0:0:
256,192,104719,1,0,0:0:0:0:
256,192,104804,1,8,0:0:0:0:
256,192,104976,1,0,0:0:0:0:
256,192,105062,1,8,0:0:0:0:
256,192,105147,1,0,0:0:0:0:
256,192,105233,1,0,0:0:0:0:
256,192,105319,1,8,0:0:0:0:
256,192,105376,1,8,0:0:0:0:
256,192,105433,1,8,0:0:0:0:
256,192,105490,1,0,0:0:0:0:
256,192,105547,1,0,0:0:0:0:
256,192,105604,1,0,0:0:0:0:
256,192,105662,1,8,0:0:0:0:
256,192,105833,1,0,0:0:0:0:
256,192,106004,1,8,0:0:0:0:
256,192,106176,1,8,0:0:0:0:
256,192,106262,1,0,0:0:0:0:
256,192,106347,1,0,0:0:0:0:
256,192,106519,1,0,0:0:0:0:
256,192,106690,1,8,0:0:0:0:
256,192,106862,1,8,0:0:0:0:
256,192,106947,1,8,0:0:0:0:
256,192,107033,1,0,0:0:0:0:
256,192,107204,1,0,0:0:0:0:
256,192,107290,1,0,0:0:0:0:
256,192,107376,1,8,0:0:0:0:
256,192,107547,1,0,0:0:0:0:
256,192,107633,1,0,0:0:0:0:
256,192,107719,1,8,0:0:0:0:
256,192,107804,1,8,0:0:0:0:
256,192,107890,1,0,0:0:0:0:
256,192,108062,1,8,0:0:0:0:
256,192,108233,1,8,0:0:0:0:
256,192,108404,1,0,0:0:0:0:
256,192,108576,1,0,0:0:0:0:
256,192,108747,1,8,0:0:0:0:
256,192,108919,1,0,0:0:0:0:
256,192,109004,1,8,0:0:0:0:
256,192,109090,1,8,0:0:0:0:
256,192,109176,1,0,0:0:0:0:
256,192,109262,1,8,0:0:0:0:
256,192,109433,1,0,0:0:0:0:
256,192,109604,1,8,0:0:0:0:
256,192,109776,1,0,0:0:0:0:
256,192,109862,1,8,0:0:0:0:
256,192,109947,1,0,0:0:0:0:
256,192,110033,1,8,0:0:0:0:
256,192,110119,1,0,0:0:0:0:
256,192,110290,1,8,0:0:0:0:
256,192,110376,1,0,0:0:0:0:
256,192,110462,1,8,0:0:0:0:
256,192,110519,1,8,0:0:0:0:
256,192,110576,1,8,0:0:0:0:
256,192,110633,1,8,0:0:0:0:
256,192,110690,1,8,0:0:0:0:
256,192,110747,1,8,0:0:0:0:
256,192,110804,1,0,0:0:0:0:
256,192,111147,1,4,0:0:0:0:
256,192,111319,1,0,0:0:0:0:
256,192,111404,1,0,0:0:0:0:
256,192,111490,1,8,0:0:0:0:
256,192,111662,1,0,0:0:0:0:
256,192,111747,1,8,0:0:0:0:
256,192,111833,1,0,0:0:0:0:
256,192,112004,1,0,0:0:0:0:
256,192,112176,1,8,0:0:0:0:
256,192,112347,1,8,0:0:0:0:
256,192,112433,1,8,0:0:0:0:
256,192,112519,1,0,0:0:0:0:
256,192,112690,1,8,0:0:0:0:
256,192,112862,1,8,0:0:0:0:
256,192,113033,1,8,0:0:0:0:
256,192,113090,1,8,0:0:0:0:
256,192,113147,1,8,0:0:0:0:
256,192,113204,1,0,0:0:0:0:
256,192,113376,1,8,0:0:0:0:
256,192,113462,1,0,0:0:0:0:
256,192,113633,1,0,0:0:0:0:
256,192,113719,1,8,0:0:0:0:
256,192,113890,1,0,0:0:0:0:
256,192,114062,1,8,0:0:0:0:
256,192,114147,1,0,0:0:0:0:
256,192,114233,1,8,0:0:0:0:
256,192,114404,1,0,0:0:0:0:
256,192,114490,1,0,0:0:0:0:
256,192,114576,1,8,0:0:0:0:
256,192,114662,1,0,0:0:0:0:
256,192,114833,1,0,0:0:0:0:
256,192,114919,1,8,0:0:0:0:
256,192,115090,1,8,0:0:0:0:
256,192,115176,1,8,0:0:0:0:
256,192,115262,1,0,0:0:0:0:
256,192,115433,1,8,0:0:0:0:
256,192,115604,1,0,0:0:0:0:
256,192,115776,1,0,0:0:0:0:
256,192,115947,1,8,0:0:0:0:
256,192,116119,1,8,0:0:0:0:
256,192,116204,1,0,0:0:0:0:
256,192,116290,1,0,0:0:0:0:
256,192,116462,1,0,0:0:0:0:
256,192,116633,1,12,0:0:0:0:
256,192,116804,1,0,0:0:0:0:
256,192,116890,1,0,0:0:0:0:
256,192,116976,1,8,0:0:0:0:
256,192,117147,1,0,0:0:0:0:
256,192,117233,1,8,0:0:0:0:
256,192,117319,1,0,0:0:0:0:
256,192,117404,1,0,0:0:0:0:
256,192,117490,1,0,0:0:0:0:
256,192,117662,1,8,0:0:0:0:
256,192,117833,1,0,0:0:0:0:
256,192,117919,1,0,0:0:0:0:
256,192,118004,1,8,0:0:0:0:
256,192,118090,1,8,0:0:0:0:
256,192,118176,1,0,0:0:0:0:
256,192,118347,1,8,0:0:0:0:
256,192,118519,1,8,0:0:0:0:
256,192,118690,1,0,0:0:0:0:
256,192,118862,1,8,0:0:0:0:
256,192,118947,1,0,0:0:0:0:
256,192,119119,1,0,0:0:0:0:
256,192,119204,1,8,0:0:0:0:
256,192,119376,1,0,0:0:0:0:
256,192,119547,1,0,0:0:0:0:
256,192,119633,1,0,0:0:0:0:
256,192,119719,1,8,0:0:0:0:
256,192,119890,1,0,0:0:0:0:
256,192,119976,1,8,0:0:0:0:
256,192,120062,1,8,0:0:0:0:
256,192,120147,1,0,0:0:0:0:
256,192,120233,1,0,0:0:0:0:
256,192,120319,1,0,0:0:0:0:
256,192,120404,1,8,0:0:0:0:
256,192,120576,1,0,0:0:0:0:
256,192,120747,1,8,0:0:0:0:
256,192,120919,1,8,0:0:0:0:
256,192,121004,1,0,0:0:0:0:
256,192,121176,1,8,0:0:0:0:
256,192,121262,1,0,0:0:0:0:
256,192,121433,1,0,0:0:0:0:
256,192,121519,1,8,0:0:0:0:
256,192,121604,1,0,0:0:0:0:
256,192,121690,1,0,0:0:0:0:
256,192,121776,1,0,0:0:0:0:
256,192,121947,1,8,0:0:0:0:
256,192,122119,1,4,0:0:0:0:
256,192,122462,1,8,0:0:0:0:
256,192,122633,1,8,0:0:0:0:
256,192,122719,1,0,0:0:0:0:
256,192,122804,1,8,0:0:0:0:
256,192,122890,1,8,0:0:0:0:
256,192,122976,1,0,0:0:0:0:
256,192,123062,1,0,0:0:0:0:
256,192,123147,1,8,0:0:0:0:
256,192,123319,1,8,0:0:0:0:
256,192,123404,1,0,0:0:0:0:
256,192,123490,1,0,0:0:0:0:
256,192,123662,1,0,0:0:0:0:
256,192,123833,1,8,0:0:0:0:
256,192,124004,1,0,0:0:0:0:
256,192,124090,1,0,0:0:0:0:
256,192,124176,1,8,0:0:0:0:
256,192,124347,1,0,0:0:0:0:
256,192,124519,1,8,0:0:0:0:
256,192,124604,1,0,0:0:0:0:
256,192,124690,1,8,0:0:0:0:
256,192,124776,1,8,0:0:0:0:
256,192,124862,1,0,0:0:0:0:
256,192,125033,1,0,0:0:0:0:
256,192,125204,1,8,0:0:0:0:
256,192,125376,1,8,0:0:0:0:
256,192,125462,1,8,0:0:0:0:
256,192,125547,1,0,0:0:0:0:
256,192,125633,1,8,0:0:0:0:
256,192,125719,1,0,0:0:0:0:
256,192,125804,1,0,0:0:0:0:
256,192,125890,1,8,0:0:0:0:
256,192,126062,1,8,0:0:0:0:
256,192,126147,1,8,0:0:0:0:
256,192,126233,1,0,0:0:0:0:
256,192,126404,1,0,0:0:0:0:
256,192,126490,1,0,0:0:0:0:
256,192,126576,1,8,0:0:0:0:
256,192,126747,1,0,0:0:0:0:
256,192,126833,1,0,0:0:0:0:
256,192,126919,1,8,0:0:0:0:
256,192,127004,1,0,0:0:0:0:
256,192,127090,1,0,0:0:0:0:
256,192,127176,1,0,0:0:0:0:
256,192,127262,1,8,0:0:0:0:
256,192,127347,1,0,0:0:0:0:
256,192,127433,1,8,0:0:0:0:
256,192,127490,1,8,0:0:0:0:
256,192,127547,1,8,0:0:0:0:
256,192,127604,1,0,0:0:0:0:
256,192,127776,1,0,0:0:0:0:
256,192,127947,1,8,0:0:0:0:
256,192,128119,1,8,0:0:0:0:
256,192,128204,1,0,0:0:0:0:
256,192,128290,1,8,0:0:0:0:
256,192,128376,1,0,0:0:0:0:
256,192,128462,1,8,0:0:0:0:
256,192,128547,1,8,0:0:0:0:
256,192,128633,1,0,0:0:0:0:
256,192,128804,1,8,0:0:0:0:
256,192,128890,1,0,0:0:0:0:
256,192,128976,1,0,0:0:0:0:
256,192,129147,1,0,0:0:0:0:
256,192,129319,1,8,0:0:0:0:
256,192,129490,1,0,0:0:0:0:
256,192,129576,1,0,0:0:0:0:
256,192,129662,1,8,0:0:0:0:
256,192,129747,1,0,0:0:0:0:
256,192,129833,1,8,0:0:0:0:
256,192,129919,1,8,0:0:0:0:
256,192,130004,1,0,0:0:0:0:
256,192,130176,1,8,0:0:0:0:
256,192,130262,1,8,0:0:0:0:
256,192,130347,1,0,0:0:0:0:
256,192,130519,1,0,0:0:0:0:
256,192,130690,1,8,0:0:0:0:
256,192,130862,1,0,0:0:0:0:
256,192,130947,1,0,0:0:0:0:
256,192,131033,1,8,0:0:0:0:
256,192,131119,1,8,0:0:0:0:
256,192,131204,1,8,0:0:0:0:
256,192,131290,1,0,0:0:0:0:
256,192,131376,1,8,0:0:0:0:
256,192,131462,1,0,0:0:0:0:
256,192,131547,1,8,0:0:0:0:
256,192,131633,1,8,0:0:0:0:
256,192,131719,1,0,0:0:0:0:
256,192,131890,1,0,0:0:0:0:
256,192,132062,1,8,0:0:0:0:
256,192,132233,1,0,0:0:0:0:
256,192,132319,1,0,0:0:0:0:
256,192,132404,1,8,0:0:0:0:
256,192,132490,1,8,0:0:0:0:
256,192,132576,1,0,0:0:0:0:
256,192,132747,1,8,0:0:0:0:
256,192,132833,1,0,0:0:0:0:
256,192,132919,1,8,0:0:0:0:
256,192,132962,1,8,0:0:0:0:
256,192,133004,1,8,0:0:0:0:
256,192,133090,1,4,0:0:0:0:
256,192,133433,1,8,0:0:0:0:
256,192,133604,1,0,0:0:0:0:
256,192,133776,1,0,0:0:0:0:
256,192,134119,1,8,0:0:0:0:
256,192,134462,1,0,0:0:0:0:
256,192,134633,1,0,0:0:0:0:
256,192,134804,1,8,0:0:0:0:
256,192,135147,1,0,0:0:0:0:
256,192,135490,1,8,0:0:0:0:
256,192,135833,1,0,0:0:0:0:
256,192,136004,1,8,0:0:0:0:
256,192,136176,1,0,0:0:0:0:
256,192,136347,1,8,0:0:0:0:
256,192,136690,1,0,0:0:0:0:
256,192,136862,1,8,0:0:0:0:
256,192,137033,1,8,0:0:0:0:
256,192,137204,1,0,0:0:0:0:
256,192,137376,1,0,0:0:0:0:
256,192,137547,1,8,0:0:0:0:
256,192,137890,1,0,0:0:0:0:
256,192,138062,1,0,0:0:0:0:
256,192,138233,1,8,0:0:0:0:
256,192,138576,1,0,0:0:0:0:
256,192,138919,1,8,0:0:0:0:
256,192,139262,1,8,0:0:0:0:
256,192,139433,1,0,0:0:0:0:
256,192,139604,1,8,0:0:0:0:
256,192,139776,1,0,0:0:0:0:
256,192,139947,1,0,0:0:0:0:
256,192,140119,1,0,0:0:0:0:
256,192,140290,1,8,0:0:0:0:
256,192,140633,1,0,0:0:0:0:
256,192,140804,1,0,0:0:0:0:
256,192,140976,1,8,0:0:0:0:
256,192,141319,1,0,0:0:0:0:
256,192,141490,1,0,0:0:0:0:
256,192,141662,1,8,0:0:0:0:
256,192,141833,1,0,0:0:0:0:
256,192,142004,1,8,0:0:0:0:
256,192,142176,1,0,0:0:0:0:
256,192,142347,1,8,0:0:0:0:
256,192,142519,1,8,0:0:0:0:
256,192,142690,1,0,0:0:0:0:
256,192,142862,1,0,0:0:0:0:
256,192,143033,1,8,0:0:0:0:
256,192,143204,1,0,0:0:0:0:
256,192,143290,1,0,0:0:0:0:
256,192,143376,1,8,0:0:0:0:
256,192,143547,1,8,0:0:0:0:
256,192,143633,1,8,0:0:0:0:
256,192,143719,1,0,0:0:0:0:
256,192,143890,1,8,0:0:0:0:
256,192,144062,1,0,0:0:0:0:
256,192,144404,1,0,0:0:0:0:
256,192,144747,1,12,0:0:0:0:
256,192,145090,1,0,0:0:0:0:
256,192,145262,1,8,0:0:0:0:
256,192,145433,1,0,0:0:0:0:
256,192,145776,1,0,0:0:0:0:
256,192,146119,1,8,0:0:0:0:
256,192,146462,1,0,0:0:0:0:
256,192,146633,1,8,0:0:0:0:
256,192,146804,1,0,0:0:0:0:
256,192,146890,1,8,0:0:0:0:
256,192,146976,1,0,0:0:0:0:
256,192,147062,1,0,0:0:0:0:
256,192,147147,1,8,0:0:0:0:
256,192,147233,1,0,0:0:0:0:
256,192,147319,1,0,0:0:0:0:
256,192,147490,1,8,0:0:0:0:
256,192,148004,1,8,0:0:0:0:
256,192,148176,1,0,0:0:0:0:
256,192,148519,1,0,0:0:0:0:
256,192,148862,1,8,0:0:0:0:
256,192,149033,1,0,0:0:0:0:
256,192,149119,1,0,0:0:0:0:
256,192,149204,1,8,0:0:0:0:
256,192,149376,1,8,0:0:0:0:
256,192,149547,1,0,0:0:0:0:
256,192,149633,1,8,0:0:0:0:
256,192,149719,1,8,0:0:0:0:
256,192,149804,1,0,0:0:0:0:
256,192,149890,1,8,0:0:0:0:
256,192,149976,1,0,0:0:0:0:
256,192,150062,1,0,0:0:0:0:
256,192,150233,1,8,0:0:0:0:
256,192,150576,1,0,0:0:0:0:
256,192,150747,1,0,0:0:0:0:
256,192,150919,1,8,0:0:0:0:
256,192,151090,1,0,0:0:0:0:
256,192,151176,1,0,0:0:0:0:
256,192,151262,1,8,0:0:0:0:
256,192,151433,1,0,0:0:0:0:
256,192,151604,1,8,0:0:0:0:
256,192,151947,1,8,0:0:0:0:
256,192,152119,1,0,0:0:0:0:
256,192,152290,1,8,0:0:0:0:
256,192,152462,1,0,0:0:0:0:
256,192,152633,1,0,0:0:0:0:
256,192,152804,1,0,0:0:0:0:
256,192,152976,1,8,0:0:0:0:
256,192,153319,1,0,0:0:0:0:
256,192,153490,1,8,0:0:0:0:
256,192,153662,1,0,0:0:0:0:
256,192,153833,1,8,0:0:0:0:
256,192,154004,1,0,0:0:0:0:
256,192,154347,1,8,0:0:0:0:
256,192,154604,1,8,0:0:0:0:
256,192,154862,1,8,0:0:0:0:
256,192,155033,1,0,0:0:0:0:
256,192,155204,1,8,0:0:0:0:
256,192,155290,1,0,0:0:0:0:
256,192,155376,1,8,0:0:0:0:
256,192,155462,1,0,0:0:0:0:
256,192,155547,1,0,0:0:0:0:
256,192,155719,1,8,0:0:0:0:
256,192,155890,1,0,0:0:0:0:
256,192,155976,1,0,0:0:0:0:
256,192,156062,1,8,0:0:0:0:
256,192,156233,1,0,0:0:0:0:
256,192,156319,1,8,0:0:0:0:
256,192,156362,1,8,0:0:0:0:
256,192,156404,1,0,0:0:0:0:
256,192,156576,1,8,0:0:0:0:
256,192,156747,1,0,0:0:0:0:
256,192,156833,1,0,0:0:0:0:
256,192,156919,1,8,0:0:0:0:
256,192,157090,1,0,0:0:0:0:
256,192,157262,1,8,0:0:0:0:
256,192,157347,1,0,0:0:0:0:
256,192,157390,1,0,0:0:0:0:
256,192,157433,1,8,0:0:0:0:
256,192,157604,1,0,0:0:0:0:
256,192,157776,1,0,0:0:0:0:
256,192,157947,1,8,0:0:0:0:
256,192,158033,1,8,0:0:0:0:
256,192,158119,1,0,0:0:0:0:
256,192,158290,1,0,0:0:0:0:
256,192,158462,1,8,0:0:0:0:
256,192,158633,1,0,0:0:0:0:
256,192,158719,1,0,0:0:0:0:
256,192,158804,1,8,0:0:0:0:
256,192,158890,1,0,0:0:0:0:
256,192,158976,1,8,0:0:0:0:
256,192,159062,1,0,0:0:0:0:
256,192,159104,1,0,0:0:0:0:
256,192,159147,1,0,0:0:0:0:
256,192,159319,1,0,0:0:0:0:
256,192,159490,1,8,0:0:0:0:
256,192,159662,1,0,0:0:0:0:
256,192,159833,1,0,0:0:0:0:
256,192,160004,1,8,0:0:0:0:
256,192,160176,1,0,0:0:0:0:
256,192,160262,1,0,0:0:0:0:
256,192,160347,1,8,0:0:0:0:
256,192,160433,1,8,0:0:0:0:
256,192,160519,1,0,0:0:0:0:
256,192,160690,1,0,0:0:0:0:
256,192,160776,1,0,0:0:0:0:
256,192,160862,1,8,0:0:0:0:
256,192,161033,1,0,0:0:0:0:
256,192,161119,1,0,0:0:0:0:
256,192,161204,1,8,0:0:0:0:
256,192,161290,1,0,0:0:0:0:
256,192,161376,1,8,0:0:0:0:
256,192,161547,1,0,0:0:0:0:
256,192,161633,1,8,0:0:0:0:
256,192,161719,1,8,0:0:0:0:
256,192,161804,1,8,0:0:0:0:
256,192,161890,1,0,0:0:0:0:
256,192,162062,1,0,0:0:0:0:
256,192,162147,1,8,0:0:0:0:
256,192,162319,1,0,0:0:0:0:
256,192,162404,1,0,0:0:0:0:
256,192,162576,1,8,0:0:0:0:
256,192,162747,1,0,0:0:0:0:
256,192,162919,1,0,0:0:0:0:
256,192,163004,1,0,0:0:0:0:
256,192,163090,1,0,0:0:0:0:
256,192,163176,1,0,0:0:0:0:
256,192,163262,1,8,0:0:0:0:
256,192,163433,1,8,0:0:0:0:
256,192,163519,1,0,0:0:0:0:
256,192,163604,1,8,0:0:0:0:
256,192,163690,1,8,0:0:0:0:
256,192,163776,1,0,0:0:0:0:
256,192,163947,1,8,0:0:0:0:
256,192,164119,1,0,0:0:0:0:
256,192,164204,1,0,0:0:0:0:
256,192,164290,1,8,0:0:0:0:
256,192,164462,1,8,0:0:0:0:
256,192,164633,1,0,0:0:0:0:
256,192,164804,1,0,0:0:0:0:
256,192,164890,1,0,0:0:0:0:
256,192,164976,1,8,0:0:0:0:
256,192,165147,1,0,0:0:0:0:
256,192,165319,1,0,0:0:0:0:
256,192,165490,1,8,0:0:0:0:
256,192,165662,1,0,0:0:0:0:
256,192,165833,1,8,0:0:0:0:
256,192,166004,1,0,0:0:0:0:
256,192,166176,1,8,0:0:0:0:
256,192,166347,1,0,0:0:0:0:
256,192,166519,1,0,0:0:0:0:
256,192,166690,1,8,0:0:0:0:
256,192,166862,1,8,0:0:0:0:
256,192,167033,1,8,0:0:0:0:
256,192,167119,1,8,0:0:0:0:
256,192,167204,1,0,0:0:0:0:
256,192,167290,1,0,0:0:0:0:
256,192,167376,1,12,0:0:0:0:
256,192,167547,1,0,0:0:0:0:
256,192,167719,1,8,0:0:0:0:
256,192,167890,1,8,0:0:0:0:
256,192,167976,1,8,0:0:0:0:
256,192,168062,1,0,0:0:0:0:
256,192,168147,1,8,0:0:0:0:
256,192,168233,1,0,0:0:0:0:
256,192,168404,1,0,0:0:0:0:
256,192,168576,1,8,0:0:0:0:
256,192,168747,1,0,0:0:0:0:
256,192,168919,1,0,0:0:0:0:
256,192,169004,1,0,0:0:0:0:
256,192,169090,1,8,0:0:0:0:
256,192,169262,1,0,0:0:0:0:
256,192,169433,1,8,0:0:0:0:
256,192,169604,1,0,0:0:0:0:
256,192,169690,1,8,0:0:0:0:
256,192,169862,1,0,0:0:0:0:
256,192,169947,1,8,0:0:0:0:
256,192,170033,1,8,0:0:0:0:
256,192,170119,1,0,0:0:0:0:
256,192,170290,1,0,0:0:0:0:
256,192,170376,1,0,0:0:0:0:
256,192,170462,1,8,0:0:0:0:
256,192,170633,1,8,0:0:0:0:
256,192,170719,1,0,0:0:0:0:
256,192,170804,1,8,0:0:0:0:
256,192,170890,1,0,0:0:0:0:
256,192,170976,1,0,0:0:0:0:
256,192,171147,1,8,0:0:0:0:
256,192,171319,1,0,0:0:0:0:
256,192,171404,1,0,0:0:0:0:
256,192,171490,1,8,0:0:0:0:
256,192,171662,1,8,0:0:0:0:
256,192,171747,1,8,0:0:0:0:
256,192,171833,1,0,0:0:0:0:
256,192,172004,1,8,0:0:0:0:
256,192,172090,1,8,0:0:0:0:
256,192,172176,1,8,0:0:0:0:
256,192,172262,1,8,0:0:0:0:
256,192,172347,1,8,0:0:0:0:
256,192,172433,1,8,0:0:0:0:
256,192,172519,1,0,0:0:0:0:
256,192,172576,1,0,0:0:0:0:
256,192,172633,1,0,0:0:0:0:
256,192,172690,1,0,0:0:0:0:
256,192,172747,1,0,0:0:0:0:
256,192,172804,1,0,0:0:0:0:
256,192,172862,1,8,0:0:0:0:
256,192,173033,1,0,0:0:0:0:
256,192,173119,1,0,0:0:0:0:
256,192,173204,1,8,0:0:0:0:
256,192,173376,1,0,0:0:0:0:
256,192,173547,1,8,0:0:0:0:
256,192,173719,1,0,0:0:0:0:
256,192,173804,1,8,0:0:0:0:
256,192,173890,1,0,0:0:0:0:
256,192,174062,1,8,0:0:0:0:
256,192,174233,1,0,0:0:0:0:
256,192,174404,1,0,0:0:0:0:
256,192,174490,1,0,0:0:0:0:
256,192,174576,1,8,0:0:0:0:
256,192,174747,1,0,0:0:0:0:
256,192,174833,1,0,0:0:0:0:
256,192,174919,1,8,0:0:0:0:
256,192,175004,1,8,0:0:0:0:
256,192,175090,1,0,0:0:0:0:
256,192,175176,1,0,0:0:0:0:
256,192,175262,1,8,0:0:0:0:
256,192,175433,1,8,0:0:0:0:
256,192,175519,1,0,0:0:0:0:
256,192,175604,1,8,0:0:0:0:
256,192,175776,1,0,0:0:0:0:
256,192,175947,1,8,0:0:0:0:
256,192,176119,1,0,0:0:0:0:
256,192,176204,1,0,0:0:0:0:
256,192,176290,1,8,0:0:0:0:
256,192,176376,1,0,0:0:0:0:
256,192,176462,1,8,0:0:0:0:
256,192,176547,1,8,0:0:0:0:
256,192,176633,1,0,0:0:0:0:
256,192,176804,1,0,0:0:0:0:
256,192,176976,1,8,0:0:0:0:
256,192,177147,1,0,0:0:0:0:
256,192,177233,1,0,0:0:0:0:
256,192,177319,1,8,0:0:0:0:
256,192,177490,1,8,0:0:0:0:
256,192,177576,1,0,0:0:0:0:
256,192,177662,1,0,0:0:0:0:
256,192,177747,1,0,0:0:0:0:
256,192,177833,1,8,0:0:0:0:
256,192,178004,1,8,0:0:0:0:
256,192,178047,1,8,0:0:0:0:
256,192,178347,1,4,0:0:0:0:
256,192,178519,1,0,0:0:0:0:
256,192,178604,1,0,0:0:0:0:
256,192,178690,1,8,0:0:0:0:
256,192,178862,1,0,0:0:0:0:
256,192,178947,1,8,0:0:0:0:
256,192,179033,1,0,0:0:0:0:
256,192,179204,1,0,0:0:0:0:
256,192,179376,1,8,0:0:0:0:
256,192,179547,1,8,0:0:0:0:
256,192,179633,1,8,0:0:0:0:
256,192,179719,1,0,0:0:0:0:
256,192,179890,1,8,0:0:0:0:
256,192,180062,1,0,0:0:0:0:
256,192,180233,1,8,0:0:0:0:
256,192,180319,1,0,0:0:0:0:
256,192,180404,1,0,0:0:0:0:
256,192,180576,1,8,0:0:0:0:
256,192,180662,1,0,0:0:0:0:
256,192,180833,1,0,0:0:0:0:
256,192,180919,1,8,0:0:0:0:
256,192,181090,1,0,0:0:0:0:
256,192,181262,1,8,0:0:0:0:
256,192,181347,1,0,0:0:0:0:
256,192,181433,1,8,0:0:0:0:
256,192,181604,1,0,0:0:0:0:
256,192,181690,1,0,0:0:0:0:
256,192,181776,1,8,0:0:0:0:
256,192,181862,1,0,0:0:0:0:
256,192,182033,1,0,0:0:0:0:
256,192,182119,1,8,0:0:0:0:
256,192,182290,1,8,0:0:0:0:
256,192,182376,1,8,0:0:0:0:
256,192,182462,1,0,0:0:0:0:
256,192,182633,1,8,0:0:0:0:
256,192,182804,1,0,0:0:0:0:
256,192,182976,1,8,0:0:0:0:
256,192,183147,1,8,0:0:0:0:
256,192,183233,1,8,0:0:0:0:
256,192,183319,1,8,0:0:0:0:
256,192,183404,1,0,0:0:0:0:
256,192,183490,1,8,0:0:0:0:
256,192,183662,1,0,0:0:0:0:
256,192,183833,1,12,0:0:0:0:
256,192,184004,1,0,0:0:0:0:
256,192,184090,1,0,0:0:0:0:
256,192,184176,1,8,0:0:0:0:
256,192,184347,1,0,0:0:0:0:
256,192,184433,1,8,0:0:0:0:
256,192,184519,1,0,0:0:0:0:
256,192,184604,1,0,0:0:0:0:
256,192,184690,1,0,0:0:0:0:
256,192,184862,1,8,0:0:0:0:
256,192,185033,1,0,0:0:0:0:
256,192,185119,1,0,0:0:0:0:
256,192,185204,1,8,0:0:0:0:
256,192,185290,1,8,0:0:0:0:
256,192,185376,1,0,0:0:0:0:
256,192,185547,1,8,0:0:0:0:
256,192,185719,1,0,0:0:0:0:
256,192,185890,1,8,0:0:0:0:
256,192,185947,1,8,0:0:0:0:
256,192,186004,1,8,0:0:0:0:
256,192,186062,1,8,0:0:0:0:
256,192,186119,1,8,0:0:0:0:
256,192,186176,1,8,0:0:0:0:
256,192,186233,1,0,0:0:0:0:
256,192,186319,1,0,0:0:0:0:
256,192,186404,1,8,0:0:0:0:
256,192,186490,1,8,0:0:0:0:
256,192,186576,1,0,0:0:0:0:
256,192,186747,1,0,0:0:0:0:
256,192,186833,1,0,0:0:0:0:
256,192,186919,1,8,0:0:0:0:
256,192,187090,1,0,0:0:0:0:
256,192,187176,1,8,0:0:0:0:
256,192,187262,1,8,0:0:0:0:
256,192,187347,1,0,0:0:0:0:
256,192,187433,1,0,0:0:0:0:
256,192,187519,1,0,0:0:0:0:
256,192,187604,1,8,0:0:0:0:
256,192,187776,1,8,0:0:0:0:
256,192,187947,1,0,0:0:0:0:
256,192,188119,1,8,0:0:0:0:
256,192,188204,1,8,0:0:0:0:
256,192,188376,1,0,0:0:0:0:
256,192,188462,1,8,0:0:0:0:
256,192,188633,1,8,0:0:0:0:
256,192,188719,1,8,0:0:0:0:
256,192,188804,1,8,0:0:0:0:
256,192,188890,1,8,0:0:0:0:
256,192,188976,1,0,0:0:0:0:
256,192,189033,1,0,0:0:0:0:
256,192,189090,1,0,0:0:0:0:
256,192,189147,1,8,0:0:0:0:
256,192,189204,1,8,0:0:0:0:
256,192,189262,1,8,0:0:0:0:
256,192,189319,1,0,0:0:0:0:
256,192,189490,1,0,0:0:0:0:
256,192,189576,1,0,0:0:0:0:
256,192,189662,1,8,0:0:0:0:
256,192,189747,1,0,0:0:0:0:
256,192,189833,1,8,0:0:0:0:
256,192,189919,1,8,0:0:0:0:
256,192,190004,1,0,0:0:0:0:
256,192,190047,1,0,0:0:0:0:
256,192,190090,1,8,0:0:0:0:
256,192,190176,1,0,0:0:0:0:
256,192,190262,1,0,0:0:0:0:
256,192,190347,1,8,0:0:0:0:
256,192,190519,1,8,0:0:0:0:
256,192,190576,1,0,0:0:0:0:
256,192,190633,1,0,0:0:0:0:
256,192,190690,1,8,0:0:0:0:
256,192,190776,1,8,0:0:0:0:
256,192,190862,1,0,0:0:0:0:
256,192,190947,1,0,0:0:0:0:
256,192,191033,1,8,0:0:0:0:
256,192,191076,1,8,0:0:0:0:
256,192,191119,1,0,0:0:0:0:
256,192,191204,1,8,0:0:0:0:
256,192,191290,1,8,0:0:0:0:
256,192,191376,1,0,0:0:0:0:
256,192,191547,1,8,0:0:0:0:
256,192,191633,1,0,0:0:0:0:
256,192,191719,1,0,0:0:0:0:
256,192,191804,1,0,0:0:0:0:
256,192,191890,1,8,0:0:0:0:
256,192,191976,1,8,0:0:0:0:
256,192,192062,1,0,0:0:0:0:
256,192,192233,1,8,0:0:0:0:
256,192,192319,1,0,0:0:0:0:
256,192,192404,1,8,0:0:0:0:
256,192,192490,1,8,0:0:0:0:
256,192,192576,1,0,0:0:0:0:
256,192,192747,1,8,0:0:0:0:
256,192,192804,1,8,0:0:0:0:
256,192,192862,1,0,0:0:0:0:
256,192,192919,1,0,0:0:0:0:
256,192,193004,1,8,0:0:0:0:
256,192,193090,1,0,0:0:0:0:
256,192,193147,1,0,0:0:0:0:
256,192,193204,1,0,0:0:0:0:
256,192,193262,1,8,0:0:0:0:
256,192,193347,1,8,0:0:0:0:
256,192,193433,1,0,0:0:0:0:
256,192,193519,1,0,0:0:0:0:
256,192,193604,1,0,0:0:0:0:
256,192,193690,1,0,0:0:0:0:
256,192,193776,1,8,0:0:0:0:
256,192,193947,1,0,0:0:0:0:
256,192,194033,1,0,0:0:0:0:
256,192,194119,1,8,0:0:0:0:
256,192,194204,1,0,0:0:0:0:
256,192,194290,1,8,0:0:0:0:
256,192,194347,1,8,0:0:0:0:
256,192,194404,1,8,0:0:0:0:
256,192,194462,1,0,0:0:0:0:
256,192,194547,1,0,0:0:0:0:
256,192,194633,1,8,0:0:0:0:
256,192,194719,1,8,0:0:0:0:
256,192,194804,1,0,0:0:0:0:
256,192,194890,1,8,0:0:0:0:
256,192,194976,1,0,0:0:0:0:
256,192,195062,1,8,0:0:0:0:
256,192,195147,1,8,0:0:0:0:
256,192,195233,1,0,0:0:0:0:
256,192,195319,1,8,0:0:0:0:
256,192,195490,1,0,0:0:0:0:
256,192,195576,1,8,0:0:0:0:
256,192,195662,1,0,0:0:0:0:
256,192,195747,1,0,0:0:0:0:
256,192,195833,1,8,0:0:0:0:
256,192,195890,1,0,0:0:0:0:
256,192,195947,1,0,0:0:0:0:
256,192,196004,1,8,0:0:0:0:
256,192,196090,1,0,0:0:0:0:
256,192,196176,1,8,0:0:0:0:
256,192,196262,1,8,0:0:0:0:
256,192,196347,1,8,0:0:0:0:
256,192,196433,1,0,0:0:0:0:
256,192,196519,1,8,0:0:0:0:
256,192,196604,1,0,0:0:0:0:
256,192,196690,1,8,0:0:0:0:
256,192,196776,1,8,0:0:0:0:
256,192,196862,1,0,0:0:0:0:
256,192,196947,1,0,0:0:0:0:
256,192,197033,1,8,0:0:0:0:
256,192,197204,1,8,0:0:0:0:
256,192,197262,1,8,0:0:0:0:
256,192,197319,1,8,0:0:0:0:
256,192,197376,1,0,0:0:0:0:
256,192,197462,1,0,0:0:0:0:
256,192,197547,1,8,0:0:0:0:
256,192,197719,1,0,0:0:0:0:
256,192,197804,1,0,0:0:0:0:
256,192,197890,1,8,0:0:0:0:
256,192,198062,1,8,0:0:0:0:
256,192,198147,1,0,0:0:0:0:
256,192,198190,1,0,0:0:0:0:
256,192,198233,1,8,0:0:0:0:
256,192,198319,1,0,0:0:0:0:
256,192,198404,1,8,0:0:0:0:
256,192,198490,1,8,0:0:0:0:
256,192,198576,1,0,0:0:0:0:
256,192,198747,1,8,0:0:0:0:
256,192,198833,1,8,0:0:0:0:
256,192,198919,1,0,0:0:0:0:
256,192,199176,1,0,0:0:0:0:
256,192,199262,1,8,0:0:0:0:
256,192,199433,1,0,0:0:0:0:
256,192,199604,1,8,0:0:0:0:
256,192,199690,1,0,0:0:0:0:
256,192,199862,1,0,0:0:0:0:
256,192,199947,1,8,0:0:0:0:
256,192,200119,1,8,0:0:0:0:
256,192,200290,1,0,0:0:0:0:
256,192,200376,1,0,0:0:0:0:
256,192,200462,1,8,0:0:0:0:
256,192,200547,1,0,0:0:0:0:
256,192,200633,1,8,0:0:0:0:
256,192,200719,1,0,0:0:0:0:
256,192,200804,1,8,0:0:0:0:
256,192,200890,1,8,0:0:0:0:
256,192,200976,1,0,0:0:0:0:
256,192,201019,1,0,0:0:0:0:
256,192,201062,1,0,0:0:0:0:
256,192,201147,1,8,0:0:0:0:
256,192,201233,1,0,0:0:0:0:
256,192,201319,1,8,0:0:0:0:
256,192,201404,1,0,0:0:0:0:
256,192,201490,1,8,0:0:0:0:
256,192,201533,1,8,0:0:0:0:
256,192,201576,1,8,0:0:0:0:
256,192,201662,1,0,0:0:0:0:
256,192,201747,1,0,0:0:0:0:
256,192,201833,1,0,0:0:0:0:
256,192,201919,1,0,0:0:0:0:
256,192,202004,1,8,0:0:0:0:
256,192,202176,1,0,0:0:0:0:
256,192,202262,1,8,0:0:0:0:
256,192,202433,1,0,0:0:0:0:
256,192,202519,1,8,0:0:0:0:
256,192,202690,1,8,0:0:0:0:
256,192,202776,1,0,0:0:0:0:
256,192,202862,1,8,0:0:0:0:
256,192,202947,1,8,0:0:0:0:
256,192,203033,1,0,0:0:0:0:
256,192,203204,1,0,0:0:0:0:
256,192,203290,1,0,0:0:0:0:
256,192,203376,1,8,0:0:0:0:
256,192,203547,1,8,0:0:0:0:
256,192,203633,1,8,0:0:0:0:
256,192,203719,1,0,0:0:0:0:
256,192,203804,1,0,0:0:0:0:
256,192,203890,1,0,0:0:0:0:
256,192,203976,1,0,0:0:0:0:
256,192,204062,1,8,0:0:0:0:
256,192,204147,1,8,0:0:0:0:
256,192,204233,1,8,0:0:0:0:
256,192,204319,1,8,0:0:0:0:
256,192,204404,1,0,0:0:0:0:
256,192,204662,1,8,0:0:0:0:
256,192,204919,1,0,0:0:0:0:
256,192,205090,1,8,0:0:0:0:
256,192,205176,1,0,0:0:0:0:
256,192,205262,1,8,0:0:0:0:
256,192,205347,1,0,0:0:0:0:
256,192,205433,1,8,0:0:0:0:
256,192,205519,1,8,0:0:0:0:
256,192,205604,1,8,0:0:0:0:
256,192,205690,1,8,0:0:0:0:
256,192,205776,1,4,0:0:0:0:
256,192,205947,1,0,0:0:0:0:
256,192,206033,1,0,0:0:0:0:
256,192,206119,1,8,0:0:0:0:
256,192,206290,1,8,0:0:0:0:
256,192,206462,1,0,0:0:0:0:
256,192,206504,1,0,0:0:0:0:
256,192,206547,1,8,0:0:0:0:
256,192,206633,1,0,0:0:0:0:
256,192,206719,1,0,0:0:0:0:
256,192,206804,1,8,0:0:0:0:
256,192,206976,1,8,0:0:0:0:
256,192,207033,1,8,0:0:0:0:
256,192,207090,1,8,0:0:0:0:
256,192,207147,1,0,0:0:0:0:
256,192,207233,1,0,0:0:0:0:
256,192,207319,1,0,0:0:0:0:
256,192,207404,1,0,0:0:0:0:
256,192,207490,1,8,0:0:0:0:
256,192,207662,1,0,0:0:0:0:
256,192,207747,1,0,0:0:0:0:
256,192,207833,1,8,0:0:0:0:
256,192,208004,1,8,0:0:0:0:
256,192,208176,1,0,0:0:0:0:
256,192,208262,1,8,0:0:0:0:
256,192,208347,1,0,0:0:0:0:
256,192,208433,1,8,0:0:0:0:
256,192,208519,1,0,0:0:0:0:
256,192,208690,2,0,L|352:192|352:192,12,87.5
256,192,209891,2,4,L|352:192|352:192,26,87.5
256,192,211262,1,4,0:0:0:0:
256,192,212462,1,8,0:0:0:0:
256,192,214004,1,0,0:0:0:0:
256,192,215204,1,8,0:0:0:0:
256,192,215376,1,0,0:0:0:0:
256,192,216747,1,0,0:0:0:0:
256,192,217090,1,0,0:0:0:0:
256,192,217433,1,8,0:0:0:0:
256,192,217776,1,0,0:0:0:0:
256,192,217947,1,8,0:0:0:0:
256,192,218290,1,8,0:0:0:0:
256,192,218462,1,0,0:0:0:0:
256,192,218633,1,0,0:0:0:0:
256,192,218804,1,8,0:0:0:0:
256,192,219147,1,0,0:0:0:0:
256,192,219319,1,8,0:0:0:0:
256,192,219490,1,0,0:0:0:0:
256,192,219662,1,0,0:0:0:0:
256,192,219833,1,8,0:0:0:0:
256,192,220004,1,8,0:0:0:0:
256,192,220176,1,0,0:0:0:0:
256,192,220347,1,0,0:0:0:0:
256,192,220433,1,0,0:0:0:0:
256,192,220519,1,8,0:0:0:0:
256,192,220690,1,8,0:0:0:0:
256,192,220862,1,0,0:0:0:0:
256,192,220947,1,8,0:0:0:0:
256,192,221033,1,0,0:0:0:0:
256,192,221119,1,0,0:0:0:0:
256,192,221204,1,8,0:0:0:0:
256,192,221376,1,0,0:0:0:0:
256,192,221547,1,8,0:0:0:0:
256,192,221890,1,0,0:0:0:0:
256,192,222233,1,12,0:0:0:0:
256,192,222404,1,0,0:0:0:0:
256,192,222576,1,8,0:0:0:0:
256,192,222747,1,8,0:0:0:0:
256,192,222833,1,0,0:0:0:0:
256,192,222919,1,8,0:0:0:0:
256,192,223090,1,8,0:0:0:0:
256,192,223176,1,8,0:0:0:0:
256,192,223262,1,0,0:0:0:0:
256,192,223433,1,8,0:0:0:0:
256,192,223604,1,0,0:0:0:0:
256,192,223776,1,0,0:0:0:0:
256,192,223862,1,0,0:0:0:0:
256,192,223947,1,8,0:0:0:0:
256,192,224119,1,0,0:0:0:0:
256,192,224290,1,8,0:0:0:0:
256,192,224462,1,0,0:0:0:0:
256,192,224547,1,8,0:0:0:0:
256,192,224719,1,0,0:0:0:0:
256,192,224804,1,8,0:0:0:0:
256,192,224890,1,8,0:0:0:0:
256,192,224976,1,0,0:0:0:0:
256,192,225147,1,0,0:0:0:0:
256,192,225233,1,0,0:0:0:0:
256,192,225319,1,8,0:0:0:0:
256,192,225490,1,8,0:0:0:0:
256,192,225576,1,0,0:0:0:0:
256,192,225662,1,8,0:0:0:0:
256,192,225747,1,0,0:0:0:0:
256,192,225833,1,0,0:0:0:0:
256,192,225919,1,0,0:0:0:0:
256,192,226004,1,8,0:0:0:0:
256,192,226176,1,0,0:0:0:0:
256,192,226262,1,0,0:0:0:0:
256,192,226347,1,8,0:0:0:0:
256,192,226519,1,8,0:0:0:0:
256,192,226604,1,0,0:0:0:0:
256,192,226690,1,8,0:0:0:0:
256,192,226776,1,0,0:0:0:0:
256,192,226862,1,8,0:0:0:0:
256,192,226947,1,8,0:0:0:0:
256,192,227033,1,0,0:0:0:0:
256,192,227119,1,8,0:0:0:0:
256,192,227204,1,0,0:0:0:0:
256,192,227290,1,0,0:0:0:0:
256,192,227376,1,8,0:0:0:0:
256,192,227433,1,0,0:0:0:0:
256,192,227490,1,0,0:0:0:0:
256,192,227547,1,8,0:0:0:0:
256,192,227604,1,8,0:0:0:0:
256,192,227662,1,8,0:0:0:0:
256,192,227719,1,0,0:0:0:0:
256,192,227890,1,0,0:0:0:0:
256,192,227976,1,0,0:0:0:0:
256,192,228062,1,8,0:0:0:0:
256,192,228147,1,8,0:0:0:0:
256,192,228233,1,0,0:0:0:0:
256,192,228404,1,0,0:0:0:0:
256,192,228576,1,8,0:0:0:0:
256,192,228662,1,0,0:0:0:0:
256,192,228747,1,8,0:0:0:0:
256,192,228833,1,8,0:0:0:0:
256,192,228919,1,0,0:0:0:0:
256,192,229004,1,0,0:0:0:0:
256,192,229090,1,8,0:0:0:0:
256,192,229262,1,0,0:0:0:0:
256,192,229347,1,0,0:0:0:0:
256,192,229433,1,8,0:0:0:0:
256,192,229604,1,0,0:0:0:0:
256,192,229690,1,8,0:0:0:0:
256,192,229776,1,0,0:0:0:0:
256,192,229862,1,0,0:0:0:0:
256,192,229947,1,8,0:0:0:0:
256,192,230033,1,0,0:0:0:0:
256,192,230119,1,8,0:0:0:0:
256,192,230204,1,0,0:0:0:0:
256,192,230290,1,8,0:0:0:0:
256,192,230376,1,8,0:0:0:0:
256,192,230462,1,0,0:0:0:0:
256,192,230633,1,0,0:0:0:0:
256,192,230719,1,0,0:0:0:0:
256,192,230804,1,8,0:0:0:0:
256,192,230976,1,0,0:0:0:0:
256,192,231062,1,8,0:0:0:0:
256,192,231147,1,8,0:0:0:0:
256,192,231233,1,0,0:0:0:0:
256,192,231319,1,8,0:0:0:0:
256,192,231490,1,0,0:0:0:0:
256,192,231576,1,0,0:0:0:0:
256,192,231662,1,8,0:0:0:0:
256,192,231833,1,0,0:0:0:0:
256,192,231919,1,8,0:0:0:0:
256,192,232004,1,8,0:0:0:0:
256,192,232090,1,8,0:0:0:0:
256,192,232176,1,0,0:0:0:0:
256,192,232347,1,8,0:0:0:0:
256,192,232433,1,0,0:0:0:0:
256,192,232519,1,8,0:0:0:0:
256,192,232576,1,8,0:0:0:0:
256,192,232633,1,8,0:0:0:0:
256,192,232690,1,8,0:0:0:0:
256,192,232747,1,8,0:0:0:0:
256,192,232804,1,8,0:0:0:0:
256,192,232862,1,0,0:0:0:0:
256,192,233204,1,4,0:0:0:0:
256,192,233376,1,0,0:0:0:0:
256,192,233462,1,0,0:0:0:0:
256,192,233547,1,8,0:0:0:0:
256,192,233719,1,8,0:0:0:0:
256,192,233804,1,0,0:0:0:0:
256,192,233890,1,8,0:0:0:0:
256,192,234062,1,0,0:0:0:0:
256,192,234147,1,0,0:0:0:0:
256,192,234233,1,8,0:0:0:0:
256,192,234319,1,0,0:0:0:0:
256,192,234404,1,8,0:0:0:0:
256,192,234576,1,0,0:0:0:0:
256,192,234662,1,8,0:0:0:0:
256,192,234747,1,8,0:0:0:0:
256,192,234833,1,0,0:0:0:0:
256,192,234919,1,8,0:0:0:0:
256,192,235090,1,8,0:0:0:0:
256,192,235147,1,8,0:0:0:0:
256,192,235204,1,8,0:0:0:0:
256,192,235262,1,0,0:0:0:0:
256,192,235433,1,8,0:0:0:0:
256,192,235519,1,0,0:0:0:0:
256,192,235690,1,0,0:0:0:0:
256,192,235776,1,8,0:0:0:0:
256,192,235947,1,0,0:0:0:0:
256,192,236119,1,8,0:0:0:0:
256,192,236204,1,0,0:0:0:0:
256,192,236290,1,8,0:0:0:0:
256,192,236462,1,0,0:0:0:0:
256,192,236547,1,0,0:0:0:0:
256,192,236633,1,8,0:0:0:0:
256,192,236719,1,0,0:0:0:0:
256,192,236804,1,0,0:0:0:0:
256,192,236890,1,0,0:0:0:0:
256,192,236976,1,8,0:0:0:0:
256,192,237147,1,8,0:0:0:0:
256,192,237233,1,8,0:0:0:0:
256,192,237319,1,0,0:0:0:0:
256,192,237490,1,8,0:0:0:0:
256,192,237662,1,0,0:0:0:0:
256,192,237833,1,8,0:0:0:0:
256,192,237919,1,0,0:0:0:0:
256,192,238004,1,8,0:0:0:0:
256,192,238176,1,8,0:0:0:0:
256,192,238262,1,0,0:0:0:0:
256,192,238347,1,0,0:0:0:0:
256,192,238519,1,0,0:0:0:0:
256,192,238690,1,12,0:0:0:0:
256,192,238862,1,0,0:0:0:0:
256,192,238947,1,0,0:0:0:0:
256,192,239033,1,8,0:0:0:0:
256,192,239204,1,0,0:0:0:0:
256,192,239290,1,0,0:0:0:0:
256,192,239376,1,8,0:0:0:0:
256,192,239547,1,8,0:0:0:0:
256,192,239633,1,0,0:0:0:0:
256,192,239804,1,0,0:0:0:0:
256,192,239890,1,8,0:0:0:0:
256,192,240062,1,8,0:0:0:0:
256,192,240147,1,8,0:0:0:0:
256,192,240233,1,0,0:0:0:0:
256,192,240319,1,0,0:0:0:0:
256,192,240404,1,8,0:0:0:0:
256,192,240576,1,8,0:0:0:0:
256,192,240747,1,0,0:0:0:0:
256,192,240919,1,8,0:0:0:0:
256,192,241004,1,0,0:0:0:0:
256,192,241176,1,0,0:0:0:0:
256,192,241262,1,8,0:0:0:0:
256,192,241433,1,0,0:0:0:0:
256,192,241604,1,8,0:0:0:0:
256,192,241690,1,0,0:0:0:0:
256,192,241776,1,8,0:0:0:0:
256,192,241862,1,8,0:0:0:0:
256,192,241947,1,0,0:0:0:0:
256,192,242033,1,0,0:0:0:0:
256,192,242119,1,8,0:0:0:0:
256,192,242204,1,0,0:0:0:0:
256,192,242290,1,0,0:0:0:0:
256,192,242376,1,0,0:0:0:0:
256,192,242462,1,8,0:0:0:0:
256,192,242633,1,0,0:0:0:0:
256,192,242804,1,8,0:0:0:0:
256,192,242976,1,8,0:0:0:0:
256,192,243147,1,8,0:0:0:0:
256,192,243233,1,8,0:0:0:0:
256,192,243319,1,0,0:0:0:0:
256,192,243404,1,0,0:0:0:0:
256,192,243490,1,8,0:0:0:0:
256,192,243547,1,0,0:0:0:0:
256,192,243604,1,0,0:0:0:0:
256,192,243662,1,8,0:0:0:0:
256,192,243747,1,8,0:0:0:0:
256,192,243833,1,0,0:0:0:0:
256,192,243876,1,0,0:0:0:0:
256,192,243919,1,0,0:0:0:0:
256,192,244004,1,0,0:0:0:0:
256,192,244090,1,0,0:0:0:0:
256,192,244176,1,12,0:0:0:0:
256,192,244519,1,8,0:0:0:0:
256,192,244690,1,8,0:0:0:0:
256,192,244776,1,0,0:0:0:0:
256,192,244862,1,8,0:0:0:0:
256,192,244947,1,8,0:0:0:0:
256,192,245033,1,0,0:0:0:0:
256,192,245119,1,0,0:0:0:0:
256,192,245204,1,8,0:0:0:0:
256,192,245376,1,8,0:0:0:0:
256,192,245462,1,0,0:0:0:0:
256,192,245547,1,0,0:0:0:0:
256,192,245719,1,0,0:0:0:0:
256,192,245890,1,8,0:0:0:0:
256,192,246062,1,0,0:0:0:0:
256,192,246147,1,0,0:0:0:0:
256,192,246233,1,8,0:0:0:0:
256,192,246319,1,8,0:0:0:0:
256,192,246404,1,0,0:0:0:0:
256,192,246490,1,0,0:0:0:0:
256,192,246576,1,8,0:0:0:0:
256,192,246747,1,8,0:0:0:0:
256,192,246833,1,8,0:0:0:0:
256,192,246919,1,0,0:0:0:0:
256,192,247090,1,0,0:0:0:0:
256,192,247262,1,8,0:0:0:0:
256,192,247433,1,8,0:0:0:0:
256,192,247519,1,8,0:0:0:0:
256,192,247604,1,0,0:0:0:0:
256,192,247690,1,8,0:0:0:0:
256,192,247776,1,0,0:0:0:0:
256,192,247862,1,0,0:0:0:0:
256,192,247947,1,8,0:0:0:0:
256,192,248119,1,0,0:0:0:0:
256,192,248204,1,8,0:0:0:0:
256,192,248290,1,0,0:0:0:0:
256,192,248462,1,0,0:0:0:0:
256,192,248633,1,8,0:0:0:0:
256,192,248804,1,0,0:0:0:0:
256,192,248890,1,0,0:0:0:0:
256,192,248976,1,8,0:0:0:0:
256,192,249062,1,0,0:0:0:0:
256,192,249147,1,8,0:0:0:0:
256,192,249319,1,8,0:0:0:0:
256,192,249662,1,0,0:0:0:0:
256,192,249833,1,0,0:0:0:0:
256,192,250004,1,8,0:0:0:0:
256,192,250176,1,8,0:0:0:0:
256,192,250262,1,0,0:0:0:0:
256,192,250347,1,8,0:0:0:0:
256,192,250433,1,0,0:0:0:0:
256,192,250519,1,0,0:0:0:0:
256,192,250604,1,0,0:0:0:0:
256,192,250690,1,8,0:0:0:0:
256,192,250862,1,8,0:0:0:0:
256,192,250947,1,0,0:0:0:0:
256,192,251033,1,0,0:0:0:0:
256,192,251204,1,0,0:0:0:0:
256,192,251376,1,8,0:0:0:0:
256,192,251547,1,0,0:0:0:0:
256,192,251633,1,8,0:0:0:0:
256,192,251719,1,0,0:0:0:0:
256,192,251804,1,0,0:0:0:0:
256,192,251890,1,8,0:0:0:0:
256,192,251976,1,0,0:0:0:0:
256,192,252062,1,8,0:0:0:0:
256,192,252233,1,8,0:0:0:0:
256,192,252319,1,8,0:0:0:0:
256,192,252404,1,0,0:0:0:0:
256,192,252576,1,0,0:0:0:0:
256,192,252747,1,8,0:0:0:0:
256,192,252919,1,0,0:0:0:0:
256,192,253004,1,0,0:0:0:0:
256,192,253090,1,8,0:0:0:0:
256,192,253176,1,0,0:0:0:0:
256,192,253262,1,8,0:0:0:0:
256,192,253347,1,0,0:0:0:0:
256,192,253433,1,8,0:0:0:0:
256,192,253519,1,0,0:0:0:0:
256,192,253604,1,8,0:0:0:0:
256,192,253690,1,8,0:0:0:0:
256,192,253776,1,0,0:0:0:0:
256,192,253947,1,0,0:0:0:0:
256,192,254119,1,8,0:0:0:0:
256,192,254204,1,0,0:0:0:0:
256,192,254290,1,0,0:0:0:0:
256,192,254376,1,0,0:0:0:0:
256,192,254462,1,8,0:0:0:0:
256,192,254547,1,8,0:0:0:0:
256,192,254633,1,0,0:0:0:0:
256,192,254804,1,8,0:0:0:0:
256,192,255147,1,4,0:0:0:0:
256,192,255490,1,0,0:0:0:0:
256,192,255833,1,8,0:0:0:0:
256,192,256176,1,0,0:0:0:0:
256,192,256347,1,8,0:0:0:0:
256,192,256519,1,0,0:0:0:0:
256,192,256690,1,0,0:0:0:0:
256,192,256862,1,8,0:0:0:0:
256,192,257033,1,0,0:0:0:0:
256,192,257119,1,0,0:0:0:0:
256,192,257204,1,8,0:0:0:0:
256,192,257376,1,0,0:0:0:0:
256,192,257547,1,8,0:0:0:0:
256,192,257890,1,0,0:0:0:0:
256,192,258233,1,0,0:0:0:0:
256,192,258576,1,8,0:0:0:0:
256,192,258919,1,8,0:0:0:0:
256,192,259090,1,0,0:0:0:0:
256,192,259433,1,8,0:0:0:0:
256,192,259604,1,0,0:0:0:0:
256,192,259776,1,0,0:0:0:0:
256,192,259947,1,8,0:0:0:0:
256,192,260119,1,0,0:0:0:0:
256,192,260204,1,0,0:0:0:0:
256,192,260290,1,8,0:0:0:0:
256,192,260633,1,0,0:0:0:0:
256,192,260976,1,0,0:0:0:0:
256,192,261319,1,8,0:0:0:0:
256,192,261662,1,0,0:0:0:0:
256,192,261833,1,8,0:0:0:0:
256,192,262004,1,0,0:0:0:0:
256,192,262176,1,8,0:0:0:0:
256,192,262347,1,0,0:0:0:0:
256,192,262690,1,8,0:0:0:0:
256,192,263033,1,0,0:0:0:0:
256,192,263376,1,0,0:0:0:0:
256,192,263719,1,0,0:0:0:0:
256,192,263890,1,0,0:0:0:0:
256,192,264062,1,8,0:0:0:0:
256,192,264404,1,0,0:0:0:0:
256,192,264576,1,8,0:0:0:0:
256,192,264747,1,0,0:0:0:0:
256,192,265090,1,0,0:0:0:0:
256,192,265433,1,8,0:0:0:0:
256,192,265776,1,0,0:0:0:0:
256,192,265947,1,8,0:0:0:0:
256,192,266119,1,0,0:0:0:0:
