osu file format v14

[General]
AudioFilename: audio.mp3
AudioLeadIn: 0
PreviewTime: 37062
Countdown: 0
SampleSet: Normal
StackLeniency: 0.7
Mode: 1
LetterboxInBreaks: 0
WidescreenStoryboard: 1

[Editor]
DistanceSpacing: 0.9
BeatDivisor: 4
GridSize: 32
TimelineZoom: 3.3

[Metadata]
Title:I MY AMBIGUOUS
TitleUnicode:I MY AMBIGUOUS
Artist:Cyte
ArtistUnicode:Cyte
Creator:Lumenite-
Version:Muzukashii
Source:
Tags:streaming heart amen deco*27 nifty electronic breakcore lolicore japanese 初音ミク hatsune miku vocaloid ボーカロイド dakedekaane cytekinesis i'm 11! best of 2016-2020 past perfect ストリーミングハート
BeatmapID:3614213
BeatmapSetID:1620193

[Difficulty]
HPDrainRate:5
CircleSize:2
OverallDifficulty:5
ApproachRate:10
SliderMultiplier:1.3
SliderTickRate:1

[Events]
//Background and Video events
0,0,"MOSHED-2021-11-5-1-29-15.jpg",0,0
//Break Periods
//Storyboard Layer 0 (Background)
//Storyboard Layer 1 (Fail)
//Storyboard Layer 2 (Pass)
//Storyboard Layer 3 (Foreground)
//Storyboard Layer 4 (Overlay)
//Storyboard Sound Samples

[TimingPoints]
139.411764705882,230.769230769231,4,1,0,100,1,0
7524,-100,4,1,0,100,0,1
14908,-100,4,1,0,100,0,0
37062,-100,4,1,0,100,0,1
51831,-100,4,1,0,100,0,0
96139,-100,4,1,0,100,0,1
102600,-100,4,1,0,100,0,0
103524,-100,4,1,0,100,0,1
110908,-100,4,1,0,100,0,0
111139,-100,4,1,0,100,0,1
118293,-100,4,1,0,100,0,1
125677,-100,4,1,0,100,0,0

[HitObjects]
256,192,139,5,0,0:0:0:0:
256,192,370,1,8,0:0:0:0:
256,192,485,1,0,0:0:0:0:
256,192,600,1,8,0:0:0:0:
256,192,831,1,0,0:0:0:0:
256,192,947,1,8,0:0:0:0:
256,192,1177,1,8,0:0:0:0:
256,192,1408,1,0,0:0:0:0:
256,192,1754,1,8,0:0:0:0:
256,192,1870,1,8,0:0:0:0:
256,192,1985,1,0,0:0:0:0:
256,192,2216,1,0,0:0:0:0:
256,192,2331,1,0,0:0:0:0:
256,192,2447,1,8,0:0:0:0:
256,192,2677,1,8,0:0:0:0:
256,192,2793,1,0,0:0:0:0:
256,192,3024,1,8,0:0:0:0:
256,192,3254,1,0,0:0:0:0:
256,192,3600,1,0,0:0:0:0:
256,192,3716,1,0,0:0:0:0:
256,192,3831,1,8,0:0:0:0:
256,192,4062,1,8,0:0:0:0:
256,192,4177,1,0,0:0:0:0:
256,192,4293,1,8,0:0:0:0:
256,192,4524,1,0,0:0:0:0:
256,192,4639,1,8,0:0:0:0:
256,192,4870,1,8,0:0:0:0:
256,192,5100,1,0,0:0:0:0:
256,192,5447,1,8,0:0:0:0:
256,192,5562,1,8,0:0:0:0:
256,192,5677,1,0,0:0:0:0:
256,192,6600,1,8,0:0:0:0:
256,192,6831,1,0,0:0:0:0:
256,192,6947,1,8,0:0:0:0:
256,192,7062,1,0,0:0:0:0:
256,192,7120,1,0,0:0:0:0:
256,192,7177,1,0,0:0:0:0:
256,192,7293,1,8,0:0:0:0:
256,192,7408,1,0,0:0:0:0:
256,192,7524,1,12,0:0:0:0:
256,192,7870,1,8,0:0:0:0:
256,192,7985,1,0,0:0:0:0:
256,192,8100,1,0,0:0:0:0:
256,192,8216,1,8,0:0:0:0:
256,192,8447,1,0,0:0:0:0:
256,192,8562,1,0,0:0:0:0:
256,192,8677,1,8,0:0:0:0:
256,192,8793,1,0,0:0:0:0:
256,192,8908,1,8,0:0:0:0:
256,192,9024,1,8,0:0:0:0:
256,192,9139,1,0,0:0:0:0:
256,192,9370,1,8,0:0:0:0:
256,192,9716,1,0,0:0:0:0:
256,192,9831,1,8,0:0:0:0:
256,192,9947,1,0,0:0:0:0:
256,192,10062,1,8,0:0:0:0:
256,192,10293,1,8,0:0:0:0:
256,192,10408,1,8,0:0:0:0:
256,192,10524,1,0,0:0:0:0:
256,192,10639,1,8,0:0:0:0:
256,192,10754,1,8,0:0:0:0:
256,192,10812,1,8,0:0:0:0:
256,192,10870,1,8,0:0:0:0:
256,192,10985,1,0,0:0:0:0:
256,192,11100,1,8,0:0:0:0:
256,192,11216,1,0,0:0:0:0:
256,192,11562,1,0,0:0:0:0:
256,192,11677,1,8,0:0:0:0:
256,192,11793,1,8,0:0:0:0:
256,192,11908,1,0,0:0:0:0:
256,192,12139,1,8,0:0:0:0:
256,192,12370,1,0,0:0:0:0:
256,192,12485,1,0,0:0:0:0:
256,192,12600,1,8,0:0:0:0:
256,192,12716,1,0,0:0:0:0:
256,192,12831,1,8,0:0:0:0:
256,192,13062,1,0,0:0:0:0:
256,192,13408,1,8,0:0:0:0:
256,192,13524,1,0,0:0:0:0:
256,192,13639,1,0,0:0:0:0:
256,192,13754,1,8,0:0:0:0:
256,192,13870,1,0,0:0:0:0:
256,192,13985,1,8,0:0:0:0:
256,192,14216,1,8,0:0:0:0:
256,192,14331,1,8,0:0:0:0:
256,192,14447,1,0,0:0:0:0:
256,192,14504,1,0,0:0:0:0:
256,192,14562,1,0,0:0:0:0:
256,192,14677,1,8,0:0:0:0:
256,192,14793,1,0,0:0:0:0:
256,192,14908,1,8,0:0:0:0:
256,192,15139,1,8,0:0:0:0:
256,192,15254,1,0,0:0:0:0:
256,192,15370,1,8,0:0:0:0:
256,192,15600,1,8,0:0:0:0:
256,192,15716,1,8,0:0:0:0:
256,192,15831,1,0,0:0:0:0:
256,192,16293,1,8,0:0:0:0:
256,192,16524,1,0,0:0:0:0:
256,192,16639,1,0,0:0:0:0:
256,192,16754,1,8,0:0:0:0:
256,192,16985,1,8,0:0:0:0:
256,192,17100,1,0,0:0:0:0:
256,192,17216,1,8,0:0:0:0:
256,192,17447,1,0,0:0:0:0:
256,192,17677,1,8,0:0:0:0:
256,192,18139,1,8,0:0:0:0:
256,192,18254,1,8,0:0:0:0:
256,192,18312,1,8,0:0:0:0:
256,192,18370,1,8,0:0:0:0:
256,192,18485,1,8,0:0:0:0:
256,192,18600,1,0,0:0:0:0:
256,192,18831,1,0,0:0:0:0:
256,192,18947,1,0,0:0:0:0:
256,192,19062,1,8,0:0:0:0:
256,192,19293,1,8,0:0:0:0:
256,192,19524,1,0,0:0:0:0:
256,192,19754,1,8,0:0:0:0:
256,192,19870,1,0,0:0:0:0:
256,192,19985,1,8,0:0:0:0:
256,192,20447,1,0,0:0:0:0:
256,192,20677,1,8,0:0:0:0:
256,192,20793,1,8,0:0:0:0:
256,192,20908,1,0,0:0:0:0:
256,192,21139,1,8,0:0:0:0:
256,192,21370,1,0,0:0:0:0:
256,192,21600,1,0,0:0:0:0:
256,192,21716,1,0,0:0:0:0:
256,192,21831,1,8,0:0:0:0:
256,192,21889,1,8,0:0:0:0:
256,192,21947,1,8,0:0:0:0:
256,192,22062,1,0,0:0:0:0:
256,192,22177,1,8,0:0:0:0:
256,192,22293,1,4,0:0:0:0:
256,192,22524,1,8,0:0:0:0:
256,192,22639,1,0,0:0:0:0:
256,192,22754,1,8,0:0:0:0:
256,192,22870,1,8,0:0:0:0:
256,192,22985,1,0,0:0:0:0:
256,192,23100,1,8,0:0:0:0:
256,192,23216,1,0,0:0:0:0:
256,192,23331,1,0,0:0:0:0:
256,192,23447,1,8,0:0:0:0:
256,192,23562,1,0,0:0:0:0:
256,192,23793,1,8,0:0:0:0:
256,192,23908,1,0,0:0:0:0:
256,192,24024,1,8,0:0:0:0:
256,192,24139,1,0,0:0:0:0:
256,192,24370,1,0,0:0:0:0:
256,192,24485,1,0,0:0:0:0:
256,192,24600,1,8,0:0:0:0:
256,192,24716,1,8,0:0:0:0:
256,192,24831,1,0,0:0:0:0:
256,192,24947,1,0,0:0:0:0:
256,192,25062,1,8,0:0:0:0:
256,192,25293,1,8,0:0:0:0:
256,192,25408,1,0,0:0:0:0:
256,192,25639,1,8,0:0:0:0:
256,192,25870,1,0,0:0:0:0:
256,192,26216,1,8,0:0:0:0:
256,192,26331,1,8,0:0:0:0:
256,192,26447,1,0,0:0:0:0:
256,192,26677,1,0,0:0:0:0:
256,192,26793,1,8,0:0:0:0:
256,192,26908,1,0,0:0:0:0:
256,192,26966,1,0,0:0:0:0:
256,192,27024,1,0,0:0:0:0:
256,192,27139,1,8,0:0:0:0:
256,192,27254,1,0,0:0:0:0:
256,192,27370,1,8,0:0:0:0:
256,192,27427,1,8,0:0:0:0:
256,192,27485,1,8,0:0:0:0:
256,192,27600,1,0,0:0:0:0:
256,192,27716,1,8,0:0:0:0:
256,192,27831,1,0,0:0:0:0:
256,192,28062,1,0,0:0:0:0:
256,192,28177,1,0,0:0:0:0:
256,192,28293,1,8,0:0:0:0:
256,192,28524,1,8,0:0:0:0:
256,192,28639,1,0,0:0:0:0:
256,192,28754,1,8,0:0:0:0:
256,192,28927,1,8,0:0:0:0:
256,192,29100,1,8,0:0:0:0:
256,192,29274,1,8,0:0:0:0:
256,192,29447,1,8,0:0:0:0:
256,192,29677,1,4,0:0:0:0:
256,192,30370,1,8,0:0:0:0:
256,192,30600,1,0,0:0:0:0:
256,192,30831,1,0,0:0:0:0:
256,192,31062,1,8,0:0:0:0:
256,192,31293,1,8,0:0:0:0:
256,192,31350,1,8,0:0:0:0:
256,192,31408,1,8,0:0:0:0:
256,192,31524,1,0,0:0:0:0:
256,192,31985,1,8,0:0:0:0:
256,192,32216,1,0,0:0:0:0:
256,192,32447,1,8,0:0:0:0:
256,192,32562,1,8,0:0:0:0:
256,192,32677,1,0,0:0:0:0:
256,192,32908,1,0,0:0:0:0:
256,192,32966,1,0,0:0:0:0:
256,192,33024,1,0,0:0:0:0:
256,192,33139,1,8,0:0:0:0:
256,192,33254,1,0,0:0:0:0:
256,192,33370,1,8,0:0:0:0:
256,192,33831,1,8,0:0:0:0:
256,192,33947,1,0,0:0:0:0:
256,192,34062,1,0,0:0:0:0:
256,192,34177,1,8,0:0:0:0:
256,192,34293,1,0,0:0:0:0:
256,192,34524,1,8,0:0:0:0:
256,192,34754,1,0,0:0:0:0:
256,192,34985,1,0,0:0:0:0:
256,192,35216,1,8,0:0:0:0:
256,192,35447,1,8,0:0:0:0:
256,192,35562,1,8,0:0:0:0:
256,192,35677,1,0,0:0:0:0:
256,192,35908,1,8,0:0:0:0:
256,192,36139,1,0,0:0:0:0:
256,192,36197,1,0,0:0:0:0:
256,192,36254,1,0,0:0:0:0:
256,192,36370,1,8,0:0:0:0:
256,192,36485,1,0,0:0:0:0:
256,192,36600,1,8,0:0:0:0:
256,192,37062,1,4,0:0:0:0:
256,192,37408,1,8,0:0:0:0:
256,192,37639,1,8,0:0:0:0:
256,192,37754,1,0,0:0:0:0:
256,192,37870,1,8,0:0:0:0:
256,192,37985,1,0,0:0:0:0:
256,192,38100,1,0,0:0:0:0:
256,192,38216,1,8,0:0:0:0:
256,192,38331,1,0,0:0:0:0:
256,192,38562,1,0,0:0:0:0:
256,192,38677,1,8,0:0:0:0:
256,192,38793,1,8,0:0:0:0:
256,192,38908,1,0,0:0:0:0:
256,192,39139,1,8,0:0:0:0:
256,192,39370,1,0,0:0:0:0:
256,192,39485,1,0,0:0:0:0:
256,192,39600,1,8,0:0:0:0:
256,192,39716,1,0,0:0:0:0:
256,192,39947,1,0,0:0:0:0:
256,192,40062,1,8,0:0:0:0:
256,192,40177,1,0,0:0:0:0:
256,192,40293,1,12,0:0:0:0:
256,192,40524,1,12,0:0:0:0:
256,192,40754,1,4,0:0:0:0:
256,192,41100,1,8,0:0:0:0:
256,192,41331,1,8,0:0:0:0:
256,192,41447,1,0,0:0:0:0:
256,192,41562,1,0,0:0:0:0:
256,192,41677,1,8,0:0:0:0:
256,192,41793,1,8,0:0:0:0:
256,192,41908,1,0,0:0:0:0:
256,192,42024,1,8,0:0:0:0:
256,192,42254,1,0,0:0:0:0:
256,192,42370,1,8,0:0:0:0:
256,192,42485,1,8,0:0:0:0:
256,192,42600,1,0,0:0:0:0:
256,192,42716,1,0,0:0:0:0:
256,192,42831,1,8,0:0:0:0:
256,192,43062,1,0,0:0:0:0:
256,192,43293,1,8,0:0:0:0:
256,192,43408,1,0,0:0:0:0:
256,192,43639,1,0,0:0:0:0:
256,192,43754,1,8,0:0:0:0:
256,192,43870,1,8,0:0:0:0:
256,192,43985,1,0,0:0:0:0:
256,192,44100,1,0,0:0:0:0:
256,192,44216,1,8,0:0:0:0:
256,192,44274,1,8,0:0:0:0:
256,192,44331,1,8,0:0:0:0:
256,192,44447,1,4,0:0:0:0:
256,192,44677,1,8,0:0:0:0:
256,192,44793,1,0,0:0:0:0:
256,192,45024,1,8,0:0:0:0:
256,192,45139,1,0,0:0:0:0:
256,192,45254,1,8,0:0:0:0:
256,192,45600,1,8,0:0:0:0:
256,192,45831,1,0,0:0:0:0:
256,192,46062,1,8,0:0:0:0:
256,192,46120,1,8,0:0:0:0:
256,192,46177,1,8,0:0:0:0:
256,192,46293,1,0,0:0:0:0:
256,192,46524,1,8,0:0:0:0:
256,192,46639,1,0,0:0:0:0:
256,192,46870,1,8,0:0:0:0:
256,192,46985,1,0,0:0:0:0:
256,192,47100,1,0,0:0:0:0:
256,192,47216,1,8,0:0:0:0:
256,192,47562,1,8,0:0:0:0:
256,192,47677,1,0,0:0:0:0:
256,192,47793,1,8,0:0:0:0:
256,192,47908,1,0,0:0:0:0:
256,192,47966,1,0,0:0:0:0:
256,192,48024,1,0,0:0:0:0:
256,192,48139,1,8,0:0:0:0:
256,192,48370,1,8,0:0:0:0:
256,192,48485,1,0,0:0:0:0:
256,192,48716,1,8,0:0:0:0:
256,192,48831,1,0,0:0:0:0:
256,192,48947,1,8,0:0:0:0:
256,192,49293,1,8,0:0:0:0:
256,192,49524,1,0,0:0:0:0:
256,192,49754,1,8,0:0:0:0:
256,192,49812,1,8,0:0:0:0:
256,192,49870,1,8,0:0:0:0:
256,192,49985,1,0,0:0:0:0:
256,192,50216,1,8,0:0:0:0:
256,192,50331,1,0,0:0:0:0:
256,192,50562,1,0,0:0:0:0:
256,192,50677,1,8,0:0:0:0:
256,192,50793,1,0,0:0:0:0:
256,192,50908,1,8,0:0:0:0:
256,192,50966,1,8,0:0:0:0:
256,192,51024,1,8,0:0:0:0:
256,192,51139,1,0,0:0:0:0:
256,192,51254,1,8,0:0:0:0:
256,192,51370,1,0,0:0:0:0:
256,192,51600,1,8,0:0:0:0:
256,192,51831,1,4,0:0:0:0:
256,192,52177,1,8,0:0:0:0:
256,192,52524,1,0,0:0:0:0:
256,192,52754,1,8,0:0:0:0:
256,192,53100,1,0,0:0:0:0:
256,192,53447,1,0,0:0:0:0:
256,192,53677,1,8,0:0:0:0:
256,192,54024,1,0,0:0:0:0:
256,192,54370,1,8,0:0:0:0:
256,192,54600,1,0,0:0:0:0:
256,192,54947,1,0,0:0:0:0:
256,192,55293,1,8,0:0:0:0:
256,192,55524,1,0,0:0:0:0:
256,192,55870,1,8,0:0:0:0:
256,192,56216,1,0,0:0:0:0:
256,192,56447,1,8,0:0:0:0:
256,192,56793,1,0,0:0:0:0:
256,192,57139,1,0,0:0:0:0:
256,192,57370,1,8,0:0:0:0:
256,192,57716,1,0,0:0:0:0:
256,192,58062,1,8,0:0:0:0:
256,192,58293,1,0,0:0:0:0:
256,192,58639,1,0,0:0:0:0:
256,192,58985,1,8,0:0:0:0:
256,192,59216,1,4,0:0:0:0:
256,192,59447,1,0,0:0:0:0:
256,192,59562,1,0,0:0:0:0:
256,192,59677,1,8,0:0:0:0:
256,192,59908,1,8,0:0:0:0:
256,192,60139,1,0,0:0:0:0:
256,192,60370,1,8,0:0:0:0:
256,192,60485,1,0,0:0:0:0:
256,192,60600,1,8,0:0:0:0:
256,192,61062,1,0,0:0:0:0:
256,192,61293,1,8,0:0:0:0:
256,192,61408,1,8,0:0:0:0:
256,192,61524,1,0,0:0:0:0:
256,192,61754,1,8,0:0:0:0:
256,192,61985,1,0,0:0:0:0:
256,192,62216,1,0,0:0:0:0:
256,192,62447,1,8,0:0:0:0:
256,192,62562,1,0,0:0:0:0:
256,192,62677,1,8,0:0:0:0:
256,192,62793,1,8,0:0:0:0:
256,192,62908,1,0,0:0:0:0:
256,192,63370,1,8,0:0:0:0:
256,192,63600,1,0,0:0:0:0:
256,192,63831,1,8,0:0:0:0:
256,192,64062,1,8,0:0:0:0:
256,192,64177,1,8,0:0:0:0:
256,192,64293,1,0,0:0:0:0:
256,192,64524,1,8,0:0:0:0:
256,192,64754,1,0,0:0:0:0:
256,192,64985,1,8,0:0:0:0:
256,192,65100,1,0,0:0:0:0:
256,192,65216,1,8,0:0:0:0:
256,192,65447,1,8,0:0:0:0:
256,192,65677,1,0,0:0:0:0:
256,192,65908,1,8,0:0:0:0:
256,192,66024,1,0,0:0:0:0:
256,192,66370,1,12,0:0:0:0:
256,192,66600,1,4,0:0:0:0:
256,192,66831,1,8,0:0:0:0:
256,192,67062,1,0,0:0:0:0:
256,192,67177,1,8,0:0:0:0:
256,192,67235,1,8,0:0:0:0:
256,192,67293,1,8,0:0:0:0:
256,192,67408,1,0,0:0:0:0:
256,192,67524,1,8,0:0:0:0:
256,192,67754,1,8,0:0:0:0:
256,192,67870,1,8,0:0:0:0:
256,192,67985,1,0,0:0:0:0:
256,192,68043,1,0,0:0:0:0:
256,192,68100,1,0,0:0:0:0:
256,192,68216,1,8,0:0:0:0:
256,192,68447,1,0,0:0:0:0:
256,192,68908,1,8,0:0:0:0:
256,192,69024,1,8,0:0:0:0:
256,192,69139,1,0,0:0:0:0:
256,192,69254,1,0,0:0:0:0:
256,192,69370,1,8,0:0:0:0:
256,192,69600,1,0,0:0:0:0:
256,192,69831,1,8,0:0:0:0:
256,192,69889,1,8,0:0:0:0:
256,192,69947,1,8,0:0:0:0:
256,192,70062,1,0,0:0:0:0:
256,192,70177,1,8,0:0:0:0:
256,192,70293,1,0,0:0:0:0:
256,192,70408,1,0,0:0:0:0:
256,192,70524,1,8,0:0:0:0:
256,192,70639,1,8,0:0:0:0:
256,192,70754,1,0,0:0:0:0:
256,192,70985,1,8,0:0:0:0:
256,192,71043,1,8,0:0:0:0:
256,192,71100,1,8,0:0:0:0:
256,192,71216,1,0,0:0:0:0:
256,192,71447,1,0,0:0:0:0:
256,192,71562,1,8,0:0:0:0:
256,192,71908,1,8,0:0:0:0:
256,192,71966,1,8,0:0:0:0:
256,192,72024,1,8,0:0:0:0:
256,192,72139,1,0,0:0:0:0:
256,192,72370,1,8,0:0:0:0:
256,192,72600,1,0,0:0:0:0:
256,192,72716,1,0,0:0:0:0:
256,192,72831,1,8,0:0:0:0:
256,192,72947,1,8,0:0:0:0:
256,192,73062,1,0,0:0:0:0:
256,192,73177,1,8,0:0:0:0:
256,192,73235,1,8,0:0:0:0:
256,192,73293,1,8,0:0:0:0:
256,192,73408,1,0,0:0:0:0:
256,192,73524,1,8,0:0:0:0:
256,192,73754,1,0,0:0:0:0:
256,192,73985,1,8,0:0:0:0:
256,192,74216,1,0,0:0:0:0:
256,192,74331,1,8,0:0:0:0:
256,192,74677,1,0,0:0:0:0:
256,192,74908,1,8,0:0:0:0:
256,192,75024,1,8,0:0:0:0:
256,192,75139,1,0,0:0:0:0:
256,192,75254,1,8,0:0:0:0:
256,192,75485,1,8,0:0:0:0:
256,192,75600,1,0,0:0:0:0:
256,192,75831,1,8,0:0:0:0:
256,192,76062,1,0,0:0:0:0:
256,192,76177,1,8,0:0:0:0:
256,192,76524,1,0,0:0:0:0:
256,192,76754,1,8,0:0:0:0:
256,192,76870,1,8,0:0:0:0:
256,192,76985,1,0,0:0:0:0:
256,192,77100,1,8,0:0:0:0:
256,192,77447,1,0,0:0:0:0:
256,192,77677,1,8,0:0:0:0:
256,192,77908,1,0,0:0:0:0:
256,192,78024,1,8,0:0:0:0:
256,192,78370,1,0,0:0:0:0:
256,192,78600,1,8,0:0:0:0:
256,192,78716,1,8,0:0:0:0:
256,192,78831,1,0,0:0:0:0:
256,192,78947,1,8,0:0:0:0:
256,192,79293,1,0,0:0:0:0:
256,192,79524,1,8,0:0:0:0:
256,192,79754,1,0,0:0:0:0:
256,192,79870,1,8,0:0:0:0:
256,192,80216,1,0,0:0:0:0:
256,192,80562,1,8,0:0:0:0:
256,192,80793,1,0,0:0:0:0:
256,192,81024,1,8,0:0:0:0:
256,192,81139,1,0,0:0:0:0:
256,192,81254,1,8,0:0:0:0:
256,192,81370,1,4,0:0:0:0:
256,192,81600,1,0,0:0:0:0:
256,192,81658,1,0,0:0:0:0:
256,192,81716,1,0,0:0:0:0:
256,192,81831,1,8,0:0:0:0:
256,192,81947,1,0,0:0:0:0:
256,192,82062,1,8,0:0:0:0:
256,192,82177,1,8,0:0:0:0:
256,192,82293,1,0,0:0:0:0:
256,192,82524,1,0,0:0:0:0:
256,192,82639,1,0,0:0:0:0:
256,192,82754,1,8,0:0:0:0:
256,192,83216,1,4,0:0:0:0:
256,192,83447,1,8,0:0:0:0:
256,192,83504,1,8,0:0:0:0:
256,192,83562,1,8,0:0:0:0:
256,192,83677,1,0,0:0:0:0:
256,192,83793,1,0,0:0:0:0:
256,192,83908,1,8,0:0:0:0:
256,192,84024,1,0,0:0:0:0:
256,192,84139,1,8,0:0:0:0:
256,192,84370,1,8,0:0:0:0:
256,192,84485,1,8,0:0:0:0:
256,192,84600,1,0,0:0:0:0:
256,192,85062,1,4,0:0:0:0:
256,192,85293,1,0,0:0:0:0:
256,192,85350,1,0,0:0:0:0:
256,192,85408,1,0,0:0:0:0:
256,192,85524,1,8,0:0:0:0:
256,192,85639,1,0,0:0:0:0:
256,192,85754,1,8,0:0:0:0:
256,192,85870,1,0,0:0:0:0:
256,192,85985,1,0,0:0:0:0:
256,192,86216,1,0,0:0:0:0:
256,192,86331,1,0,0:0:0:0:
256,192,86447,1,8,0:0:0:0:
256,192,86908,1,4,0:0:0:0:
256,192,87139,1,8,0:0:0:0:
256,192,87197,1,8,0:0:0:0:
256,192,87254,1,8,0:0:0:0:
256,192,87370,1,0,0:0:0:0:
256,192,87485,1,8,0:0:0:0:
256,192,87600,1,0,0:0:0:0:
256,192,87716,1,0,0:0:0:0:
256,192,87831,1,8,0:0:0:0:
256,192,88062,1,8,0:0:0:0:
256,192,88177,1,0,0:0:0:0:
256,192,88293,1,8,0:0:0:0:
256,192,88754,1,0,0:0:0:0:
256,192,89100,1,0,0:0:0:0:
256,192,89447,1,8,0:0:0:0:
256,192,89677,1,0,0:0:0:0:
256,192,89908,1,8,0:0:0:0:
256,192,90139,1,0,0:0:0:0:
256,192,90370,1,0,0:0:0:0:
256,192,90600,1,8,0:0:0:0:
256,192,90947,1,0,0:0:0:0:
256,192,91293,1,8,0:0:0:0:
256,192,91524,1,0,0:0:0:0:
256,192,91754,1,8,0:0:0:0:
256,192,91985,1,8,0:0:0:0:
256,192,92216,1,0,0:0:0:0:
256,192,92447,1,8,0:0:0:0:
256,192,92793,1,0,0:0:0:0:
256,192,93139,1,8,0:0:0:0:
256,192,93370,1,0,0:0:0:0:
256,192,93600,1,8,0:0:0:0:
256,192,93831,1,0,0:0:0:0:
256,192,94062,1,8,0:0:0:0:
256,192,94293,1,0,0:0:0:0:
256,192,94524,1,0,0:0:0:0:
256,192,94639,1,0,0:0:0:0:
256,192,94754,1,8,0:0:0:0:
256,192,94985,1,8,0:0:0:0:
256,192,95043,1,8,0:0:0:0:
256,192,95100,1,8,0:0:0:0:
256,192,95216,1,0,0:0:0:0:
256,192,95447,1,0,0:0:0:0:
256,192,95562,1,8,0:0:0:0:
256,192,95677,1,0,0:0:0:0:
256,192,95908,1,8,0:0:0:0:
256,192,96139,1,12,0:0:0:0:
256,192,96485,1,8,0:0:0:0:
256,192,96716,1,8,0:0:0:0:
256,192,96831,1,0,0:0:0:0:
256,192,96947,1,0,0:0:0:0:
256,192,97062,1,8,0:0:0:0:
256,192,97177,1,8,0:0:0:0:
256,192,97293,1,0,0:0:0:0:
256,192,97408,1,8,0:0:0:0:
256,192,97639,1,0,0:0:0:0:
256,192,97754,1,8,0:0:0:0:
256,192,97812,1,8,0:0:0:0:
256,192,97870,1,8,0:0:0:0:
256,192,97985,1,0,0:0:0:0:
256,192,98216,1,8,0:0:0:0:
256,192,98447,1,0,0:0:0:0:
256,192,98562,1,0,0:0:0:0:
256,192,98677,1,8,0:0:0:0:
256,192,98793,1,0,0:0:0:0:
256,192,99024,1,8,0:0:0:0:
256,192,99139,1,0,0:0:0:0:
256,192,99197,1,0,0:0:0:0:
256,192,99254,1,0,0:0:0:0:
256,192,99370,1,12,0:0:0:0:
256,192,99600,1,12,0:0:0:0:
256,192,99831,1,4,0:0:0:0:
256,192,100177,1,0,0:0:0:0:
256,192,100293,1,8,0:0:0:0:
256,192,100408,1,8,0:0:0:0:
256,192,100524,1,0,0:0:0:0:
256,192,100639,1,8,0:0:0:0:
256,192,100754,1,0,0:0:0:0:
256,192,100812,1,0,0:0:0:0:
256,192,100870,1,0,0:0:0:0:
256,192,100985,1,8,0:0:0:0:
256,192,101100,1,0,0:0:0:0:
256,192,101331,1,0,0:0:0:0:
256,192,101447,1,8,0:0:0:0:
256,192,101562,1,8,0:0:0:0:
256,192,101677,1,0,0:0:0:0:
256,192,101793,1,0,0:0:0:0:
256,192,101908,1,8,0:0:0:0:
256,192,102139,1,0,0:0:0:0:
256,192,102370,1,8,0:0:0:0:
256,192,102485,1,0,0:0:0:0:
256,192,102831,1,8,0:0:0:0:
256,192,102947,1,0,0:0:0:0:
256,192,103062,1,8,0:0:0:0:
256,192,103293,1,8,0:0:0:0:
256,192,103524,1,12,0:0:0:0:
256,192,103870,1,8,0:0:0:0:
256,192,104100,1,8,0:0:0:0:
256,192,104216,1,0,0:0:0:0:
256,192,104331,1,8,0:0:0:0:
256,192,104447,1,8,0:0:0:0:
256,192,104562,1,8,0:0:0:0:
256,192,104677,1,0,0:0:0:0:
256,192,104793,1,8,0:0:0:0:
256,192,105024,1,0,0:0:0:0:
256,192,105139,1,8,0:0:0:0:
256,192,105197,1,8,0:0:0:0:
256,192,105254,1,8,0:0:0:0:
256,192,105370,1,0,0:0:0:0:
256,192,105485,1,0,0:0:0:0:
256,192,105600,1,8,0:0:0:0:
256,192,105831,1,0,0:0:0:0:
256,192,106062,1,8,0:0:0:0:
256,192,106177,1,0,0:0:0:0:
256,192,106408,1,0,0:0:0:0:
256,192,106524,1,8,0:0:0:0:
256,192,106639,1,0,0:0:0:0:
256,192,106754,1,8,0:0:0:0:
256,192,106870,1,0,0:0:0:0:
256,192,106927,1,0,0:0:0:0:
256,192,106985,1,0,0:0:0:0:
256,192,107100,1,0,0:0:0:0:
256,192,107216,1,8,0:0:0:0:
256,192,107562,1,0,0:0:0:0:
256,192,107677,1,8,0:0:0:0:
256,192,107793,1,8,0:0:0:0:
256,192,107908,1,0,0:0:0:0:
256,192,108024,1,0,0:0:0:0:
256,192,108139,1,8,0:0:0:0:
256,192,108254,1,0,0:0:0:0:
256,192,108312,1,0,0:0:0:0:
256,192,108370,1,0,0:0:0:0:
256,192,108485,1,8,0:0:0:0:
256,192,108600,1,0,0:0:0:0:
256,192,108831,1,8,0:0:0:0:
256,192,108889,1,8,0:0:0:0:
256,192,108947,1,8,0:0:0:0:
256,192,109062,1,0,0:0:0:0:
256,192,109293,1,0,0:0:0:0:
256,192,109350,1,0,0:0:0:0:
256,192,109408,1,0,0:0:0:0:
256,192,109524,1,8,0:0:0:0:
256,192,109754,1,8,0:0:0:0:
256,192,109812,1,8,0:0:0:0:
256,192,109870,1,8,0:0:0:0:
256,192,109985,1,0,0:0:0:0:
256,192,110216,1,8,0:0:0:0:
256,192,110274,1,8,0:0:0:0:
256,192,110331,1,8,0:0:0:0:
256,192,110447,1,0,0:0:0:0:
256,192,110562,1,8,0:0:0:0:
256,192,110677,1,0,0:0:0:0:
256,192,110793,1,0,0:0:0:0:
256,192,111139,1,12,0:0:0:0:
256,192,111370,1,0,0:0:0:0:
256,192,111485,1,0,0:0:0:0:
256,192,111600,1,8,0:0:0:0:
256,192,111716,1,8,0:0:0:0:
256,192,111831,1,0,0:0:0:0:
256,192,112062,1,8,0:0:0:0:
256,192,112293,1,8,0:0:0:0:
256,192,112408,1,0,0:0:0:0:
256,192,112524,1,8,0:0:0:0:
256,192,112581,1,8,0:0:0:0:
256,192,112639,1,8,0:0:0:0:
256,192,112754,1,0,0:0:0:0:
256,192,112985,1,0,0:0:0:0:
256,192,113100,1,0,0:0:0:0:
256,192,113216,1,8,0:0:0:0:
256,192,113331,1,8,0:0:0:0:
256,192,113447,1,0,0:0:0:0:
256,192,113562,1,8,0:0:0:0:
256,192,113677,1,0,0:0:0:0:
256,192,114139,1,8,0:0:0:0:
256,192,114370,1,8,0:0:0:0:
256,192,114485,1,8,0:0:0:0:
256,192,114600,1,0,0:0:0:0:
256,192,114831,1,0,0:0:0:0:
256,192,114947,1,0,0:0:0:0:
256,192,115062,1,8,0:0:0:0:
256,192,115177,1,0,0:0:0:0:
256,192,115293,1,8,0:0:0:0:
256,192,115408,1,8,0:0:0:0:
256,192,115524,1,0,0:0:0:0:
256,192,115754,1,8,0:0:0:0:
256,192,115985,1,0,0:0:0:0:
256,192,116100,1,8,0:0:0:0:
256,192,116216,1,0,0:0:0:0:
256,192,116274,1,0,0:0:0:0:
256,192,116331,1,0,0:0:0:0:
256,192,116447,1,8,0:0:0:0:
256,192,116677,1,8,0:0:0:0:
256,192,116793,1,8,0:0:0:0:
256,192,116908,1,0,0:0:0:0:
256,192,117024,1,0,0:0:0:0:
256,192,117139,1,8,0:0:0:0:
256,192,117254,1,0,0:0:0:0:
256,192,117370,1,8,0:0:0:0:
256,192,117831,1,8,0:0:0:0:
256,192,117947,1,8,0:0:0:0:
256,192,118062,1,8,0:0:0:0:
256,192,118177,1,8,0:0:0:0:
256,192,118293,1,4,0:0:0:0:
256,192,118524,1,0,0:0:0:0:
256,192,118639,1,0,0:0:0:0:
256,192,118754,1,8,0:0:0:0:
256,192,118870,1,0,0:0:0:0:
256,192,118985,1,8,0:0:0:0:
256,192,119100,1,8,0:0:0:0:
256,192,119216,1,0,0:0:0:0:
256,192,119447,1,8,0:0:0:0:
256,192,119562,1,8,0:0:0:0:
256,192,119677,1,0,0:0:0:0:
256,192,119793,1,8,0:0:0:0:
256,192,119908,1,0,0:0:0:0:
256,192,119966,1,0,0:0:0:0:
256,192,120024,1,0,0:0:0:0:
256,192,120139,1,8,0:0:0:0:
256,192,120370,1,8,0:0:0:0:
256,192,120485,1,0,0:0:0:0:
256,192,120600,1,8,0:0:0:0:
256,192,120716,1,8,0:0:0:0:
256,192,120831,1,0,0:0:0:0:
256,192,120947,1,8,0:0:0:0:
256,192,121062,1,0,0:0:0:0:
256,192,121524,1,8,0:0:0:0:
256,192,121639,1,8,0:0:0:0:
256,192,121754,1,0,0:0:0:0:
256,192,121870,1,0,0:0:0:0:
256,192,121985,1,8,0:0:0:0:
256,192,122216,1,8,0:0:0:0:
256,192,122331,1,8,0:0:0:0:
256,192,122447,1,0,0:0:0:0:
256,192,122562,1,8,0:0:0:0:
256,192,122677,1,0,0:0:0:0:
256,192,122793,1,0,0:0:0:0:
256,192,122908,1,8,0:0:0:0:
256,192,123139,1,8,0:0:0:0:
256,192,123370,1,0,0:0:0:0:
256,192,123485,1,0,0:0:0:0:
256,192,123600,1,8,0:0:0:0:
256,192,123658,1,8,0:0:0:0:
256,192,123716,1,8,0:0:0:0:
256,192,123831,1,0,0:0:0:0:
256,192,124062,1,8,0:0:0:0:
256,192,124177,1,8,0:0:0:0:
256,192,124293,1,0,0:0:0:0:
256,192,124408,1,0,0:0:0:0:
256,192,124524,1,8,0:0:0:0:
256,192,124639,1,8,0:0:0:0:
256,192,124754,1,0,0:0:0:0:
256,192,124812,1,0,0:0:0:0:
256,192,124870,1,0,0:0:0:0:
256,192,124927,1,0,0:0:0:0:
256,192,124985,1,0,0:0:0:0:
256,192,125100,1,0,0:0:0:0:
256,192,125216,1,8,0:0:0:0:
256,192,125447,1,8,0:0:0:0:
256,192,125562,1,8,0:0:0:0:
256,192,125677,1,0,0:0:0:0:
256,192,126139,1,8,0:0:0:0:
256,192,126600,1,0,0:0:0:0:
256,192,126831,1,0,0:0:0:0:
256,192,127062,1,8,0:0:0:0:
256,192,127524,1,0,0:0:0:0:
256,192,127985,1,8,0:0:0:0:
256,192,128447,1,0,0:0:0:0:
256,192,128677,1,0,0:0:0:0:
256,192,128908,1,8,0:0:0:0:
256,192,129139,1,8,0:0:0:0:
256,192,129254,1,8,0:0:0:0:
256,192,129370,1,0,0:0:0:0:
256,192,129831,1,8,0:0:0:0:
256,192,130293,1,0,0:0:0:0:
256,192,130524,1,0,0:0:0:0:
256,192,130754,1,8,0:0:0:0:
256,192,131216,1,0,0:0:0:0:
256,192,131677,1,8,0:0:0:0:
256,192,132139,1,0,0:0:0:0:
256,192,132370,1,0,0:0:0:0:
256,192,132600,1,8,0:0:0:0:
256,192,132831,1,0,0:0:0:0:
256,192,132947,1,8,0:0:0:0:
