osu file format v14

[General]
AudioFilename: audio.mp3
AudioLeadIn: 0
PreviewTime: 37062
Countdown: 0
SampleSet: Normal
StackLeniency: 0.7
Mode: 1
LetterboxInBreaks: 0
WidescreenStoryboard: 1

[Editor]
DistanceSpacing: 0.9
BeatDivisor: 2
GridSize: 32
TimelineZoom: 2.100001

[Metadata]
Title:I MY AMBIGUOUS
TitleUnicode:I MY AMBIGUOUS
Artist:Cyte
ArtistUnicode:Cyte
Creator:Lumenite-
Version:Futsuu
Source:
Tags:streaming heart amen deco*27 nifty electronic breakcore lolicore japanese 初音ミク hatsune miku vocaloid ボーカロイド dakedekaane cytekinesis i'm 11! best of 2016-2020 past perfect ストリーミングハート
BeatmapID:3310199
BeatmapSetID:1620193

[Difficulty]
HPDrainRate:6
CircleSize:2
OverallDifficulty:4
ApproachRate:10
SliderMultiplier:1.3
SliderTickRate:1

[Events]
//Background and Video events
0,0,"MOSHED-2021-11-5-1-29-15.jpg",0,0
//Break Periods
2,52031,58766
//Storyboard Layer 0 (Background)
//Storyboard Layer 1 (Fail)
//Storyboard Layer 2 (Pass)
//Storyboard Layer 3 (Foreground)
//Storyboard Layer 4 (Overlay)
//Storyboard Sound Samples

[TimingPoints]
139.411764705882,230.769230769231,4,1,0,100,1,0
7524,-100,4,1,0,100,0,1
14908,-100,4,1,0,100,0,0
37062,-100,4,1,0,100,0,1
51831,-100,4,1,0,100,0,0
96139,-100,4,1,0,100,0,1
102600,-100,4,1,0,100,0,0
103524,-100,4,1,0,100,0,1
110908,-100,4,1,0,100,0,0
111139,-100,4,1,0,100,0,1
118293,-100,4,1,0,100,0,1
125677,-100,4,1,0,100,0,0

[HitObjects]
256,192,139,5,0,0:0:0:0:
256,192,600,1,8,0:0:0:0:
256,192,831,1,8,0:0:0:0:
256,192,1062,1,0,0:0:0:0:
256,192,1524,1,8,0:0:0:0:
256,192,1985,1,0,0:0:0:0:
256,192,2216,1,0,0:0:0:0:
256,192,2447,1,8,0:0:0:0:
256,192,2677,1,8,0:0:0:0:
256,192,2908,1,0,0:0:0:0:
256,192,3370,1,8,0:0:0:0:
256,192,3831,1,0,0:0:0:0:
256,192,4293,1,8,0:0:0:0:
256,192,4524,1,0,0:0:0:0:
256,192,4754,1,8,0:0:0:0:
256,192,5216,1,8,0:0:0:0:
256,192,5677,1,0,0:0:0:0:
256,192,6600,1,8,0:0:0:0:
256,192,7062,1,8,0:0:0:0:
256,192,7293,1,8,0:0:0:0:
256,192,7408,1,8,0:0:0:0:
256,192,7524,1,4,0:0:0:0:
256,192,7985,1,8,0:0:0:0:
256,192,8216,1,8,0:0:0:0:
256,192,8331,1,8,0:0:0:0:
256,192,8447,1,0,0:0:0:0:
256,192,8677,1,8,0:0:0:0:
256,192,8908,1,0,0:0:0:0:
256,192,9139,1,8,0:0:0:0:
256,192,9254,1,0,0:0:0:0:
256,192,9370,1,8,0:0:0:0:
256,192,9831,1,8,0:0:0:0:
256,192,10062,1,0,0:0:0:0:
256,192,10177,1,0,0:0:0:0:
256,192,10293,1,8,0:0:0:0:
256,192,10524,1,0,0:0:0:0:
256,192,10754,1,8,0:0:0:0:
256,192,10870,1,8,0:0:0:0:
256,192,10985,1,8,0:0:0:0:
256,192,11216,1,0,0:0:0:0:
256,192,11677,1,8,0:0:0:0:
256,192,11908,1,8,0:0:0:0:
256,192,12024,1,8,0:0:0:0:
256,192,12139,1,0,0:0:0:0:
256,192,12370,1,8,0:0:0:0:
256,192,12600,1,0,0:0:0:0:
256,192,12831,1,0,0:0:0:0:
256,192,12947,1,0,0:0:0:0:
256,192,13062,1,8,0:0:0:0:
256,192,13524,1,8,0:0:0:0:
256,192,13754,1,8,0:0:0:0:
256,192,13870,1,0,0:0:0:0:
256,192,13985,1,8,0:0:0:0:
256,192,14216,1,8,0:0:0:0:
256,192,14447,1,0,0:0:0:0:
256,192,14562,1,0,0:0:0:0:
256,192,14677,1,8,0:0:0:0:
256,192,14908,1,0,0:0:0:0:
256,192,15370,1,8,0:0:0:0:
256,192,15600,1,8,0:0:0:0:
256,192,15716,1,8,0:0:0:0:
256,192,15831,1,0,0:0:0:0:
256,192,16062,1,8,0:0:0:0:
256,192,16293,1,0,0:0:0:0:
256,192,16524,1,0,0:0:0:0:
256,192,16639,1,0,0:0:0:0:
256,192,16754,1,8,0:0:0:0:
256,192,17216,1,8,0:0:0:0:
256,192,17447,1,0,0:0:0:0:
256,192,17677,1,8,0:0:0:0:
256,192,17908,1,8,0:0:0:0:
256,192,18024,1,0,0:0:0:0:
256,192,18139,1,8,0:0:0:0:
256,192,18370,1,8,0:0:0:0:
256,192,18600,1,0,0:0:0:0:
256,192,19062,1,8,0:0:0:0:
256,192,19293,1,0,0:0:0:0:
256,192,19408,1,8,0:0:0:0:
256,192,19524,1,0,0:0:0:0:
256,192,19754,1,0,0:0:0:0:
256,192,19985,1,8,0:0:0:0:
256,192,20216,1,8,0:0:0:0:
256,192,20331,1,8,0:0:0:0:
256,192,20447,1,0,0:0:0:0:
256,192,20908,1,8,0:0:0:0:
256,192,21139,1,0,0:0:0:0:
256,192,21370,1,8,0:0:0:0:
256,192,21600,1,8,0:0:0:0:
256,192,21716,1,8,0:0:0:0:
256,192,21831,1,0,0:0:0:0:
256,192,21947,1,0,0:0:0:0:
256,192,22062,1,8,0:0:0:0:
256,192,22293,1,4,0:0:0:0:
256,192,22524,1,8,0:0:0:0:
256,192,22639,1,8,0:0:0:0:
256,192,22754,1,0,0:0:0:0:
256,192,22985,1,8,0:0:0:0:
256,192,23216,1,0,0:0:0:0:
256,192,23447,1,0,0:0:0:0:
256,192,23562,1,0,0:0:0:0:
256,192,23677,1,8,0:0:0:0:
256,192,23908,1,8,0:0:0:0:
256,192,24139,1,0,0:0:0:0:
256,192,24600,1,8,0:0:0:0:
256,192,24831,1,8,0:0:0:0:
256,192,24947,1,8,0:0:0:0:
256,192,25062,1,0,0:0:0:0:
256,192,25293,1,0,0:0:0:0:
256,192,25408,1,0,0:0:0:0:
256,192,25524,1,8,0:0:0:0:
256,192,25754,1,8,0:0:0:0:
256,192,25985,1,0,0:0:0:0:
256,192,26447,1,8,0:0:0:0:
256,192,26677,1,8,0:0:0:0:
256,192,26793,1,8,0:0:0:0:
256,192,26908,1,0,0:0:0:0:
256,192,27139,1,8,0:0:0:0:
256,192,27370,1,0,0:0:0:0:
256,192,27600,1,8,0:0:0:0:
256,192,27716,1,0,0:0:0:0:
256,192,27831,1,8,0:0:0:0:
256,192,28293,1,0,0:0:0:0:
256,192,28524,1,0,0:0:0:0:
256,192,28639,1,0,0:0:0:0:
256,192,28754,1,8,0:0:0:0:
256,192,28985,1,0,0:0:0:0:
256,192,29216,1,8,0:0:0:0:
256,192,29331,1,0,0:0:0:0:
256,192,29447,1,8,0:0:0:0:
256,192,29677,1,0,0:0:0:0:
256,192,30370,1,8,0:0:0:0:
256,192,30600,1,0,0:0:0:0:
256,192,30831,1,8,0:0:0:0:
256,192,31062,1,0,0:0:0:0:
256,192,31293,1,0,0:0:0:0:
256,192,31524,1,8,0:0:0:0:
256,192,32216,1,0,0:0:0:0:
256,192,32447,1,8,0:0:0:0:
256,192,32677,1,8,0:0:0:0:
256,192,32908,1,0,0:0:0:0:
256,192,33139,1,0,0:0:0:0:
256,192,33370,1,8,0:0:0:0:
256,192,34062,1,0,0:0:0:0:
256,192,34293,1,8,0:0:0:0:
256,192,34524,1,8,0:0:0:0:
256,192,34754,1,0,0:0:0:0:
256,192,34985,1,8,0:0:0:0:
256,192,35216,1,0,0:0:0:0:
256,192,35677,1,8,0:0:0:0:
256,192,36139,1,0,0:0:0:0:
256,192,36370,1,8,0:0:0:0:
256,192,36485,1,8,0:0:0:0:
256,192,36600,1,0,0:0:0:0:
256,192,36831,1,8,0:0:0:0:
256,192,37062,1,12,0:0:0:0:
256,192,37524,1,8,0:0:0:0:
256,192,37754,1,8,0:0:0:0:
256,192,37870,1,8,0:0:0:0:
256,192,37985,1,0,0:0:0:0:
256,192,38216,1,8,0:0:0:0:
256,192,38447,1,0,0:0:0:0:
256,192,38677,1,0,0:0:0:0:
256,192,38793,1,0,0:0:0:0:
256,192,38908,1,8,0:0:0:0:
256,192,39139,1,8,0:0:0:0:
256,192,39370,1,0,0:0:0:0:
256,192,39600,1,8,0:0:0:0:
256,192,39831,1,0,0:0:0:0:
256,192,40293,1,0,0:0:0:0:
256,192,40524,1,8,0:0:0:0:
256,192,40639,1,0,0:0:0:0:
256,192,40754,1,8,0:0:0:0:
256,192,41216,1,8,0:0:0:0:
256,192,41447,1,0,0:0:0:0:
256,192,41562,1,0,0:0:0:0:
256,192,41677,1,8,0:0:0:0:
256,192,41908,1,8,0:0:0:0:
256,192,42139,1,0,0:0:0:0:
256,192,42370,1,0,0:0:0:0:
256,192,42485,1,8,0:0:0:0:
256,192,42600,1,0,0:0:0:0:
256,192,42831,1,8,0:0:0:0:
256,192,43062,1,0,0:0:0:0:
256,192,43293,1,0,0:0:0:0:
256,192,43524,1,8,0:0:0:0:
256,192,43985,1,8,0:0:0:0:
256,192,44447,1,12,0:0:0:0:
256,192,44908,1,8,0:0:0:0:
256,192,45139,1,8,0:0:0:0:
256,192,45254,1,8,0:0:0:0:
256,192,45370,1,0,0:0:0:0:
256,192,45600,1,8,0:0:0:0:
256,192,45831,1,0,0:0:0:0:
256,192,46062,1,0,0:0:0:0:
256,192,46177,1,0,0:0:0:0:
256,192,46293,1,8,0:0:0:0:
256,192,46754,1,8,0:0:0:0:
256,192,46985,1,8,0:0:0:0:
256,192,47100,1,0,0:0:0:0:
256,192,47216,1,8,0:0:0:0:
256,192,47447,1,0,0:0:0:0:
256,192,47562,1,0,0:0:0:0:
256,192,47677,1,8,0:0:0:0:
256,192,47908,1,8,0:0:0:0:
256,192,48139,1,0,0:0:0:0:
256,192,48600,1,8,0:0:0:0:
256,192,48831,1,0,0:0:0:0:
256,192,48947,1,8,0:0:0:0:
256,192,49062,1,0,0:0:0:0:
256,192,49293,1,0,0:0:0:0:
256,192,49524,1,8,0:0:0:0:
256,192,49754,1,8,0:0:0:0:
256,192,49870,1,8,0:0:0:0:
256,192,49985,1,0,0:0:0:0:
256,192,50447,1,8,0:0:0:0:
256,192,50677,1,8,0:0:0:0:
256,192,50793,1,0,0:0:0:0:
256,192,50908,1,8,0:0:0:0:
256,192,51139,1,8,0:0:0:0:
256,192,51254,1,8,0:0:0:0:
256,192,51370,1,0,0:0:0:0:
256,192,51600,1,8,0:0:0:0:
256,192,51831,1,4,0:0:0:0:
256,192,59216,5,4,0:0:0:0:
256,192,59677,1,8,0:0:0:0:
256,192,59908,1,0,0:0:0:0:
256,192,60139,1,8,0:0:0:0:
256,192,60600,1,8,0:0:0:0:
256,192,60831,1,8,0:0:0:0:
256,192,61062,1,0,0:0:0:0:
256,192,61293,1,8,0:0:0:0:
256,192,61524,1,0,0:0:0:0:
256,192,61985,1,8,0:0:0:0:
256,192,62447,1,0,0:0:0:0:
256,192,62677,1,8,0:0:0:0:
256,192,62793,1,8,0:0:0:0:
256,192,62908,1,0,0:0:0:0:
256,192,63139,1,0,0:0:0:0:
256,192,63370,1,8,0:0:0:0:
256,192,63831,1,0,0:0:0:0:
256,192,64293,1,8,0:0:0:0:
256,192,64524,1,0,0:0:0:0:
256,192,64639,1,0,0:0:0:0:
256,192,64754,1,8,0:0:0:0:
256,192,64985,1,0,0:0:0:0:
256,192,65216,1,8,0:0:0:0:
256,192,65447,1,8,0:0:0:0:
256,192,65677,1,4,0:0:0:0:
256,192,65908,1,8,0:0:0:0:
256,192,66370,1,12,0:0:0:0:
256,192,66600,1,4,0:0:0:0:
256,192,67062,1,8,0:0:0:0:
256,192,67293,1,8,0:0:0:0:
256,192,67408,1,8,0:0:0:0:
256,192,67524,1,0,0:0:0:0:
256,192,67754,1,8,0:0:0:0:
256,192,67870,1,0,0:0:0:0:
256,192,67985,1,8,0:0:0:0:
256,192,68216,1,8,0:0:0:0:
256,192,68447,1,0,0:0:0:0:
256,192,68908,1,8,0:0:0:0:
256,192,69139,1,0,0:0:0:0:
256,192,69254,1,0,0:0:0:0:
256,192,69370,1,8,0:0:0:0:
256,192,69600,1,0,0:0:0:0:
256,192,69831,1,8,0:0:0:0:
256,192,69947,1,8,0:0:0:0:
256,192,70062,1,8,0:0:0:0:
256,192,70293,1,0,0:0:0:0:
256,192,70408,1,0,0:0:0:0:
256,192,70524,1,8,0:0:0:0:
256,192,70754,1,8,0:0:0:0:
256,192,70985,1,8,0:0:0:0:
256,192,71216,1,0,0:0:0:0:
256,192,71677,1,8,0:0:0:0:
256,192,71908,1,0,0:0:0:0:
256,192,72024,1,0,0:0:0:0:
256,192,72139,1,8,0:0:0:0:
256,192,72370,1,8,0:0:0:0:
256,192,72600,1,0,0:0:0:0:
256,192,72831,1,8,0:0:0:0:
256,192,72947,1,0,0:0:0:0:
256,192,73062,1,8,0:0:0:0:
256,192,73293,1,8,0:0:0:0:
256,192,73754,1,8,0:0:0:0:
256,192,73985,1,0,0:0:0:0:
256,192,74331,1,0,0:0:0:0:
256,192,74677,1,8,0:0:0:0:
256,192,74908,1,0,0:0:0:0:
256,192,75370,1,8,0:0:0:0:
256,192,75831,1,0,0:0:0:0:
256,192,76177,1,0,0:0:0:0:
256,192,76524,1,8,0:0:0:0:
256,192,76754,1,0,0:0:0:0:
256,192,77216,1,8,0:0:0:0:
256,192,77677,1,0,0:0:0:0:
256,192,78024,1,0,0:0:0:0:
256,192,78370,1,8,0:0:0:0:
256,192,78600,1,0,0:0:0:0:
256,192,79062,1,8,0:0:0:0:
256,192,79524,1,0,0:0:0:0:
256,192,79870,1,0,0:0:0:0:
256,192,80216,1,8,0:0:0:0:
256,192,80677,1,8,0:0:0:0:
256,192,80908,1,0,0:0:0:0:
256,192,81139,1,8,0:0:0:0:
256,192,81370,1,4,0:0:0:0:
256,192,81600,1,8,0:0:0:0:
256,192,81716,1,8,0:0:0:0:
256,192,81831,1,0,0:0:0:0:
256,192,82062,1,8,0:0:0:0:
256,192,82293,1,0,0:0:0:0:
256,192,82524,1,0,0:0:0:0:
256,192,82754,1,8,0:0:0:0:
256,192,83216,1,0,0:0:0:0:
256,192,83447,1,8,0:0:0:0:
256,192,83562,1,0,0:0:0:0:
256,192,83677,1,8,0:0:0:0:
256,192,83908,1,8,0:0:0:0:
256,192,84139,1,0,0:0:0:0:
256,192,84254,1,0,0:0:0:0:
256,192,84370,1,8,0:0:0:0:
256,192,84485,1,8,0:0:0:0:
256,192,84600,1,0,0:0:0:0:
256,192,85062,1,8,0:0:0:0:
256,192,85293,1,8,0:0:0:0:
256,192,85408,1,8,0:0:0:0:
256,192,85524,1,0,0:0:0:0:
256,192,85754,1,8,0:0:0:0:
256,192,85985,1,0,0:0:0:0:
256,192,86216,1,0,0:0:0:0:
256,192,86447,1,8,0:0:0:0:
256,192,86908,1,8,0:0:0:0:
256,192,87139,1,0,0:0:0:0:
256,192,87254,1,0,0:0:0:0:
256,192,87370,1,8,0:0:0:0:
256,192,87600,1,0,0:0:0:0:
256,192,87831,1,8,0:0:0:0:
256,192,87947,1,8,0:0:0:0:
256,192,88062,1,0,0:0:0:0:
256,192,88177,1,0,0:0:0:0:
256,192,88293,1,8,0:0:0:0:
256,192,88754,1,0,0:0:0:0:
256,192,89447,1,0,0:0:0:0:
256,192,89677,1,8,0:0:0:0:
256,192,89908,1,8,0:0:0:0:
256,192,90139,1,0,0:0:0:0:
256,192,90370,1,8,0:0:0:0:
256,192,90600,1,0,0:0:0:0:
256,192,91293,1,8,0:0:0:0:
256,192,91524,1,0,0:0:0:0:
256,192,91754,1,0,0:0:0:0:
256,192,91985,1,8,0:0:0:0:
256,192,92216,1,8,0:0:0:0:
256,192,92447,1,0,0:0:0:0:
256,192,93139,1,8,0:0:0:0:
256,192,93370,1,0,0:0:0:0:
256,192,93600,1,8,0:0:0:0:
256,192,93831,1,0,0:0:0:0:
256,192,94062,1,0,0:0:0:0:
256,192,94293,1,8,0:0:0:0:
256,192,94985,1,8,0:0:0:0:
256,192,95216,1,0,0:0:0:0:
256,192,95447,1,8,0:0:0:0:
256,192,95562,1,8,0:0:0:0:
256,192,95677,1,0,0:0:0:0:
256,192,95908,1,0,0:0:0:0:
256,192,96139,1,12,0:0:0:0:
256,192,96600,1,8,0:0:0:0:
256,192,96831,1,8,0:0:0:0:
256,192,96947,1,0,0:0:0:0:
256,192,97062,1,8,0:0:0:0:
256,192,97293,1,8,0:0:0:0:
256,192,97524,1,0,0:0:0:0:
256,192,97754,1,8,0:0:0:0:
256,192,97870,1,8,0:0:0:0:
256,192,97985,1,0,0:0:0:0:
256,192,98216,1,0,0:0:0:0:
256,192,98447,1,8,0:0:0:0:
256,192,98677,1,0,0:0:0:0:
256,192,98793,1,0,0:0:0:0:
256,192,98908,1,8,0:0:0:0:
256,192,99370,1,8,0:0:0:0:
256,192,99600,1,0,0:0:0:0:
256,192,99716,1,0,0:0:0:0:
256,192,99831,1,8,0:0:0:0:
256,192,100293,1,8,0:0:0:0:
256,192,100408,1,8,0:0:0:0:
256,192,100524,1,0,0:0:0:0:
256,192,100639,1,0,0:0:0:0:
256,192,100754,1,8,0:0:0:0:
256,192,100985,1,0,0:0:0:0:
256,192,101216,1,8,0:0:0:0:
256,192,101447,1,8,0:0:0:0:
256,192,101562,1,8,0:0:0:0:
256,192,101677,1,0,0:0:0:0:
256,192,101908,1,0,0:0:0:0:
256,192,102139,1,8,0:0:0:0:
256,192,102370,1,8,0:0:0:0:
256,192,102600,1,0,0:0:0:0:
256,192,103062,1,0,0:0:0:0:
256,192,103524,1,12,0:0:0:0:
256,192,103754,1,0,0:0:0:0:
256,192,103985,1,8,0:0:0:0:
256,192,104216,1,8,0:0:0:0:
256,192,104331,1,8,0:0:0:0:
256,192,104447,1,0,0:0:0:0:
256,192,104677,1,8,0:0:0:0:
256,192,104908,1,0,0:0:0:0:
256,192,105024,1,0,0:0:0:0:
256,192,105139,1,8,0:0:0:0:
256,192,105254,1,8,0:0:0:0:
256,192,105370,1,0,0:0:0:0:
256,192,105600,1,8,0:0:0:0:
256,192,105831,1,0,0:0:0:0:
256,192,106062,1,0,0:0:0:0:
256,192,106293,1,8,0:0:0:0:
256,192,106754,1,8,0:0:0:0:
256,192,106985,1,8,0:0:0:0:
256,192,107100,1,8,0:0:0:0:
256,192,107216,1,0,0:0:0:0:
256,192,107447,1,8,0:0:0:0:
256,192,107677,1,0,0:0:0:0:
256,192,107793,1,0,0:0:0:0:
256,192,107908,1,8,0:0:0:0:
256,192,108024,1,8,0:0:0:0:
256,192,108139,1,0,0:0:0:0:
256,192,108370,1,8,0:0:0:0:
256,192,108600,1,0,0:0:0:0:
256,192,108831,1,0,0:0:0:0:
256,192,108947,1,0,0:0:0:0:
256,192,109062,1,8,0:0:0:0:
256,192,109293,1,0,0:0:0:0:
256,192,109408,1,0,0:0:0:0:
256,192,109524,1,8,0:0:0:0:
256,192,109754,1,0,0:0:0:0:
256,192,109870,1,0,0:0:0:0:
256,192,109985,1,8,0:0:0:0:
256,192,110216,1,0,0:0:0:0:
256,192,110447,1,8,0:0:0:0:
256,192,110908,1,0,0:0:0:0:
256,192,111139,1,12,0:0:0:0:
256,192,111370,1,0,0:0:0:0:
256,192,111600,1,8,0:0:0:0:
256,192,111716,1,8,0:0:0:0:
256,192,111831,1,0,0:0:0:0:
256,192,112062,1,8,0:0:0:0:
256,192,112293,1,0,0:0:0:0:
256,192,112524,1,0,0:0:0:0:
256,192,112639,1,0,0:0:0:0:
256,192,112754,1,8,0:0:0:0:
256,192,113216,1,8,0:0:0:0:
256,192,113447,1,8,0:0:0:0:
256,192,113562,1,0,0:0:0:0:
256,192,113677,1,8,0:0:0:0:
256,192,113908,1,8,0:0:0:0:
256,192,114024,1,8,0:0:0:0:
256,192,114139,1,0,0:0:0:0:
256,192,114370,1,8,0:0:0:0:
256,192,114600,1,0,0:0:0:0:
256,192,115062,1,8,0:0:0:0:
256,192,115293,1,0,0:0:0:0:
256,192,115408,1,0,0:0:0:0:
256,192,115524,1,8,0:0:0:0:
256,192,115754,1,8,0:0:0:0:
256,192,115985,1,0,0:0:0:0:
256,192,116216,1,8,0:0:0:0:
256,192,116331,1,0,0:0:0:0:
256,192,116447,1,8,0:0:0:0:
256,192,116908,1,8,0:0:0:0:
256,192,117139,1,8,0:0:0:0:
256,192,117254,1,8,0:0:0:0:
256,192,117370,1,0,0:0:0:0:
256,192,117600,1,8,0:0:0:0:
256,192,117831,1,0,0:0:0:0:
256,192,117947,1,0,0:0:0:0:
256,192,118062,1,8,0:0:0:0:
256,192,118293,1,12,0:0:0:0:
256,192,118524,1,0,0:0:0:0:
256,192,118754,1,8,0:0:0:0:
256,192,118870,1,8,0:0:0:0:
256,192,118985,1,0,0:0:0:0:
256,192,119100,1,0,0:0:0:0:
256,192,119216,1,8,0:0:0:0:
256,192,119447,1,0,0:0:0:0:
256,192,119677,1,8,0:0:0:0:
256,192,119908,1,0,0:0:0:0:
256,192,120024,1,0,0:0:0:0:
256,192,120139,1,8,0:0:0:0:
256,192,120600,1,0,0:0:0:0:
256,192,120831,1,8,0:0:0:0:
256,192,120947,1,8,0:0:0:0:
256,192,121062,1,0,0:0:0:0:
256,192,121293,1,8,0:0:0:0:
256,192,121524,1,0,0:0:0:0:
256,192,121639,1,0,0:0:0:0:
256,192,121754,1,8,0:0:0:0:
256,192,121870,1,8,0:0:0:0:
256,192,121985,1,0,0:0:0:0:
256,192,122447,1,8,0:0:0:0:
256,192,122677,1,0,0:0:0:0:
256,192,122793,1,0,0:0:0:0:
256,192,122908,1,8,0:0:0:0:
256,192,123139,1,8,0:0:0:0:
256,192,123254,1,8,0:0:0:0:
256,192,123370,1,0,0:0:0:0:
256,192,123485,1,0,0:0:0:0:
256,192,123600,1,8,0:0:0:0:
256,192,123831,1,8,0:0:0:0:
256,192,124062,1,8,0:0:0:0:
256,192,124177,1,8,0:0:0:0:
256,192,124293,1,8,0:0:0:0:
256,192,124524,1,0,0:0:0:0:
256,192,124639,1,0,0:0:0:0:
256,192,124754,1,8,0:0:0:0:
256,192,124985,1,8,0:0:0:0:
256,192,125216,1,8,0:0:0:0:
256,192,125331,1,8,0:0:0:0:
256,192,125447,1,8,0:0:0:0:
256,192,125562,1,8,0:0:0:0:
256,192,125677,1,0,0:0:0:0:
256,192,126139,1,8,0:0:0:0:
256,192,126370,1,0,0:0:0:0:
256,192,126600,1,8,0:0:0:0:
256,192,127062,1,8,0:0:0:0:
256,192,127524,1,0,0:0:0:0:
256,192,127754,1,8,0:0:0:0:
256,192,127985,1,0,0:0:0:0:
256,192,128216,1,0,0:0:0:0:
256,192,128447,1,8,0:0:0:0:
256,192,128908,1,8,0:0:0:0:
256,192,129370,1,0,0:0:0:0:
256,192,129831,1,8,0:0:0:0:
256,192,130062,1,0,0:0:0:0:
256,192,130293,1,8,0:0:0:0:
256,192,130754,1,8,0:0:0:0:
256,192,131216,1,0,0:0:0:0:
256,192,131677,1,8,0:0:0:0:
256,192,131908,1,8,0:0:0:0:
256,192,132139,1,0,0:0:0:0:
256,192,132600,1,8,0:0:0:0:
256,192,132831,1,0,0:0:0:0:
256,192,132947,1,8,0:0:0:0:
