osu file format v14

[General]
AudioFilename: audio.mp3
AudioLeadIn: 0
PreviewTime: 16963
Countdown: 0
SampleSet: None
StackLeniency: 0.2
Mode: 0
LetterboxInBreaks: 0
WidescreenStoryboard: 0

[Editor]
Bookmarks: 23091,26666
DistanceSpacing: 0.8
BeatDivisor: 4
GridSize: 8
TimelineZoom: 3.999998

[Metadata]
Title:VIBE CHECK
TitleUnicode:VIBE CHECK
Artist:Cyranek
ArtistUnicode:Cyranek
Creator:Indisunnot
Version:sign me the FUCK up
Source:
Tags:Meme CHURCH OF LEL LeaF NANO DEATH!!!!!
BeatmapID:2234871
BeatmapSetID:1067455

[Difficulty]
HPDrainRate:3
CircleSize:4
OverallDifficulty:8
ApproachRate:9.8
SliderMultiplier:2.35
SliderTickRate:1

[Events]
//Background and Video events
0,0,"image.jpg",0,0
Video,0,"video.mp4"
//Break Periods
2,6823,8283
//Storyboard Layer 0 (Background)
//Storyboard Layer 1 (Fail)
//Storyboard Layer 2 (Pass)
//Storyboard Layer 3 (Foreground)
//Storyboard Layer 4 (Overlay)
//Storyboard Sound Samples

[TimingPoints]
2666,255.31914893617,4,1,0,5,1,0
2921,-100,4,1,0,10,0,0
3176,-100,4,1,0,15,0,0
3431,-100,4,1,0,20,0,0
3687,-100,4,1,0,25,0,0
3942,-100,4,1,0,30,0,0
4197,-100,4,1,0,35,0,0
4453,-100,4,1,0,40,0,0
4708,-100,4,1,0,45,0,0
4963,-100,4,1,0,50,0,0
5219,-100,4,1,0,55,0,0
5474,-100,4,1,0,60,0,0
5729,-100,4,1,0,65,0,0
5985,-100,4,1,0,70,0,0
6240,-100,4,1,0,75,0,0
6495,-100,4,1,0,80,0,0
6623,-100,4,1,0,20,0,0
8793,-100,4,1,0,70,0,0
9496,-100,4,1,0,5,0,0
9560,-100,4,1,0,70,0,0
9751,-100,4,1,0,5,0,0
9815,-100,4,1,0,70,0,0
10006,-100,4,1,0,5,0,0
10070,-100,4,1,0,70,0,0
10262,-100,4,1,0,5,0,0
10325,-100,4,1,0,70,0,0
21048,-100,4,1,0,50,0,0
22581,-166.666666666667,4,1,0,50,0,0
23091,-35.7142857142857,4,1,0,80,0,1
26921,-83.3333333333333,4,1,0,80,0,1
31262,-100,4,1,0,80,0,1
31772,-100,4,1,0,50,0,0

[Colours]
Combo1 : 90,232,79
Combo2 : 247,231,89
Combo3 : 245,192,120
Combo4 : 242,89,81
Combo5 : 241,143,202
Combo6 : 152,80,218
Combo7 : 41,66,239
Combo8 : 99,174,231

[HitObjects]
256,192,2666,12,0,6623,0:0:0:0:
464,336,8794,5,6,0:0:0:0:
48,48,9049,1,2,0:0:0:0:
362,202,9304,6,0,P|435:158|459:75,1,176.25,2|0,0:0|0:0,0:0:0:0:
362,202,9560,2,0,P|435:158|459:75,1,176.25,10|0,0:0|0:0,0:0:0:0:
149,202,9815,6,0,P|76:158|52:75,1,176.25,2|0,0:0|0:0,0:0:0:0:
149,202,10070,2,0,P|76:158|52:75,1,176.25,10|0,0:0|0:0,0:0:0:0:
205,80,10325,6,0,B|215:76|239:101|191:156|105:89|138:6|232:-10|271:50,1,235,2|0,0:0|0:0,0:0:0:0:
300,146,10708,1,0,0:0:0:0:
164,317,10836,6,0,B|142:333|102:337|123:316|75:322|51:338,1,117.5,2|0,0:0|0:0,0:0:0:0:
348,317,11091,2,0,B|369:333|409:337|388:316|436:322|460:338,1,117.5,2|0,0:0|0:0,0:0:0:0:
449,142,11347,6,0,P|482:53|394:85,2,235,2|2|10,0:0|0:0|0:0,0:0:0:0:
436,142,11921,1,8,0:0:0:0:
408,143,11985,1,8,0:0:0:0:
363,130,12049,1,8,0:0:0:0:
304,144,12113,1,8,0:0:0:0:
236,116,12177,1,8,0:0:0:0:
161,144,12240,1,8,0:0:0:0:
90,100,12304,1,8,0:0:0:0:
90,100,12623,6,0,L|66:82,4,29.375,2|0|0|0|0,0:0|0:0|0:0|0:0|0:0,0:0:0:0:
168,229,12815,1,0,0:0:0:0:
168,229,12878,6,0,L|189:344,1,117.5,2|0,0:0|0:0,0:0:0:0:
268,135,13134,2,0,L|246:19,1,117.5,2|0,0:0|0:0,0:0:0:0:
296,269,13389,6,0,P|350:292|409:292,1,117.5,2|0,0:0|0:0,0:0:0:0:
139,94,13645,2,0,P|85:71|26:71,1,117.5,2|0,0:0|0:0,0:0:0:0:
60,199,13900,1,2,0:0:0:0:
452,185,14155,5,2,0:0:0:0:
385,42,14283,1,2,0:0:0:0:
405,254,14411,2,0,B|413:263|429:268|429:268|402:279|381:304|376:335,1,117.5,2|0,0:0|0:0,0:0:0:0:
463,350,14666,6,0,P|375:279|262:298,1,235,2|2,0:0|0:0,0:0:0:0:
48,33,15177,2,0,P|136:104|249:85,1,235,2|10,0:0|0:0,0:0:0:0:
240,68,15496,1,8,0:0:0:0:
230,84,15560,1,8,0:0:0:0:
227,111,15623,1,8,0:0:0:0:
243,149,15687,1,8,0:0:0:0:
276,186,15751,1,8,0:0:0:0:
274,249,15815,1,8,0:0:0:0:
214,291,15879,1,8,0:0:0:0:
141,255,15943,6,0,L|93:220,1,58.75
304,106,16070,2,0,L|351:140,1,58.75,0|0,0:0|0:0,0:0:0:0:
96,140,16198,6,0,P|68:144|42:158,1,58.75
347,219,16325,2,0,P|375:215|401:201,1,58.75,0|0,0:0|0:0,0:0:0:0:
20,231,16453,5,2,0:0:0:0:
426,129,16581,1,2,0:0:0:0:
20,231,16708,2,0,L|5:235,12,14.6875,2|0|0|0|0|0|0|0|0|0|0|0|0,0:0|0:0|0:0|0:0|0:0|0:0|0:0|0:0|0:0|0:0|0:0|0:0|0:0,0:0:0:0:
143,61,16964,1,4,0:0:0:0:
408,356,17347,6,0,L|438:242,1,117.5,4|0,0:0|0:0,0:0:0:0:
73,242,17730,5,12,0:0:0:0:
80,270,17794,1,8,0:0:0:0:
88,299,17858,1,8,0:0:0:0:
96,327,17922,1,8,0:0:0:0:
104,356,17985,1,12,0:0:0:0:
351,35,18240,6,0,L|379:28,2,29.375
450,84,18368,1,4,0:0:0:0:
161,35,18623,6,0,L|146:32,4,14.6875
62,84,18751,1,8,0:0:0:0:
27,116,18815,1,8,0:0:0:0:
19,162,18879,1,8,0:0:0:0:
41,203,18943,1,8,0:0:0:0:
83,221,19006,6,0,B|139:233|200:192|159:174|228:130|292:140,1,235,12|0,0:0|0:0,0:0:0:0:
317,351,19389,2,0,L|197:331,2,117.5,4|0|0,0:0|0:0|0:0,0:0:0:0:
429,221,19773,5,8,0:0:0:0:
471,203,19836,1,8,0:0:0:0:
493,162,19900,1,8,0:0:0:0:
485,116,19964,1,8,0:0:0:0:
450,84,20028,1,12,0:0:0:0:
48,336,20411,5,4,0:0:0:0:
464,48,20794,1,4,0:0:0:0:
229,119,21049,5,2,0:0:0:0:
189,153,21113,1,2,0:0:0:0:
179,205,21177,1,2,0:0:0:0:
206,251,21240,1,2,0:0:0:0:
256,269,21304,1,2,0:0:0:0:
305,251,21368,1,2,0:0:0:0:
332,205,21432,1,2,0:0:0:0:
322,153,21496,1,2,0:0:0:0:
282,119,21560,1,4,0:0:0:0:
194,186,22581,6,0,P|256:157|318:186,1,140.999995697022
262,259,23091,6,0,B|274:319|256:389|256:389|238:319|250:259|250:259|251:320|221:387|221:387|216:314|238:257|238:257|229:317|188:378|188:378|195:305|226:253|226:253|207:310|157:363|157:363|176:293|216:247|216:247|187:300|128:343|128:343|160:277|207:239|207:239|169:286|104:319|104:319|146:259|200:230|200:230|154:270|83:290|83:290|136:239|194:220|194:220|141:252|69:259|69:259|130:219|190:209|190:209|133:231|61:226|61:226|126:196|188:197|188:197|128:210|58:192|58:192|128:174|189:187|189:187|130:187|64:156|64:156|135:151|191:174|191:174|132:164|72:123|72:123|144:130|195:162|195:162|140:143|85:90|85:90|157:112|201:151|201:151|149:123|105:62|105:62|172:96|210:142|210:142|163:105|129:38|129:38|190:82|219:135|219:135|179:90|157:17|157:17|210:71|229:129|229:129|198:77|188:0|188:0|231:65|242:126|242:126|219:69|224:-9|224:-9|266:62|253:125|253:125|240:63|260:-8|260:-8|287:66|265:125|265:125|254:62|294:-2|294:-2|307:74|279:128|279:128|274:62|329:9|329:9|327:84|290:133|290:133|295:68|358:27|358:27|346:99|300:140|300:140|316:77|387:46|387:46|364:119|309:150|309:150|336:90|410:71|410:71|370:132|315:159|315:159|353:107|433:102|433:102|377:155|320:172|320:172|373:139|447:135|447:135|381:175|323:184|323:184|378:162|456:170|456:170|383:198|323:197|323:197|382:184|457:205|457:205|382:219|322:209|322:209|381:207|450:240|450:240|374:242|318:218|318:218|378:229|439:271|439:271|366:263|313:228|313:228|371:250|422:301|422:301|353:282|307:237|307:237|362:270|401:329|401:329|338:298|298:244|298:244|348:289|377:352|377:352|321:311|290:250|290:250|332:304|350:370|350:370|300:322|281:255|281:255|312:316|317:383|317:383|278:329|273:258,1,9211.99971887208,4|0,0:0|0:0,0:0:0:0:
61,339,26921,6,0,L|35:365,4,35.2499989242554
107,212,27113,1,0,0:0:0:0:
107,212,27176,6,0,L|73:74,1,140.999995697022,6|0,0:0|0:0,0:0:0:0:
405,172,27432,2,0,L|438:309,1,140.999995697022,2|0,0:0|0:0,0:0:0:0:
267,81,27687,6,0,P|313:28|380:8,1,140.999995697022,2|0,0:0|0:0,0:0:0:0:
244,302,27942,2,0,P|198:355|131:375,1,140.999995697022,2|0,0:0|0:0,0:0:0:0:
342,358,28198,1,2,0:0:0:0:
170,26,28453,5,2,0:0:0:0:
375,54,28581,1,2,0:0:0:0:
111,96,28708,1,2,0:0:0:0:
388,304,28964,6,0,B|336:348|256:304|256:304|176:348|124:304,2,281.999991394043,2|2|2,0:0|0:0|0:0,0:0:0:0:
455,115,29730,5,10,0:0:0:0:
418,72,29793,1,8,0:0:0:0:
367,46,29857,1,8,0:0:0:0:
312,32,29921,1,8,0:0:0:0:
255,29,29985,1,10,0:0:0:0:
198,32,30049,1,8,0:0:0:0:
143,46,30113,1,8,0:0:0:0:
92,72,30177,1,8,0:0:0:0:
55,115,30240,2,0,L|32:143,10,35.2499989242554,2|0|0|0|0|0|0|0|0|0|0,0:0|0:0|0:0|0:0|0:0|0:0|0:0|0:0|0:0|0:0|0:0,0:0:0:0:
255,267,30623,5,0,0:0:0:0:
255,267,30687,2,0,L|256:285,4,17.6249994621277
321,154,30815,5,0,0:0:0:0:
321,154,30879,2,0,L|336:145,4,17.6249994621277
190,154,31006,5,0,0:0:0:0:
190,154,31070,2,0,L|175:145,8,17.6249994621277
95,223,31262,6,0,P|256:366|416:223,1,470,4|0,0:0|0:0,0:0:0:0:
