osu file format v14

[General]
AudioFilename: [SDVX] [NOFX].mp3
AudioLeadIn: 0
PreviewTime: 66116
Countdown: 0
SampleSet: Soft
StackLeniency: 0.7
Mode: 3
LetterboxInBreaks: 0
SpecialStyle: 0
WidescreenStoryboard: 0

[Editor]
DistanceSpacing: 1.2
BeatDivisor: 4
GridSize: 8
TimelineZoom: 0.8

[Metadata]
Title:Toaru Shounen no Ichinichi
TitleUnicode:とある少年の一日
Artist:Cyoucyo-P
ArtistUnicode:蝶々P
Creator:ByeForNow
Version:BASIC
Source:SOUND VOLTEX BOOTH
Tags:papiyon SDVX KONAMI BEMANI Vocaloid Hatsune Miku
BeatmapID:968400
BeatmapSetID:375607

[Difficulty]
HPDrainRate:6.5
CircleSize:4
OverallDifficulty:6.5
ApproachRate:5
SliderMultiplier:1.4
SliderTickRate:1

[Events]
//Background and Video events
0,0,"BG.png",0,0
//Break Periods
//Storyboard Layer 0 (Background)
//Storyboard Layer 1 (Fail)
//Storyboard Layer 2 (Pass)
//Storyboard Layer 3 (Foreground)
//Storyboard Sound Samples
Sample,14145,0,"DrumFinish.wav",40
Sample,41187,0,"DrumFinish.wav",20
Sample,41398,0,"+++.wav",40
Sample,41503,0,"++.wav",40
Sample,43616,0,"+++.wav",40
Sample,43722,0,"++.wav",40
Sample,45412,0,"DrumFinish.wav",25
Sample,45729,0,"+++.wav",40
Sample,45834,0,"++.wav",40
Sample,47841,0,"+++.wav",40
Sample,47947,0,"++.wav",40
Sample,57665,0,"DrumFinish.wav",25
Sample,64426,0,"DrumFinish.wav",20
Sample,66116,0,"DrumFinish.wav",25
Sample,66327,0,"DrumFinish.wav",25
Sample,66855,0,"DrumFinish.wav",25
Sample,72665,0,"KK.wav",35
Sample,72771,0,"KK.wav",35
Sample,72876,0,"DrumFinish.wav",25
Sample,73088,0,"DrumFinish.wav",25
Sample,73616,0,"DrumFinish.wav",25
Sample,74566,0,"DrumFinish.wav",25
Sample,76257,0,"DrumFinish.wav",25
Sample,79637,0,"DrumFinish.wav",25
Sample,79848,0,"DrumFinish.wav",25
Sample,80376,0,"DrumFinish.wav",25
Sample,83017,0,"DrumFinish.wav",25
Sample,86186,0,"KK.wav",35
Sample,86292,0,"KK.wav",35
Sample,86397,0,"DrumFinish.wav",25
Sample,86609,0,"DrumFinish.wav",25
Sample,87137,0,"DrumFinish.wav",25
Sample,88088,0,"DrumFinish.wav",25
Sample,89778,0,"DrumFinish.wav",25

[TimingPoints]
624.07518050787,422.535211267606,4,2,1,30,1,0
41187,422.535211267606,5,2,1,30,1,0
50905,422.535211267606,4,2,1,30,1,0
66116,-100,4,2,1,30,0,1
92947,-100,4,2,1,30,0,0

[HitObjects]
64,192,624,5,0,0:0:0:0:
448,192,835,1,0,0:0:0:0:
320,192,1469,1,0,0:0:0:0:
192,192,2314,1,0,0:0:0:0:
448,192,2525,1,0,0:0:0:0:
320,192,3159,1,0,0:0:0:0:
64,192,4004,1,0,0:0:0:0:
448,192,4215,1,0,0:0:0:0:
320,192,4849,1,0,0:0:0:0:
192,192,5694,1,0,0:0:0:0:
448,192,5905,1,0,0:0:0:0:
320,192,6539,1,0,0:0:0:0:
64,192,6962,1,0,0:0:0:0:
192,192,7384,1,0,0:0:0:0:
448,192,7595,1,0,0:0:0:0:
320,192,8229,1,0,0:0:0:0:
64,192,9074,1,0,0:0:0:0:
448,192,9286,1,0,0:0:0:0:
320,192,9919,1,0,0:0:0:0:
192,192,10764,1,0,0:0:0:0:
448,192,10976,1,0,0:0:0:0:
320,192,11609,1,0,0:0:0:0:
64,192,12455,1,0,0:0:0:0:
320,192,12666,1,0,0:0:0:0:
448,192,13300,1,0,0:0:0:0:
192,192,13722,1,0,0:0:0:40:DrumHigh.wav
64,192,14145,1,0,0:0:0:40:DrumLow.wav
448,192,14356,1,0,0:0:0:40:DrumHigh.wav
320,192,14673,1,0,0:0:0:40:DrumHigh.wav
192,192,14990,1,0,0:0:0:40:DrumHigh.wav
320,192,15307,1,0,0:0:0:40:DrumHigh.wav
448,192,15624,1,0,0:0:0:40:DrumHigh.wav
64,192,15835,1,0,0:0:0:40:DrumLow.wav
192,192,16046,1,0,0:0:0:40:DrumHigh.wav
320,192,16363,1,0,0:0:0:40:DrumHigh.wav
192,192,16680,1,0,0:0:0:40:DrumHigh.wav
448,192,16891,1,0,0:0:0:50:DrumHigh.wav
64,192,17102,1,0,0:0:0:30:DrumHigh.wav
320,192,17314,1,0,0:0:0:40:DrumHigh.wav
64,192,17525,1,0,0:0:0:40:DrumLow.wav
448,192,17736,1,0,0:0:0:40:DrumHigh.wav
192,192,18053,1,0,0:0:0:40:DrumHigh.wav
320,192,18370,1,0,0:0:0:40:DrumHigh.wav
448,192,18687,1,0,0:0:0:40:DrumHigh.wav
448,192,19004,1,0,0:0:0:40:DrumHigh.wav
64,192,19215,1,0,0:0:0:40:DrumLow.wav
192,192,19426,1,0,0:0:0:40:DrumHigh.wav
320,192,19743,1,0,0:0:0:40:DrumHigh.wav
448,192,20060,1,0,0:0:0:50:DrumHigh.wav
320,192,20271,1,0,0:0:0:45:DrumHigh.wav
192,192,20483,1,0,0:0:0:40:DrumHigh.wav
64,192,20694,1,0,0:0:0:35:DrumHigh.wav
192,192,20905,1,0,0:0:0:40:DrumLow.wav
448,192,21117,1,0,0:0:0:40:DrumHigh.wav
64,192,21433,1,0,0:0:0:40:DrumHigh.wav
320,192,21750,1,0,0:0:0:40:DrumHigh.wav
448,192,22067,1,0,0:0:0:40:DrumHigh.wav
448,192,22384,1,0,0:0:0:40:DrumHigh.wav
64,192,22595,1,0,0:0:0:40:DrumLow.wav
320,192,22807,1,0,0:0:0:40:DrumHigh.wav
192,192,23124,1,0,0:0:0:40:DrumHigh.wav
320,192,23440,1,0,0:0:0:40:DrumHigh.wav
448,192,23652,1,0,0:0:0:50:DrumHigh.wav
64,192,23863,1,0,0:0:0:30:DrumHigh.wav
192,192,24074,1,0,0:0:0:40:DrumHigh.wav
320,192,24286,1,0,0:0:0:40:DrumLow.wav
448,192,24497,1,0,0:0:0:40:DrumHigh.wav
64,192,24814,1,0,0:0:0:40:DrumHigh.wav
192,192,25131,1,0,0:0:0:40:DrumHigh.wav
320,192,25448,1,0,0:0:0:40:DrumHigh.wav
320,192,25764,1,0,0:0:0:40:DrumHigh.wav
64,192,25976,1,0,0:0:0:35:K.wav
64,192,26187,1,0,0:0:0:35:K.wav
448,192,26398,1,0,0:0:0:35:KK.wav
448,192,26609,1,0,0:0:0:35:KK.wav
192,192,26821,1,0,0:0:0:35:K.wav
320,192,27243,128,0,27666:0:0:0:0:
448,192,27666,1,0,0:0:0:40:DrumLow.wav
64,192,27666,1,0,0:0:0:40:DrumFinish.wav
192,192,28088,1,0,0:0:0:25:DrumLow.wav
320,192,28933,1,0,0:0:0:25:DrumLow.wav
64,192,29779,1,0,0:0:0:25:DrumLow.wav
192,192,30624,1,0,0:0:0:25:DrumLow.wav
320,192,30835,1,0,0:0:0:25:DrumLow.wav
448,192,31046,1,0,0:0:0:25:DrumLow.wav
192,192,31469,1,0,0:0:0:25:DrumLow.wav
64,192,32314,1,0,0:0:0:25:DrumLow.wav
320,192,33159,1,0,0:0:0:25:DrumLow.wav
192,192,34004,1,0,0:0:0:25:DrumLow.wav
64,192,34215,1,0,0:0:0:30:DrumHigh.wav
448,192,34426,1,0,0:0:0:25:DrumHigh.wav
320,192,34849,1,0,0:0:0:0:
192,192,35271,1,0,0:0:0:20:DrumLow.wav
64,192,35694,1,0,0:0:0:25:DrumHigh.wav
448,192,36117,1,0,0:0:0:25:DrumLow.wav
192,192,36539,1,0,0:0:0:25:DrumLow.wav
448,192,36962,1,0,0:0:0:15:TomLow.wav
192,192,37384,1,0,0:0:0:20:DrumLow.wav
64,192,37807,1,0,0:0:0:20:DrumLow.wav
320,192,38018,1,0,0:0:0:20:DrumHigh.wav
192,192,38440,1,0,0:0:0:20:DrumFinish.wav
448,192,38440,1,0,0:0:0:20:DrumHigh.wav
320,192,39074,1,0,0:0:0:25:DrumHigh.wav
64,192,39497,1,0,0:0:0:20:TomLow.wav
448,192,39919,1,0,0:0:0:20:DrumLow.wav
320,192,40342,1,0,0:0:0:20:DrumLow.wav
64,192,40659,1,0,0:0:0:20:DrumLow.wav
192,192,40976,1,0,0:0:0:20:DrumHigh.wav
448,192,41187,128,0,41820:0:0:0:35:===.wav
320,192,41820,128,0,42243:0:0:0:35:==.wav
64,192,42243,128,0,42665:0:0:0:35:=.wav
192,192,42665,128,0,43299:0:0:0:35:==.wav
448,192,43299,128,0,43933:0:0:0:35:===.wav
192,192,43933,128,0,44356:0:0:0:35:==.wav
64,192,44356,128,0,44778:0:0:0:35:=.wav
320,192,44778,128,0,45412:0:0:0:35:==.wav
448,192,45412,128,0,46046:0:0:0:35:===.wav
320,192,46046,128,0,46468:0:0:0:35:==.wav
64,192,46468,128,0,46891:0:0:0:35:=.wav
192,192,46891,128,0,47525:0:0:0:35:==.wav
448,192,47525,128,0,48158:0:0:0:35:===.wav
320,192,48158,128,0,48581:0:0:0:35:==.wav
64,192,48581,128,0,49003:0:0:0:35:=.wav
320,192,49003,128,0,49215:0:0:0:35:==.wav
192,192,49215,128,0,49637:0:0:0:30:DrumHigh.wav
448,192,49637,1,0,0:0:0:40:--.wav
64,192,49848,1,0,0:0:0:40:-.wav
64,192,50165,1,0,0:0:0:40:-.wav
448,192,50482,1,0,0:0:0:40:--.wav
320,192,50905,1,0,0:0:0:25:DrumLow.wav
64,192,50905,1,0,0:0:0:25:DrumFinish.wav
192,192,51327,1,0,0:0:0:25:DrumLow.wav
448,192,51855,1,0,0:0:0:25:DrumHigh.wav
64,192,52383,1,0,0:0:0:25:DrumHigh.wav
320,192,53017,1,0,0:0:0:25:DrumLow.wav
320,192,53862,1,0,0:0:0:25:DrumLow.wav
192,192,54285,1,0,0:0:0:25:DrumHigh.wav
320,192,54707,1,0,0:0:0:25:DrumLow.wav
448,192,55235,1,0,0:0:0:25:DrumLow.wav
192,192,55975,1,0,0:0:0:15:TomLow.wav
448,192,56397,1,0,0:0:0:25:DrumLow.wav
320,192,57243,1,0,0:0:0:25:DrumLow.wav
64,192,57665,1,0,0:0:0:25:DrumHigh.wav
448,192,58088,1,0,0:0:0:0:
320,192,58510,1,0,0:0:0:20:DrumLow.wav
192,192,58933,1,0,0:0:0:25:DrumLow.wav
320,192,59355,1,0,0:0:0:20:DrumLow.wav
448,192,59778,1,0,0:0:0:25:DrumLow.wav
192,192,60623,1,0,0:0:0:25:DrumHigh.wav
64,192,61045,1,0,0:0:0:25:DrumHigh.wav
320,192,61468,1,0,0:0:0:10:TomHigh.wav
448,192,61890,1,0,0:0:0:25:DrumHigh.wav
320,192,62313,1,0,0:0:0:20:TomMed.wav
64,192,62735,128,0,63581:0:0:0:20:TomLow.wav
448,192,63581,128,0,64426:0:0:0:20:DrumLow.wav
192,192,64426,1,0,0:0:0:35:--.wav
192,192,64848,1,0,0:0:0:35:--.wav
320,192,65271,1,0,0:0:0:35:---.wav
320,192,65693,1,0,0:0:0:35:---.wav
64,192,66116,1,0,0:0:0:15:DrumLow.wav
448,192,66116,1,0,0:0:0:15:DrumLow.wav
192,192,66327,1,0,0:0:0:30:DrumHigh.wav
448,192,66855,1,0,0:0:0:30:DrumHigh.wav
320,192,67172,1,0,0:0:0:30:DrumHigh.wav
64,192,67383,1,0,0:0:0:30:DrumHigh.wav
448,192,67806,1,0,0:0:0:30:DrumLow.wav
192,192,68228,1,0,0:0:0:30:DrumLow.wav
320,192,68651,1,0,0:0:0:0:
64,192,69074,1,0,0:0:0:30:DrumHigh.wav
192,192,69496,1,0,0:0:0:30:DrumHigh.wav
448,192,69919,1,0,0:0:0:30:DrumLow.wav
320,192,70341,1,0,0:0:0:0:
192,192,70764,1,0,0:0:0:30:DrumHigh.wav
64,192,71186,1,0,0:0:0:25:DrumLow.wav
320,192,71609,1,0,0:0:0:30:DrumLow.wav
448,192,71926,1,0,0:0:0:35:K.wav
320,192,72137,1,0,0:0:0:35:KK.wav
192,192,72348,1,0,0:0:0:35:KK.wav
64,192,72559,128,0,72876:0:0:0:35:KK.wav
192,192,72876,1,0,0:0:0:30:DrumLow.wav
320,192,73088,1,0,0:0:0:30:DrumHigh.wav
448,192,73616,1,0,0:0:0:30:DrumHigh.wav
64,192,74144,1,0,0:0:0:30:DrumHigh.wav
320,192,74566,1,0,0:0:0:30:DrumHigh.wav
192,192,74989,1,0,0:0:0:30:DrumLow.wav
448,192,75412,1,0,0:0:0:0:
64,192,75834,1,0,0:0:0:30:DrumHigh.wav
192,192,76257,1,0,0:0:0:30:DrumHigh.wav
320,192,76679,1,0,0:0:0:30:DrumHigh.wav
448,192,76996,1,0,0:0:0:30:DrumHigh.wav
192,192,77524,1,0,0:0:0:30:DrumHigh.wav
64,192,77947,1,0,0:0:0:30:DrumHigh.wav
320,192,78369,1,0,0:0:0:30:DrumHigh.wav
192,192,78686,128,0,79214:0:0:0:30:DrumHigh.wav
448,192,79214,128,0,79637:0:0:0:30:DrumHigh.wav
64,192,79637,1,0,0:0:0:30:DrumLow.wav
192,192,79848,1,0,0:0:0:30:DrumHigh.wav
448,192,80376,1,0,0:0:0:30:DrumHigh.wav
320,192,80693,1,0,0:0:0:30:DrumHigh.wav
64,192,80905,1,0,0:0:0:30:DrumHigh.wav
448,192,81327,1,0,0:0:0:30:DrumLow.wav
192,192,81750,1,0,0:0:0:30:DrumLow.wav
448,192,82172,1,0,0:0:0:0:
320,192,82595,1,0,0:0:0:30:DrumHigh.wav
64,192,83017,1,0,0:0:0:30:DrumHigh.wav
192,192,83440,1,0,0:0:0:30:DrumLow.wav
320,192,83757,1,0,0:0:0:30:DrumHigh.wav
448,192,84285,1,0,0:0:0:30:DrumHigh.wav
320,192,84707,1,0,0:0:0:25:DrumLow.wav
192,192,85130,1,0,0:0:0:30:DrumLow.wav
64,192,85447,1,0,0:0:0:35:K.wav
192,192,85658,1,0,0:0:0:35:KK.wav
320,192,85869,1,0,0:0:0:35:KK.wav
448,192,86081,128,0,86397:0:0:0:35:KK.wav
64,192,86397,1,0,0:0:0:30:DrumLow.wav
192,192,86609,1,0,0:0:0:30:DrumHigh.wav
448,192,87137,1,0,0:0:0:30:DrumHigh.wav
320,192,87665,1,0,0:0:0:30:DrumHigh.wav
64,192,88088,1,0,0:0:0:30:DrumHigh.wav
320,192,88510,1,0,0:0:0:30:DrumLow.wav
448,192,88933,1,0,0:0:0:0:
192,192,89355,1,0,0:0:0:30:DrumHigh.wav
64,192,89778,1,0,0:0:0:30:DrumHigh.wav
448,192,90200,1,0,0:0:0:30:DrumHigh.wav
192,192,90517,1,0,0:0:0:30:DrumHigh.wav
320,192,91045,1,0,0:0:0:30:DrumHigh.wav
64,192,91468,1,0,0:0:0:30:DrumHigh.wav
448,192,91890,1,0,0:0:0:30:DrumHigh.wav
320,192,92313,1,0,0:0:0:30:DrumHigh.wav
192,192,92630,1,0,0:0:0:30:DrumHigh.wav
64,192,92947,128,0,94848:0:0:0:30:DrumHigh.wav
448,192,92947,1,0,0:0:0:25:DrumFinish.wav
