osu file format v14

[General]
AudioFilename: mp3.mp3
AudioLeadIn: 0
PreviewTime: 26570
Countdown: 0
SampleSet: Soft
StackLeniency: 0.7
Mode: 3
LetterboxInBreaks: 0
SpecialStyle: 0
WidescreenStoryboard: 0

[Editor]
DistanceSpacing: 1
BeatDivisor: 4
GridSize: 32
TimelineZoom: 1.5

[Metadata]
Title:Tenkuu no Yoake
TitleUnicode:天空の夜明け
Artist:Cuvelia
ArtistUnicode:Cuvelia
Creator:ZZHBOY
Version:Another
Source:beatmania IIDX 19 Lincle
Tags:KONAMI BEMANI dj TAKA fanzhen0019 Last Dance Sky High pop'n music Sunny Park REFLEC BEAT limelight plus ポップンリズミン the dawn of the sky
BeatmapID:1083841
BeatmapSetID:509694

[Difficulty]
HPDrainRate:8
CircleSize:4
OverallDifficulty:8
ApproachRate:5
SliderMultiplier:1.4
SliderTickRate:1

[Events]
//Background and Video events
0,0,"BG.png",0,0
//Break Periods
//Storyboard Layer 0 (Background)
//Storyboard Layer 1 (Fail)
//Storyboard Layer 2 (Pass)
//Storyboard Layer 3 (Foreground)
//Storyboard Sound Samples

[TimingPoints]
1580,400,4,2,1,30,1,0

[HitObjects]
320,192,14380,5,0,0:0:0:0:
32,192,14380,1,0,0:0:0:0:
480,192,14380,1,0,0:0:0:0:
192,192,14480,1,0,0:0:0:0:
416,192,14580,1,0,0:0:0:0:
64,192,14680,1,0,0:0:0:0:
192,192,14780,1,0,0:0:0:0:
416,192,14880,1,0,0:0:0:0:
448,192,14980,1,0,0:0:0:0:
64,192,15080,1,0,0:0:0:0:
192,192,15180,1,0,0:0:0:0:
416,192,15280,1,0,0:0:0:0:
64,192,15380,1,0,0:0:0:0:
192,192,15480,1,0,0:0:0:0:
416,192,15580,1,0,0:0:0:0:
64,192,15680,1,0,0:0:0:0:
192,192,15780,1,0,0:0:0:0:
416,192,15880,1,0,0:0:0:0:
96,192,15980,1,0,0:0:0:0:
288,192,15980,1,0,0:0:0:0:
224,192,16080,1,0,0:0:0:0:
352,192,16180,1,0,0:0:0:0:
96,192,16280,1,0,0:0:0:0:
224,192,16380,1,0,0:0:0:0:
352,192,16480,1,0,0:0:0:0:
288,192,16580,1,0,0:0:0:0:
64,192,16680,1,0,0:0:0:0:
224,192,16780,1,0,0:0:0:0:
352,192,16880,1,0,0:0:0:0:
96,192,16980,1,0,0:0:0:0:
224,192,17080,1,0,0:0:0:0:
352,192,17180,1,0,0:0:0:0:
96,192,17280,1,0,0:0:0:0:
224,192,17380,1,0,0:0:0:0:
352,192,17480,1,0,0:0:0:0:
96,192,17580,1,0,0:0:0:0:
448,192,17580,1,0,0:0:0:0:
224,192,17680,1,0,0:0:0:0:
416,192,17780,1,0,0:0:0:0:
96,192,17880,1,0,0:0:0:0:
224,192,17980,1,0,0:0:0:0:
416,192,18080,1,0,0:0:0:0:
448,192,18180,1,0,0:0:0:0:
224,192,18280,1,0,0:0:0:0:
416,192,18380,1,0,0:0:0:0:
64,192,18480,1,0,0:0:0:0:
192,192,18580,1,0,0:0:0:0:
448,192,18680,1,0,0:0:0:0:
416,192,18780,1,0,0:0:0:0:
160,192,18880,1,0,0:0:0:0:
288,192,18980,1,0,0:0:0:0:
416,192,19080,1,0,0:0:0:0:
96,192,19180,1,0,0:0:0:0:
320,192,19180,1,0,0:0:0:0:
224,192,19280,1,0,0:0:0:0:
288,192,19380,1,0,0:0:0:0:
416,192,19480,1,0,0:0:0:0:
160,192,19580,1,0,0:0:0:0:
288,192,19680,1,0,0:0:0:0:
192,192,19780,1,0,0:0:0:0:
320,192,19880,1,0,0:0:0:0:
480,192,19980,1,0,0:0:0:0:
160,192,20080,1,0,0:0:0:0:
64,192,20180,1,0,0:0:0:0:
416,192,20280,1,0,0:0:0:0:
480,192,20380,1,0,0:0:0:0:
224,192,20480,1,0,0:0:0:0:
352,192,20580,1,0,0:0:0:0:
480,192,20680,1,0,0:0:0:0:
96,192,20780,1,0,0:0:0:0:
224,192,20780,1,0,0:0:0:0:
320,192,20880,1,0,0:0:0:0:
416,192,20880,1,0,0:0:0:0:
64,192,20980,1,0,0:0:0:0:
192,192,20980,1,0,0:0:0:0:
448,192,21380,1,0,0:0:0:0:
320,192,21380,1,0,0:0:0:0:
64,192,21480,1,0,0:0:0:0:
192,192,21480,1,0,0:0:0:0:
192,192,21580,1,0,0:0:0:0:
64,192,21580,1,0,0:0:0:0:
320,192,21680,1,0,0:0:0:0:
448,192,21680,1,0,0:0:0:0:
192,192,21780,1,0,0:0:0:0:
64,192,21780,1,0,0:0:0:0:
320,192,22180,1,0,0:0:0:0:
64,192,22180,1,0,0:0:0:0:
192,192,22280,1,0,0:0:0:0:
480,192,22280,1,0,0:0:0:0:
192,192,22380,1,0,0:0:0:0:
448,192,22380,1,0,0:0:0:0:
64,192,22480,1,0,0:0:0:0:
320,192,22480,1,0,0:0:0:0:
192,192,22580,1,0,0:0:0:0:
480,192,22580,1,0,0:0:0:0:
160,192,22980,1,0,0:0:0:0:
416,192,22980,1,0,0:0:0:0:
96,192,23080,1,0,0:0:0:0:
352,192,23080,1,0,0:0:0:0:
64,192,23180,1,0,0:0:0:0:
320,192,23180,1,0,0:0:0:0:
192,192,23280,1,0,0:0:0:0:
480,192,23280,1,0,0:0:0:0:
64,192,23380,1,0,0:0:0:0:
352,192,23380,1,0,0:0:0:0:
224,192,23780,1,0,0:0:0:0:
64,192,23780,1,0,0:0:0:0:
288,192,23880,1,0,0:0:0:0:
480,192,23880,1,0,0:0:0:0:
448,192,23980,1,0,0:0:0:0:
352,192,23980,1,0,0:0:0:0:
160,192,24080,1,0,0:0:0:0:
64,192,24080,1,0,0:0:0:0:
288,192,24180,1,0,0:0:0:0:
480,192,24180,1,0,0:0:0:0:
448,192,24580,1,0,0:0:0:0:
352,192,24580,1,0,0:0:0:0:
160,192,24680,1,0,0:0:0:0:
64,192,24680,1,0,0:0:0:0:
224,192,24780,1,0,0:0:0:0:
64,192,24780,1,0,0:0:0:0:
448,192,24880,1,0,0:0:0:0:
352,192,24880,1,0,0:0:0:0:
64,192,24980,1,0,0:0:0:0:
192,192,24980,1,0,0:0:0:0:
160,192,25380,1,0,0:0:0:0:
320,192,25380,1,0,0:0:0:0:
64,192,25480,1,0,0:0:0:0:
480,192,25480,1,0,0:0:0:0:
64,192,25580,1,0,0:0:0:0:
448,192,25580,1,0,0:0:0:0:
160,192,25680,1,0,0:0:0:0:
320,192,25680,1,0,0:0:0:0:
64,192,25780,1,0,0:0:0:0:
480,192,25780,1,0,0:0:0:0:
96,192,26180,1,0,0:0:0:0:
480,192,26180,1,0,0:0:0:0:
288,192,26280,1,0,0:0:0:0:
192,192,26280,1,0,0:0:0:0:
192,192,26380,1,0,0:0:0:0:
320,192,26380,1,0,0:0:0:0:
64,192,26480,1,0,0:0:0:0:
448,192,26480,1,0,0:0:0:0:
320,192,26580,128,0,26780:0:0:0:0:
192,192,26580,128,0,26780:0:0:0:0:
64,192,26980,1,0,0:0:0:0:
192,192,26980,1,0,0:0:0:0:
320,192,27080,1,0,0:0:0:0:
480,192,27080,1,0,0:0:0:0:
192,192,27180,1,2,0:0:0:0:
64,192,27180,1,4,0:0:0:0:
448,192,27180,1,0,0:0:0:0:
352,192,27380,1,0,0:0:0:0:
64,192,27480,1,0,0:0:0:0:
480,192,27480,1,0,0:0:0:0:
192,192,27580,1,0,0:0:0:0:
320,192,27780,1,0,0:0:0:0:
480,192,27780,1,0,0:0:0:0:
192,192,27980,1,0,0:0:0:0:
448,192,27980,1,0,0:0:0:0:
64,192,28180,1,0,0:0:0:0:
320,192,28180,1,0,0:0:0:0:
160,192,28380,1,0,0:0:0:0:
480,192,28380,1,0,0:0:0:0:
64,192,28580,1,0,0:0:0:0:
320,192,28580,1,0,0:0:0:0:
192,192,28780,1,0,0:0:0:0:
416,192,28780,1,0,0:0:0:0:
192,192,28980,1,0,0:0:0:0:
96,192,29080,1,0,0:0:0:0:
416,192,29080,1,0,0:0:0:0:
320,192,29180,1,0,0:0:0:0:
64,192,29380,1,0,0:0:0:0:
416,192,29380,1,0,0:0:0:0:
288,192,29580,1,0,0:0:0:0:
192,192,29680,1,0,0:0:0:0:
192,192,29880,1,0,0:0:0:0:
192,192,30080,1,0,0:0:0:0:
320,192,30180,1,0,0:0:0:0:
448,192,30280,1,0,0:0:0:0:
64,192,30380,1,0,0:0:0:0:
192,192,30380,1,0,0:0:0:0:
192,192,30580,1,0,0:0:0:0:
96,192,30680,1,0,0:0:0:0:
448,192,30680,1,0,0:0:0:0:
320,192,30780,1,0,0:0:0:0:
160,192,30980,1,0,0:0:0:0:
448,192,30980,1,0,0:0:0:0:
64,192,31180,1,0,0:0:0:0:
416,192,31180,1,0,0:0:0:0:
64,192,31380,1,0,0:0:0:0:
416,192,31380,1,0,0:0:0:0:
64,192,31580,1,0,0:0:0:0:
416,192,31580,1,0,0:0:0:0:
64,192,31780,1,0,0:0:0:0:
416,192,31780,1,0,0:0:0:0:
352,192,31980,1,0,0:0:0:0:
192,192,31980,1,0,0:0:0:0:
64,192,32180,1,0,0:0:0:0:
192,192,32280,1,0,0:0:0:0:
448,192,32280,1,0,0:0:0:0:
288,192,32380,1,0,0:0:0:0:
64,192,32580,1,0,0:0:0:0:
480,192,32580,1,0,0:0:0:0:
192,192,32780,1,0,0:0:0:0:
320,192,32880,1,0,0:0:0:0:
320,192,33080,1,0,0:0:0:0:
320,192,33280,1,0,0:0:0:0:
192,192,33380,1,0,0:0:0:0:
64,192,33580,1,8,0:0:0:0:
480,192,33580,1,0,0:0:0:0:
192,192,33680,1,8,0:0:0:0:
320,192,33780,1,8,0:0:0:0:
96,192,33880,1,8,0:0:0:0:
448,192,33880,1,0,0:0:0:0:
192,192,33980,1,8,0:0:0:0:
320,192,34080,1,8,0:0:0:0:
448,192,34180,1,0,0:0:0:0:
64,192,34180,1,8,0:0:0:0:
288,192,34280,1,8,0:0:0:0:
224,192,34380,1,8,0:0:0:0:
64,192,34380,1,0,0:0:0:0:
320,192,34480,1,8,0:0:0:0:
224,192,34580,1,8,0:0:0:0:
64,192,34580,1,0,0:0:0:0:
320,192,34680,1,8,0:0:0:0:
224,192,34780,1,8,0:0:0:0:
64,192,34780,1,0,0:0:0:0:
320,192,34880,1,8,0:0:0:0:
224,192,34980,1,8,0:0:0:0:
64,192,34980,1,0,0:0:0:0:
320,192,35080,1,8,0:0:0:0:
64,192,35180,1,0,0:0:0:0:
480,192,35180,1,8,0:0:0:0:
320,192,35280,1,8,0:0:0:0:
192,192,35380,1,8,0:0:0:0:
96,192,35480,1,0,0:0:0:0:
480,192,35480,1,8,0:0:0:0:
320,192,35580,1,8,0:0:0:0:
192,192,35680,1,8,0:0:0:0:
64,192,35780,1,0,0:0:0:0:
480,192,35780,1,8,0:0:0:0:
320,192,35880,1,8,0:0:0:0:
192,192,35980,1,8,0:0:0:0:
448,192,36080,1,0,0:0:0:0:
320,192,36080,1,8,0:0:0:0:
224,192,36180,1,8,0:0:0:0:
320,192,36280,1,8,0:0:0:0:
480,192,36280,1,0,0:0:0:0:
192,192,36380,1,8,0:0:0:0:
320,192,36480,1,8,0:0:0:0:
64,192,36480,1,0,0:0:0:0:
448,192,36580,1,8,0:0:0:0:
192,192,36580,1,0,0:0:0:0:
320,192,36680,1,8,0:0:0:0:
64,192,36780,1,0,0:0:0:0:
448,192,36780,1,8,0:0:0:0:
64,192,36980,1,8,0:0:0:0:
192,192,37030,1,8,0:0:0:0:
320,192,37080,1,8,0:0:0:0:
448,192,37130,1,8,0:0:0:0:
64,192,37180,1,8,0:0:0:0:
480,192,37380,1,8,0:0:0:0:
352,192,37430,1,8,0:0:0:0:
224,192,37480,1,8,0:0:0:0:
96,192,37530,1,8,0:0:0:0:
480,192,37580,1,8,0:0:0:0:
352,192,37630,1,8,0:0:0:0:
224,192,37680,1,8,0:0:0:0:
96,192,37730,1,8,0:0:0:0:
480,192,37780,1,8,0:0:0:0:
352,192,37830,1,8,0:0:0:0:
224,192,37880,1,8,0:0:0:0:
96,192,37930,1,8,0:0:0:0:
480,192,37980,1,8,0:0:0:0:
352,192,38030,1,8,0:0:0:0:
224,192,38080,1,8,0:0:0:0:
96,192,38130,1,8,0:0:0:0:
480,192,38180,1,8,0:0:0:0:
352,192,38230,1,8,0:0:0:0:
224,192,38280,1,8,0:0:0:0:
96,192,38330,1,8,0:0:0:0:
320,192,38380,1,10,0:0:0:0:
480,192,38380,1,4,0:0:0:0:
192,192,38580,1,0,0:0:0:0:
64,192,38680,1,0,0:0:0:0:
320,192,38780,1,0,0:0:0:0:
480,192,38980,1,0,0:0:0:0:
160,192,39180,1,2,0:0:0:0:
64,192,39280,1,0,0:0:0:0:
448,192,39480,1,8,0:0:0:0:
320,192,39580,1,8,0:0:0:0:
192,192,39680,1,0,0:0:0:0:
320,192,39780,1,0,0:0:0:0:
64,192,39980,1,2,0:0:0:0:
448,192,39980,1,4,0:0:0:0:
192,192,39980,1,0,0:0:0:0:
320,192,40046,1,0,0:0:0:0:
192,192,40113,1,0,0:0:0:0:
64,192,40180,1,0,0:0:0:0:
320,192,40246,1,0,0:0:0:0:
192,192,40313,1,0,0:0:0:0:
96,192,40380,1,2,0:0:0:0:
448,192,40380,1,0,0:0:0:0:
192,192,40446,1,0,0:0:0:0:
320,192,40513,1,0,0:0:0:0:
448,192,40580,1,0,0:0:0:0:
64,192,40646,1,0,0:0:0:0:
160,192,40713,1,0,0:0:0:0:
448,192,40780,1,2,0:0:0:0:
288,192,40780,1,0,0:0:0:0:
64,192,40880,1,0,0:0:0:0:
192,192,40980,1,0,0:0:0:0:
320,192,40980,1,0,0:0:0:0:
64,192,41080,1,0,0:0:0:0:
448,192,41180,1,2,0:0:0:0:
352,192,41180,1,0,0:0:0:0:
160,192,41280,1,0,0:0:0:0:
64,192,41380,1,0,0:0:0:0:
448,192,41380,1,0,0:0:0:0:
192,192,41480,1,0,0:0:0:0:
448,192,41580,1,2,0:0:0:0:
320,192,41580,1,0,0:0:0:0:
192,192,41646,1,0,0:0:0:0:
64,192,41713,1,0,0:0:0:0:
320,192,41780,1,0,0:0:0:0:
192,192,41846,1,0,0:0:0:0:
64,192,41913,1,0,0:0:0:0:
448,192,41980,1,2,0:0:0:0:
320,192,41980,1,0,0:0:0:0:
192,192,42046,1,0,0:0:0:0:
64,192,42113,1,0,0:0:0:0:
448,192,42180,1,0,0:0:0:0:
288,192,42246,1,0,0:0:0:0:
160,192,42313,1,0,0:0:0:0:
448,192,42380,1,2,0:0:0:0:
64,192,42380,1,0,0:0:0:0:
192,192,42446,1,0,0:0:0:0:
320,192,42513,1,0,0:0:0:0:
64,192,42580,1,0,0:0:0:0:
192,192,42646,1,0,0:0:0:0:
320,192,42713,1,0,0:0:0:0:
64,192,42780,1,2,0:0:0:0:
192,192,42780,1,0,0:0:0:0:
288,192,42846,1,0,0:0:0:0:
448,192,42913,1,0,0:0:0:0:
192,192,42980,1,0,0:0:0:0:
288,192,43046,1,0,0:0:0:0:
448,192,43113,1,0,0:0:0:0:
96,192,43180,1,2,0:0:0:0:
192,192,43180,1,0,0:0:0:0:
416,192,43280,1,0,0:0:0:0:
288,192,43380,1,0,0:0:0:0:
160,192,43480,1,0,0:0:0:0:
64,192,43580,1,2,0:0:0:0:
448,192,43580,1,0,0:0:0:0:
320,192,43680,1,0,0:0:0:0:
192,192,43780,1,0,0:0:0:0:
320,192,43880,1,0,0:0:0:0:
64,192,43980,1,2,0:0:0:0:
448,192,43980,1,0,0:0:0:0:
320,192,44080,1,0,0:0:0:0:
192,192,44180,1,0,0:0:0:0:
64,192,44280,1,0,0:0:0:0:
448,192,44380,1,2,0:0:0:0:
192,192,44380,1,0,0:0:0:0:
320,192,44480,1,0,0:0:0:0:
192,192,44580,1,0,0:0:0:0:
64,192,44680,1,0,0:0:0:0:
448,192,44780,1,2,0:0:0:0:
320,192,44780,1,0,0:0:0:0:
64,192,44846,1,0,0:0:0:0:
160,192,44913,1,0,0:0:0:0:
448,192,44980,1,0,0:0:0:0:
320,192,45046,1,0,0:0:0:0:
192,192,45113,1,0,0:0:0:0:
96,192,45180,1,0,0:0:0:0:
448,192,45180,1,2,0:0:0:0:
192,192,45246,1,0,0:0:0:0:
320,192,45313,1,0,0:0:0:0:
448,192,45380,1,0,0:0:0:0:
288,192,45446,1,0,0:0:0:0:
192,192,45513,1,0,0:0:0:0:
96,192,45580,1,0,0:0:0:0:
448,192,45580,1,2,0:0:0:0:
288,192,45646,1,0,0:0:0:0:
160,192,45713,1,0,0:0:0:0:
448,192,45780,1,0,0:0:0:0:
288,192,45846,1,0,0:0:0:0:
192,192,45913,1,0,0:0:0:0:
96,192,45980,1,0,0:0:0:0:
448,192,45980,1,2,0:0:0:0:
192,192,46046,1,0,0:0:0:0:
320,192,46113,1,0,0:0:0:0:
448,192,46180,1,0,0:0:0:0:
320,192,46246,1,0,0:0:0:0:
192,192,46313,1,0,0:0:0:0:
96,192,46380,1,0,0:0:0:0:
448,192,46380,1,2,0:0:0:0:
288,192,46446,1,0,0:0:0:0:
192,192,46513,1,0,0:0:0:0:
448,192,46580,1,0,0:0:0:0:
288,192,46646,1,0,0:0:0:0:
160,192,46713,1,0,0:0:0:0:
96,192,46780,1,0,0:0:0:0:
448,192,46780,1,2,0:0:0:0:
192,192,46846,1,0,0:0:0:0:
320,192,46913,1,0,0:0:0:0:
64,192,46980,1,0,0:0:0:0:
192,192,47046,1,0,0:0:0:0:
320,192,47113,1,0,0:0:0:0:
96,192,47180,1,0,0:0:0:0:
448,192,47180,1,2,0:0:0:0:
192,192,47280,1,0,0:0:0:0:
480,192,47380,1,0,0:0:0:0:
320,192,47480,1,0,0:0:0:0:
96,192,47580,1,2,0:0:0:0:
192,192,47580,1,0,0:0:0:0:
288,192,47680,1,0,0:0:0:0:
480,192,47780,1,0,0:0:0:0:
192,192,47880,1,0,0:0:0:0:
64,192,47980,1,0,0:0:0:0:
448,192,47980,1,2,0:0:0:0:
320,192,48046,1,0,0:0:0:0:
192,192,48113,1,0,0:0:0:0:
64,192,48180,1,0,0:0:0:0:
320,192,48246,1,0,0:0:0:0:
192,192,48313,1,0,0:0:0:0:
64,192,48380,1,0,0:0:0:0:
448,192,48380,1,2,0:0:0:0:
192,192,48446,1,0,0:0:0:0:
320,192,48513,1,0,0:0:0:0:
448,192,48580,1,0,0:0:0:0:
192,192,48646,1,0,0:0:0:0:
320,192,48713,1,0,0:0:0:0:
64,192,48780,1,0,0:0:0:0:
448,192,48780,1,2,0:0:0:0:
320,192,48846,1,0,0:0:0:0:
192,192,48913,1,0,0:0:0:0:
64,192,48980,1,0,0:0:0:0:
320,192,49046,1,0,0:0:0:0:
192,192,49113,1,0,0:0:0:0:
96,192,49180,1,0,0:0:0:0:
448,192,49180,1,2,0:0:0:0:
192,192,49246,1,0,0:0:0:0:
320,192,49313,1,0,0:0:0:0:
448,192,49380,1,0,0:0:0:0:
192,192,49446,1,0,0:0:0:0:
320,192,49513,1,0,0:0:0:0:
448,192,49580,1,2,0:0:0:0:
64,192,49580,1,0,0:0:0:0:
192,192,49680,1,0,0:0:0:0:
320,192,49780,1,0,0:0:0:0:
192,192,49880,1,0,0:0:0:0:
448,192,49980,1,2,0:0:0:0:
64,192,49980,1,0,0:0:0:0:
320,192,50080,1,0,0:0:0:0:
192,192,50180,1,0,0:0:0:0:
288,192,50280,1,0,0:0:0:0:
96,192,50380,1,0,0:0:0:0:
448,192,50380,1,2,0:0:0:0:
352,192,50480,1,0,0:0:0:0:
224,192,50580,1,0,0:0:0:0:
64,192,50680,1,0,0:0:0:0:
192,192,50780,1,0,0:0:0:0:
448,192,50780,1,2,0:0:0:0:
352,192,50880,1,0,0:0:0:0:
224,192,50980,1,0,0:0:0:0:
64,192,51080,1,0,0:0:0:0:
448,192,51180,1,2,0:0:0:0:
320,192,51180,1,0,0:0:0:0:
64,192,51246,1,0,0:0:0:0:
160,192,51313,1,0,0:0:0:0:
448,192,51380,1,0,0:0:0:0:
288,192,51446,1,0,0:0:0:0:
160,192,51513,1,0,0:0:0:0:
96,192,51580,1,0,0:0:0:0:
448,192,51580,1,2,0:0:0:0:
320,192,51646,1,0,0:0:0:0:
192,192,51713,1,0,0:0:0:0:
64,192,51780,1,0,0:0:0:0:
320,192,51846,1,0,0:0:0:0:
448,192,51913,1,0,0:0:0:0:
192,192,51980,1,2,0:0:0:0:
64,192,51980,1,0,0:0:0:0:
320,192,52046,1,0,0:0:0:0:
448,192,52113,1,0,0:0:0:0:
64,192,52180,1,0,0:0:0:0:
192,192,52180,1,0,0:0:0:0:
288,192,52246,1,0,0:0:0:0:
416,192,52313,1,0,0:0:0:0:
64,192,52380,1,0,0:0:0:0:
192,192,52380,1,2,0:0:0:0:
288,192,52446,1,0,0:0:0:0:
448,192,52513,1,0,0:0:0:0:
96,192,52580,1,0,0:0:0:0:
192,192,52580,1,0,0:0:0:0:
288,192,52646,1,0,0:0:0:0:
416,192,52713,1,0,0:0:0:0:
192,192,52780,1,4,0:0:0:0:
32,192,52780,1,2,0:0:0:0:
448,192,52880,1,0,0:0:0:0:
224,192,52980,1,0,0:0:0:0:
288,192,53080,1,0,0:0:0:0:
96,192,53180,1,0,0:0:0:0:
448,192,53180,1,8,0:0:0:0:
288,192,53280,1,0,0:0:0:0:
224,192,53380,1,0,0:0:0:0:
64,192,53480,1,0,0:0:0:0:
448,192,53580,1,2,0:0:0:0:
320,192,53580,1,0,0:0:0:0:
64,192,53680,1,0,0:0:0:0:
224,192,53780,1,0,0:0:0:0:
288,192,53880,1,0,0:0:0:0:
96,192,53980,1,0,0:0:0:0:
480,192,53980,1,8,0:0:0:0:
224,192,54080,1,0,0:0:0:0:
288,192,54180,1,0,0:0:0:0:
160,192,54280,1,0,0:0:0:0:
96,192,54380,1,2,0:0:0:0:
448,192,54380,128,0,54580:0:0:0:0:
64,192,54580,1,0,0:0:0:0:
224,192,54646,1,0,0:0:0:0:
288,192,54713,1,0,0:0:0:0:
64,192,54780,1,8,0:0:0:0:
448,192,54780,1,0,0:0:0:0:
192,192,54846,1,0,0:0:0:0:
352,192,54913,1,0,0:0:0:0:
64,192,54980,1,0,0:0:0:0:
224,192,55046,1,0,0:0:0:0:
288,192,55113,1,0,0:0:0:0:
96,192,55180,1,2,0:0:0:0:
448,192,55180,1,0,0:0:0:0:
192,192,55246,1,0,0:0:0:0:
352,192,55313,1,0,0:0:0:0:
448,192,55380,1,0,0:0:0:0:
352,192,55446,1,0,0:0:0:0:
160,192,55513,1,0,0:0:0:0:
96,192,55580,1,8,0:0:0:0:
448,192,55580,1,0,0:0:0:0:
320,192,55646,1,0,0:0:0:0:
224,192,55713,1,0,0:0:0:0:
288,192,55780,1,0,0:0:0:0:
224,192,55846,1,0,0:0:0:0:
64,192,55913,1,0,0:0:0:0:
448,192,55980,1,2,0:0:0:0:
224,192,55980,1,0,0:0:0:0:
64,192,56080,1,0,0:0:0:0:
320,192,56180,1,0,0:0:0:0:
448,192,56280,128,0,56480:0:0:0:0:19002\00VI.wav
96,192,56380,1,8,0:0:0:0:
192,192,56380,1,0,0:0:0:0:
320,192,56480,1,0,0:0:0:0:
64,192,56580,1,0,0:0:0:0:
192,192,56680,1,0,0:0:0:0:
320,192,56780,1,0,0:0:0:0:
448,192,56780,1,2,0:0:0:0:
192,192,56880,1,0,0:0:0:0:
64,192,56980,1,0,0:0:0:0:
320,192,57080,1,0,0:0:0:0:
192,192,57180,1,0,0:0:0:0:
64,192,57180,1,8,0:0:0:0:
448,192,57280,1,0,0:0:0:0:
320,192,57380,1,0,0:0:0:0:
192,192,57480,1,0,0:0:0:0:
64,192,57580,1,0,0:0:0:0:
480,192,57580,1,2,0:0:0:0:
288,192,57646,1,0,0:0:0:0:
160,192,57713,1,0,0:0:0:0:
64,192,57780,1,0,0:0:0:0:
320,192,57846,1,0,0:0:0:0:
192,192,57913,1,0,0:0:0:0:
448,192,57980,1,8,0:0:0:0:
64,192,57980,1,0,0:0:0:0:
192,192,58046,1,0,0:0:0:0:
320,192,58113,1,0,0:0:0:0:
448,192,58180,1,0,0:0:0:0:
192,192,58246,1,0,0:0:0:0:
320,192,58313,1,0,0:0:0:0:
64,192,58380,1,2,0:0:0:0:
448,192,58380,1,0,0:0:0:0:
320,192,58446,1,0,0:0:0:0:
192,192,58513,1,0,0:0:0:0:
64,192,58580,1,0,0:0:0:0:
320,192,58646,1,0,0:0:0:0:
192,192,58713,1,0,0:0:0:0:
96,192,58780,1,0,0:0:0:0:
448,192,58780,1,8,0:0:0:0:
192,192,58846,1,0,0:0:0:0:
320,192,58913,1,0,0:0:0:0:
448,192,58980,1,0,0:0:0:0:
192,192,59046,1,0,0:0:0:0:
320,192,59113,1,0,0:0:0:0:
448,192,59180,1,2,0:0:0:0:
64,192,59180,1,0,0:0:0:0:
192,192,59180,1,0,0:0:0:0:
320,192,59280,1,0,0:0:0:0:
192,192,59380,1,0,0:0:0:0:
320,192,59480,1,0,0:0:0:0:
96,192,59580,1,0,0:0:0:0:
448,192,59580,1,8,0:0:0:0:
160,192,59680,1,0,0:0:0:0:
288,192,59780,1,0,0:0:0:0:
160,192,59880,1,0,0:0:0:0:
320,192,59980,1,0,0:0:0:0:
448,192,59980,1,2,0:0:0:0:
64,192,60080,1,0,0:0:0:0:
224,192,60180,1,0,0:0:0:0:
64,192,60280,1,0,0:0:0:0:
448,192,60380,1,8,0:0:0:0:
320,192,60380,1,0,0:0:0:0:
64,192,60480,1,0,0:0:0:0:
224,192,60580,1,0,0:0:0:0:
64,192,60680,1,0,0:0:0:0:
448,192,60780,1,2,0:0:0:0:
192,192,60780,1,0,0:0:0:0:
320,192,60780,1,0,0:0:0:0:
64,192,60880,1,0,0:0:0:0:
320,192,60980,1,0,0:0:0:0:
192,192,61080,1,0,0:0:0:0:
64,192,61180,1,0,0:0:0:0:
320,192,61180,1,0,0:0:0:0:
448,192,61280,1,0,0:0:0:0:
192,192,61380,1,0,0:0:0:0:
320,192,61480,1,0,0:0:0:0:
96,192,61580,1,0,0:0:0:0:
448,192,61580,1,2,0:0:0:0:
160,192,61680,1,0,0:0:0:0:
320,192,61780,1,0,0:0:0:0:
160,192,61880,1,0,0:0:0:0:
96,192,61980,1,0,0:0:0:0:
448,192,61980,1,8,0:0:0:0:
320,192,62080,1,0,0:0:0:0:
192,192,62180,1,0,0:0:0:0:
320,192,62280,1,0,0:0:0:0:
96,192,62380,1,0,0:0:0:0:
448,192,62380,1,2,0:0:0:0:
192,192,62380,1,0,0:0:0:0:
320,192,62480,1,0,0:0:0:0:
448,192,62580,1,0,0:0:0:0:
64,192,62680,1,0,0:0:0:0:
448,192,62780,1,8,0:0:0:0:
192,192,62780,1,0,0:0:0:0:
320,192,62880,1,0,0:0:0:0:
448,192,62980,1,0,0:0:0:0:
160,192,63080,1,0,0:0:0:0:
96,192,63180,1,0,0:0:0:0:
448,192,63180,1,2,0:0:0:0:
320,192,63180,1,0,0:0:0:0:
224,192,63280,1,0,0:0:0:0:
288,192,63380,1,0,0:0:0:0:
448,192,63480,1,0,0:0:0:0:
96,192,63580,1,8,0:0:0:0:
352,192,63580,1,0,0:0:0:0:
224,192,63680,1,0,0:0:0:0:
288,192,63780,1,0,0:0:0:0:
448,192,63880,1,0,0:0:0:0:
96,192,63980,1,2,0:0:0:0:
192,192,63980,1,0,0:0:0:0:
288,192,64046,1,0,0:0:0:0:
448,192,64113,1,0,0:0:0:0:
64,192,64180,1,0,0:0:0:0:
224,192,64246,1,0,0:0:0:0:
320,192,64313,1,0,0:0:0:0:
448,192,64380,1,0,0:0:0:0:
32,192,64380,1,8,0:0:0:0:
288,192,64446,1,0,0:0:0:0:
224,192,64513,1,0,0:0:0:0:
448,192,64580,1,0,0:0:0:0:
320,192,64646,1,0,0:0:0:0:
160,192,64713,1,0,0:0:0:0:
448,192,64780,1,0,0:0:0:0:
32,192,64780,1,2,0:0:0:0:
288,192,64846,1,0,0:0:0:0:
224,192,64913,1,0,0:0:0:0:
96,192,64980,1,2,0:0:0:0:
448,192,64980,1,0,0:0:0:0:
320,192,65046,1,0,0:0:0:0:
160,192,65113,1,0,0:0:0:0:
32,192,65180,1,0,0:0:0:0:
448,192,65180,1,10,0:0:0:0:
192,192,65280,1,0,0:0:0:0:
352,192,65280,1,2,0:0:0:0:
448,192,65380,1,2,0:0:0:0:
96,192,65380,1,0,0:0:0:0:
192,192,65480,1,0,0:0:0:0:
320,192,65480,1,2,0:0:0:0:
448,192,66680,1,0,0:0:0:0:
448,192,66780,1,0,0:0:0:0:
320,192,66980,1,0,0:0:0:0:
64,192,67180,1,2,0:0:0:0:
448,192,67180,1,0,0:0:0:0:
192,192,67180,1,0,0:0:0:0:
320,192,67280,1,0,0:0:0:0:
192,192,67380,1,0,0:0:0:0:
352,192,67480,1,0,0:0:0:0:
96,192,67580,1,2,0:0:0:0:
448,192,67580,1,0,0:0:0:0:
192,192,67680,1,0,0:0:0:0:
320,192,67780,1,0,0:0:0:0:
416,192,67880,1,0,0:0:0:0:
96,192,67980,1,2,0:0:0:0:
320,192,67980,1,0,0:0:0:0:
192,192,68080,1,0,0:0:0:0:
416,192,68180,1,0,0:0:0:0:
320,192,68280,1,0,0:0:0:0:
96,192,68380,1,2,0:0:0:0:
416,192,68380,1,0,0:0:0:0:
192,192,68480,1,0,0:0:0:0:
320,192,68580,1,0,0:0:0:0:
448,192,68680,1,0,0:0:0:0:
96,192,68780,1,2,0:0:0:0:
320,192,68780,1,0,0:0:0:0:
192,192,68880,1,0,0:0:0:0:
448,192,68980,1,0,0:0:0:0:
320,192,69080,1,0,0:0:0:0:
96,192,69180,1,2,0:0:0:0:
192,192,69180,1,0,0:0:0:0:
448,192,69280,1,0,0:0:0:0:
320,192,69380,1,0,0:0:0:0:
192,192,69480,1,0,0:0:0:0:
96,192,69580,1,2,0:0:0:0:
448,192,69580,1,0,0:0:0:0:
192,192,69680,1,0,0:0:0:0:
288,192,69780,1,0,0:0:0:0:
448,192,69880,1,0,0:0:0:0:
96,192,69980,1,2,0:0:0:0:
288,192,69980,1,0,0:0:0:0:
224,192,70080,1,0,0:0:0:0:
448,192,70180,1,0,0:0:0:0:
288,192,70280,1,0,0:0:0:0:
64,192,70380,1,2,0:0:0:0:
192,192,70380,1,0,0:0:0:0:
320,192,70480,1,0,0:0:0:0:
480,192,70580,1,0,0:0:0:0:
160,192,70680,1,0,0:0:0:0:
320,192,70780,1,0,0:0:0:0:
64,192,70780,1,2,0:0:0:0:
224,192,70880,1,0,0:0:0:0:
448,192,70980,1,0,0:0:0:0:
288,192,71080,1,0,0:0:0:0:
192,192,71180,1,0,0:0:0:0:
64,192,71180,1,2,0:0:0:0:
320,192,71280,1,0,0:0:0:0:
448,192,71380,1,0,0:0:0:0:
64,192,71480,1,0,0:0:0:0:
192,192,71580,1,0,0:0:0:0:
448,192,71580,1,2,0:0:0:0:
352,192,71680,1,0,0:0:0:0:
160,192,71780,1,0,0:0:0:0:
64,192,71880,1,0,0:0:0:0:
448,192,71980,1,2,0:0:0:0:
320,192,71980,1,0,0:0:0:0:
64,192,72080,1,0,0:0:0:0:
192,192,72180,1,0,0:0:0:0:
448,192,72280,1,0,0:0:0:0:
320,192,72380,1,0,0:0:0:0:
64,192,72380,1,2,0:0:0:0:
224,192,72480,1,0,0:0:0:0:
64,192,72580,1,0,0:0:0:0:
192,192,72680,1,0,0:0:0:0:
320,192,72780,1,0,0:0:0:0:
448,192,72780,1,2,0:0:0:0:
192,192,72880,1,0,0:0:0:0:
64,192,72980,1,0,0:0:0:0:
320,192,73080,1,0,0:0:0:0:
448,192,73180,1,2,0:0:0:0:
64,192,73180,1,0,0:0:0:0:
192,192,73280,1,0,0:0:0:0:
320,192,73380,1,0,0:0:0:0:
448,192,73480,1,0,0:0:0:0:
224,192,73580,1,0,0:0:0:0:
64,192,73580,1,2,0:0:0:0:
320,192,73680,1,0,0:0:0:0:
448,192,73780,1,0,0:0:0:0:
160,192,73880,1,0,0:0:0:0:
416,192,73980,1,0,0:0:0:0:
64,192,73980,1,2,0:0:0:0:
288,192,74080,1,0,0:0:0:0:
160,192,74180,1,0,0:0:0:0:
320,192,74280,1,0,0:0:0:0:
64,192,74380,1,2,0:0:0:0:
480,192,74380,1,0,0:0:0:0:
192,192,74480,1,0,0:0:0:0:
320,192,74580,1,0,0:0:0:0:
160,192,74680,1,0,0:0:0:0:
64,192,74780,1,2,0:0:0:0:
448,192,74780,1,0,0:0:0:0:
320,192,74880,1,0,0:0:0:0:
160,192,74980,1,0,0:0:0:0:
320,192,75080,1,0,0:0:0:0:
192,192,75180,1,0,0:0:0:0:
416,192,75180,1,2,0:0:0:0:
64,192,75280,1,0,0:0:0:0:
320,192,75380,1,0,0:0:0:0:
160,192,75480,1,0,0:0:0:0:
448,192,75580,1,2,0:0:0:0:
64,192,75580,1,0,0:0:0:0:
288,192,75680,1,0,0:0:0:0:
160,192,75780,1,0,0:0:0:0:
64,192,75880,1,0,0:0:0:0:
192,192,75980,1,0,0:0:0:0:
416,192,75980,1,2,0:0:0:0:
352,192,76080,1,0,0:0:0:0:
448,192,76180,1,0,0:0:0:0:
64,192,76280,1,0,0:0:0:0:
192,192,76380,1,0,0:0:0:0:
416,192,76380,1,2,0:0:0:0:
288,192,76480,1,0,0:0:0:0:
64,192,76580,1,0,0:0:0:0:
192,192,76680,1,0,0:0:0:0:
448,192,76780,1,2,0:0:0:0:
320,192,76780,1,0,0:0:0:0:
192,192,76880,1,0,0:0:0:0:
64,192,76980,1,0,0:0:0:0:
448,192,77080,1,0,0:0:0:0:
64,192,77180,1,2,0:0:0:0:
192,192,77180,1,0,0:0:0:0:
320,192,77280,1,0,0:0:0:0:
448,192,77380,1,0,0:0:0:0:
192,192,77480,1,0,0:0:0:0:
96,192,77580,1,0,0:0:0:0:
480,192,77580,1,2,0:0:0:0:
352,192,77680,1,0,0:0:0:0:
96,192,77780,1,0,0:0:0:0:
416,192,77780,1,2,0:0:0:0:
160,192,77880,1,0,0:0:0:0:
96,192,77980,1,0,0:0:0:0:
416,192,77980,1,2,0:0:0:0:
352,192,78080,1,0,0:0:0:0:
96,192,78180,1,0,0:0:0:0:
448,192,78180,1,2,0:0:0:0:
192,192,78280,1,0,0:0:0:0:
480,192,78380,1,2,0:0:0:0:
64,192,78380,1,0,0:0:0:0:
320,192,78380,1,0,0:0:0:0:
192,192,78580,1,0,0:0:0:0:
448,192,78680,1,0,0:0:0:0:
320,192,78780,1,0,0:0:0:0:
224,192,78980,1,0,0:0:0:0:
96,192,79180,1,2,0:0:0:0:
416,192,79180,1,0,0:0:0:0:
288,192,79280,1,0,0:0:0:0:
96,192,79380,1,2,0:0:0:0:
192,192,79380,1,0,0:0:0:0:
96,192,79580,1,0,0:0:0:0:
416,192,79580,1,2,0:0:0:0:
224,192,79646,1,2,0:0:0:0:
352,192,79713,1,2,0:0:0:0:
448,192,79780,1,2,0:0:0:0:
64,192,79780,1,0,0:0:0:0:
288,192,79880,1,0,0:0:0:0:
96,192,79980,1,4,0:0:0:0:
448,192,79980,1,0,0:0:0:0:
192,192,79980,1,2,0:0:0:0:
320,192,80080,1,0,0:0:0:0:
192,192,80180,1,0,0:0:0:0:
64,192,80280,1,0,0:0:0:0:
320,192,80380,1,0,0:0:0:0:
480,192,80380,1,8,0:0:0:0:
64,192,80480,1,0,0:0:0:0:
192,192,80580,1,0,0:0:0:0:
320,192,80680,1,0,0:0:0:0:
192,192,80780,1,0,0:0:0:0:
64,192,80780,1,2,0:0:0:0:
448,192,80880,1,0,0:0:0:0:
320,192,80980,1,0,0:0:0:0:
192,192,81080,1,0,0:0:0:0:
320,192,81180,1,0,0:0:0:0:
480,192,81180,1,8,0:0:0:0:
64,192,81280,1,0,0:0:0:0:
192,192,81380,1,0,0:0:0:0:
320,192,81480,1,0,0:0:0:0:
96,192,81580,1,2,0:0:0:0:
448,192,81580,1,0,0:0:0:0:
320,192,81680,1,0,0:0:0:0:
192,192,81780,1,0,0:0:0:0:
320,192,81880,1,0,0:0:0:0:
96,192,81980,1,0,0:0:0:0:
480,192,81980,1,8,0:0:0:0:
192,192,82080,1,0,0:0:0:0:
352,192,82180,1,0,0:0:0:0:
416,192,82280,1,0,0:0:0:0:
96,192,82380,1,2,0:0:0:0:
352,192,82380,1,0,0:0:0:0:
192,192,82480,1,0,0:0:0:0:
480,192,82580,1,0,0:0:0:0:
320,192,82680,1,0,0:0:0:0:
96,192,82780,1,0,0:0:0:0:
192,192,82780,1,8,0:0:0:0:
320,192,82880,1,0,0:0:0:0:
448,192,82980,1,0,0:0:0:0:
320,192,83080,1,0,0:0:0:0:
96,192,83180,1,2,0:0:0:0:
192,192,83180,1,0,0:0:0:0:
416,192,83280,1,0,0:0:0:0:
320,192,83380,1,0,0:0:0:0:
192,192,83480,1,0,0:0:0:0:
96,192,83580,1,0,0:0:0:0:
480,192,83580,1,8,0:0:0:0:
320,192,83680,1,0,0:0:0:0:
192,192,83780,1,0,0:0:0:0:
320,192,83880,1,0,0:0:0:0:
96,192,83980,1,2,0:0:0:0:
448,192,83980,1,0,0:0:0:0:
192,192,84080,1,0,0:0:0:0:
320,192,84180,1,0,0:0:0:0:
192,192,84280,1,0,0:0:0:0:
64,192,84380,1,0,0:0:0:0:
480,192,84380,1,8,0:0:0:0:
320,192,84480,1,0,0:0:0:0:
192,192,84580,1,0,0:0:0:0:
480,192,84680,1,0,0:0:0:0:
96,192,84780,1,2,0:0:0:0:
320,192,84780,1,0,0:0:0:0:
192,192,84880,1,0,0:0:0:0:
448,192,84980,1,0,0:0:0:0:
192,192,85080,1,0,0:0:0:0:
64,192,85180,1,0,0:0:0:0:
320,192,85180,1,8,0:0:0:0:
320,192,85280,1,0,0:0:0:0:
448,192,85380,1,0,0:0:0:0:
192,192,85480,1,0,0:0:0:0:
320,192,85580,1,0,0:0:0:0:
64,192,85580,1,2,0:0:0:0:
448,192,85680,1,0,0:0:0:0:
192,192,85780,1,0,0:0:0:0:
64,192,85880,1,0,0:0:0:0:
192,192,85980,1,0,0:0:0:0:
416,192,85980,1,8,0:0:0:0:
352,192,86080,1,0,0:0:0:0:
64,192,86180,1,0,0:0:0:0:
192,192,86280,1,0,0:0:0:0:
416,192,86380,1,0,0:0:0:0:
64,192,86380,1,0,0:0:0:0:
320,192,86380,1,0,0:0:0:0:
192,192,86480,1,0,0:0:0:0:
416,192,86580,1,0,0:0:0:0:
320,192,86680,1,0,0:0:0:0:
64,192,86780,1,8,0:0:0:0:
192,192,86780,1,0,0:0:0:0:
320,192,86880,1,0,0:0:0:0:
448,192,86980,1,0,0:0:0:0:
320,192,87080,1,0,0:0:0:0:
96,192,87180,1,2,0:0:0:0:
480,192,87180,1,0,0:0:0:0:
192,192,87280,1,0,0:0:0:0:
416,192,87380,1,0,0:0:0:0:
352,192,87480,1,0,0:0:0:0:
96,192,87580,1,0,0:0:0:0:
416,192,87580,1,8,0:0:0:0:
192,192,87680,1,0,0:0:0:0:
352,192,87780,1,0,0:0:0:0:
192,192,87880,1,0,0:0:0:0:
64,192,87980,1,2,0:0:0:0:
320,192,87980,1,0,0:0:0:0:
448,192,87980,1,0,0:0:0:0:
192,192,88080,1,0,0:0:0:0:
480,192,88180,1,0,0:0:0:0:
352,192,88280,1,0,0:0:0:0:
96,192,88380,1,0,0:0:0:0:
416,192,88380,1,8,0:0:0:0:
320,192,88480,1,0,0:0:0:0:
192,192,88580,1,0,0:0:0:0:
64,192,88680,1,0,0:0:0:0:
320,192,88780,1,2,0:0:0:0:
480,192,88780,1,0,0:0:0:0:
192,192,88880,1,0,0:0:0:0:
64,192,88980,1,0,0:0:0:0:
480,192,89080,1,0,0:0:0:0:
96,192,89180,1,8,0:0:0:0:
320,192,89180,1,0,0:0:0:0:
192,192,89280,1,0,0:0:0:0:
448,192,89380,1,0,0:0:0:0:
320,192,89480,1,0,0:0:0:0:
96,192,89580,1,2,0:0:0:0:
192,192,89580,1,0,0:0:0:0:
448,192,89580,1,0,0:0:0:0:
320,192,89680,1,0,0:0:0:0:
448,192,89780,1,0,0:0:0:0:
320,192,89880,1,0,0:0:0:0:
96,192,89980,1,0,0:0:0:0:
480,192,89980,1,8,0:0:0:0:
320,192,90080,1,0,0:0:0:0:
192,192,90180,1,0,0:0:0:0:
320,192,90280,1,0,0:0:0:0:
192,192,90380,1,2,0:0:0:0:
480,192,90380,1,0,0:0:0:0:
64,192,90380,1,0,0:0:0:0:
352,192,90480,1,0,0:0:0:0:
64,192,90580,1,0,0:0:0:0:
192,192,90680,1,0,0:0:0:0:
96,192,90780,1,0,0:0:0:0:
416,192,90780,1,8,0:0:0:0:
192,192,90880,1,0,0:0:0:0:
320,192,90980,1,0,0:0:0:0:
448,192,91080,1,0,0:0:0:0:
96,192,91180,1,2,0:0:0:0:
192,192,91180,1,0,0:0:0:0:
352,192,91280,1,0,0:0:0:0:
416,192,91380,1,0,0:0:0:0:
96,192,91480,1,2,0:0:0:0:
192,192,91480,1,0,0:0:0:0:
320,192,91580,1,8,0:0:0:0:
416,192,91580,1,0,0:0:0:0:
64,192,91680,1,0,0:0:0:0:
192,192,91780,1,0,0:0:0:0:
320,192,91880,1,2,0:0:0:0:
416,192,91880,1,0,0:0:0:0:
96,192,91980,1,0,0:0:0:0:
192,192,91980,1,2,0:0:0:0:
352,192,92080,1,0,0:0:0:0:
192,192,92180,1,2,0:0:0:0:
416,192,92180,1,0,0:0:0:0:
64,192,92280,1,0,0:0:0:0:
448,192,92380,1,0,0:0:0:0:
352,192,92380,1,2,0:0:0:0:
160,192,92480,1,2,0:0:0:0:
64,192,92480,1,0,0:0:0:0:
448,192,92580,1,0,0:0:0:0:
352,192,92580,1,2,0:0:0:0:
160,192,92680,1,2,0:0:0:0:
64,192,92680,1,0,0:0:0:0:
320,192,92780,1,2,0:0:0:0:
480,192,92780,1,4,0:0:0:0:
64,192,92780,1,0,0:0:0:0:
448,192,93080,1,0,0:0:0:0:
448,192,93180,1,0,0:0:0:0:
64,192,93380,1,0,0:0:0:0:
64,192,93580,1,0,0:0:0:0:
288,192,93580,1,0,0:0:0:0:
448,192,93880,1,0,0:0:0:0:
448,192,93980,1,0,0:0:0:0:
64,192,94180,1,0,0:0:0:0:
224,192,94380,1,0,0:0:0:0:
448,192,94380,1,0,0:0:0:0:
288,192,94680,1,0,0:0:0:0:
288,192,94780,1,0,0:0:0:0:
224,192,94980,1,0,0:0:0:0:
96,192,95180,1,0,0:0:0:0:
160,192,95180,1,0,0:0:0:0:
448,192,95480,1,0,0:0:0:0:
448,192,95580,1,0,0:0:0:0:
192,192,95780,1,0,0:0:0:0:
96,192,95980,1,0,0:0:0:0:
224,192,95980,1,0,0:0:0:0:
320,192,96280,1,0,0:0:0:0:
320,192,96380,1,0,0:0:0:0:
192,192,96580,1,0,0:0:0:0:
96,192,96780,1,0,0:0:0:0:
320,192,96780,1,0,0:0:0:0:
160,192,97080,1,0,0:0:0:0:
160,192,97180,1,0,0:0:0:0:
320,192,97380,1,0,0:0:0:0:
96,192,97580,1,0,0:0:0:0:
448,192,97580,1,0,0:0:0:0:
320,192,97880,1,0,0:0:0:0:
320,192,97980,1,0,0:0:0:0:
64,192,98180,1,0,0:0:0:0:
96,192,98380,1,0,0:0:0:0:
160,192,98380,1,0,0:0:0:0:
320,192,98680,1,0,0:0:0:0:
320,192,98780,1,0,0:0:0:0:
160,192,98980,1,0,0:0:0:0:
96,192,99180,1,0,0:0:0:0:
448,192,99180,1,0,0:0:0:0:
192,192,99280,1,0,0:0:0:0:
480,192,99380,1,0,0:0:0:0:
352,192,99480,1,0,0:0:0:0:
160,192,99580,1,0,0:0:0:0:
64,192,99580,1,0,0:0:0:0:
480,192,99680,1,0,0:0:0:0:
352,192,99780,1,0,0:0:0:0:
192,192,99880,1,0,0:0:0:0:
64,192,99980,1,0,0:0:0:0:
480,192,99980,1,0,0:0:0:0:
352,192,100080,1,0,0:0:0:0:
64,192,100180,1,0,0:0:0:0:
192,192,100280,1,0,0:0:0:0:
320,192,100380,1,0,0:0:0:0:
416,192,100380,1,0,0:0:0:0:
64,192,100480,1,0,0:0:0:0:
448,192,100580,1,0,0:0:0:0:
320,192,100680,1,0,0:0:0:0:
96,192,100780,1,0,0:0:0:0:
448,192,100780,1,0,0:0:0:0:
192,192,100880,1,0,0:0:0:0:
480,192,100980,1,0,0:0:0:0:
352,192,101080,1,0,0:0:0:0:
96,192,101180,1,0,0:0:0:0:
416,192,101180,1,0,0:0:0:0:
192,192,101280,1,0,0:0:0:0:
448,192,101380,1,0,0:0:0:0:
320,192,101480,1,0,0:0:0:0:
64,192,101580,1,0,0:0:0:0:
192,192,101580,1,0,0:0:0:0:
448,192,101680,1,0,0:0:0:0:
320,192,101780,1,0,0:0:0:0:
192,192,101880,1,0,0:0:0:0:
448,192,101980,1,0,0:0:0:0:
64,192,101980,1,0,0:0:0:0:
352,192,102080,1,0,0:0:0:0:
192,192,102180,1,0,0:0:0:0:
64,192,102280,1,0,0:0:0:0:
448,192,102380,1,0,0:0:0:0:
320,192,102380,1,0,0:0:0:0:
192,192,102480,1,0,0:0:0:0:
320,192,102580,1,0,0:0:0:0:
448,192,102680,1,0,0:0:0:0:
64,192,102780,1,0,0:0:0:0:
288,192,102780,1,0,0:0:0:0:
192,192,102880,1,0,0:0:0:0:
352,192,102980,1,0,0:0:0:0:
224,192,103080,1,0,0:0:0:0:
416,192,103080,1,0,0:0:0:0:
64,192,103180,1,0,0:0:0:0:
320,192,103180,1,0,0:0:0:0:
192,192,103280,1,0,0:0:0:0:
416,192,103380,1,0,0:0:0:0:
320,192,103480,1,0,0:0:0:0:
96,192,103580,1,0,0:0:0:0:
448,192,103580,1,0,0:0:0:0:
192,192,103680,1,0,0:0:0:0:
320,192,103780,1,0,0:0:0:0:
64,192,103880,1,0,0:0:0:0:
160,192,103980,1,0,0:0:0:0:
416,192,103980,1,0,0:0:0:0:
352,192,104080,1,0,0:0:0:0:
480,192,104180,1,0,0:0:0:0:
320,192,104280,1,0,0:0:0:0:
96,192,104380,1,0,0:0:0:0:
192,192,104380,1,0,0:0:0:0:
480,192,104480,1,0,0:0:0:0:
320,192,104580,1,0,0:0:0:0:
64,192,104680,1,0,0:0:0:0:
224,192,104780,1,0,0:0:0:0:
480,192,104780,1,0,0:0:0:0:
320,192,104880,1,0,0:0:0:0:
64,192,104980,1,0,0:0:0:0:
192,192,105080,1,0,0:0:0:0:
320,192,105180,1,0,0:0:0:0:
448,192,105180,1,0,0:0:0:0:
64,192,105280,1,0,0:0:0:0:
320,192,105380,1,0,0:0:0:0:
224,192,105480,1,0,0:0:0:0:
64,192,105580,1,0,0:0:0:0:
416,192,105580,1,4,0:0:0:0:
320,192,105580,1,2,0:0:0:0:
192,192,105680,1,0,0:0:0:0:
64,192,105780,1,0,0:0:0:0:
448,192,105880,1,0,0:0:0:0:
320,192,105880,1,0,0:0:0:0:
96,192,105980,1,8,0:0:0:0:
320,192,105980,1,0,0:0:0:0:
416,192,105980,1,0,0:0:0:0:
192,192,106080,1,0,0:0:0:0:
448,192,106180,1,0,0:0:0:0:
320,192,106280,1,0,0:0:0:0:
64,192,106380,1,2,0:0:0:0:
192,192,106380,1,0,0:0:0:0:
448,192,106380,1,0,0:0:0:0:
320,192,106480,1,0,0:0:0:0:
448,192,106580,1,0,0:0:0:0:
160,192,106680,1,0,0:0:0:0:
64,192,106680,1,0,0:0:0:0:
96,192,106780,1,0,0:0:0:0:
224,192,106780,1,0,0:0:0:0:
416,192,106780,1,8,0:0:0:0:
320,192,106880,1,0,0:0:0:0:
192,192,106980,1,0,0:0:0:0:
64,192,107080,1,0,0:0:0:0:
192,192,107180,1,0,0:0:0:0:
320,192,107180,1,0,0:0:0:0:
480,192,107180,1,2,0:0:0:0:
64,192,107280,1,0,0:0:0:0:
192,192,107380,1,0,0:0:0:0:
320,192,107480,1,0,0:0:0:0:
448,192,107480,1,0,0:0:0:0:
448,192,107580,1,8,0:0:0:0:
320,192,107580,1,0,0:0:0:0:
64,192,107580,1,0,0:0:0:0:
192,192,107680,1,0,0:0:0:0:
64,192,107780,1,0,0:0:0:0:
352,192,107880,1,0,0:0:0:0:
416,192,107980,1,2,0:0:0:0:
192,192,107980,1,0,0:0:0:0:
64,192,107980,1,0,0:0:0:0:
320,192,108080,1,0,0:0:0:0:
448,192,108180,1,0,0:0:0:0:
64,192,108280,1,0,0:0:0:0:
192,192,108280,1,0,0:0:0:0:
96,192,108380,1,0,0:0:0:0:
448,192,108380,1,8,0:0:0:0:
192,192,108380,1,0,0:0:0:0:
320,192,108480,1,0,0:0:0:0:
64,192,108580,1,0,0:0:0:0:
448,192,108580,1,0,0:0:0:0:
320,192,108680,1,0,0:0:0:0:
192,192,108780,1,0,0:0:0:0:
448,192,108780,1,0,0:0:0:0:
64,192,108780,1,2,0:0:0:0:
320,192,108880,1,0,0:0:0:0:
192,192,108980,1,0,0:0:0:0:
448,192,109080,1,0,0:0:0:0:
320,192,109080,1,0,0:0:0:0:
96,192,109180,1,8,0:0:0:0:
320,192,109180,1,0,0:0:0:0:
448,192,109180,1,0,0:0:0:0:
192,192,109280,1,0,0:0:0:0:
64,192,109380,1,0,0:0:0:0:
352,192,109480,1,0,0:0:0:0:
416,192,109580,1,0,0:0:0:0:
64,192,109580,1,2,0:0:0:0:
192,192,109580,1,0,0:0:0:0:
320,192,109680,1,0,0:0:0:0:
448,192,109780,1,0,0:0:0:0:
64,192,109880,1,0,0:0:0:0:
192,192,109880,1,0,0:0:0:0:
96,192,109980,1,0,0:0:0:0:
192,192,109980,1,0,0:0:0:0:
448,192,109980,1,8,0:0:0:0:
320,192,110080,1,0,0:0:0:0:
448,192,110180,1,0,0:0:0:0:
192,192,110280,1,0,0:0:0:0:
64,192,110380,1,0,0:0:0:0:
320,192,110380,1,0,0:0:0:0:
480,192,110380,1,2,0:0:0:0:
192,192,110480,1,0,0:0:0:0:
64,192,110580,1,0,0:0:0:0:
448,192,110680,1,0,0:0:0:0:
352,192,110680,1,0,0:0:0:0:
320,192,110780,1,0,0:0:0:0:
64,192,110780,1,0,0:0:0:0:
448,192,110780,1,8,0:0:0:0:
192,192,110880,1,0,0:0:0:0:
448,192,110980,1,0,0:0:0:0:
352,192,111080,1,0,0:0:0:0:
64,192,111180,1,0,0:0:0:0:
192,192,111180,1,2,0:0:0:0:
448,192,111280,1,0,0:0:0:0:
192,192,111380,1,2,0:0:0:0:
64,192,111380,1,0,0:0:0:0:
320,192,111480,1,0,0:0:0:0:
448,192,111480,1,0,0:0:0:0:
96,192,111580,1,2,0:0:0:0:
448,192,111580,1,8,0:0:0:0:
320,192,111580,1,0,0:0:0:0:
192,192,111680,1,0,0:0:0:0:
96,192,111780,1,2,0:0:0:0:
448,192,111780,1,0,0:0:0:0:
320,192,111880,1,0,0:0:0:0:
96,192,111980,1,2,0:0:0:0:
192,192,111980,1,4,0:0:0:0:
448,192,111980,1,0,0:0:0:0:
320,192,112080,1,0,0:0:0:0:
192,192,112180,1,0,0:0:0:0:
320,192,112280,1,0,0:0:0:0:
96,192,112380,1,0,0:0:0:0:
192,192,112380,1,0,0:0:0:0:
480,192,112380,1,8,0:0:0:0:
320,192,112480,1,0,0:0:0:0:
64,192,112580,1,0,0:0:0:0:
192,192,112680,1,0,0:0:0:0:
96,192,112780,1,0,0:0:0:0:
352,192,112780,1,0,0:0:0:0:
480,192,112780,1,2,0:0:0:0:
192,192,112880,1,0,0:0:0:0:
352,192,112980,1,0,0:0:0:0:
448,192,113080,1,0,0:0:0:0:
64,192,113180,1,8,0:0:0:0:
192,192,113180,1,0,0:0:0:0:
320,192,113180,1,0,0:0:0:0:
416,192,113280,1,0,0:0:0:0:
288,192,113380,1,0,0:0:0:0:
224,192,113480,1,0,0:0:0:0:
320,192,113580,1,0,0:0:0:0:
64,192,113580,1,0,0:0:0:0:
448,192,113580,1,2,0:0:0:0:
192,192,113680,1,0,0:0:0:0:
448,192,113780,1,0,0:0:0:0:
320,192,113880,1,0,0:0:0:0:
96,192,113980,1,8,0:0:0:0:
224,192,113980,1,0,0:0:0:0:
480,192,113980,1,0,0:0:0:0:
288,192,114080,1,0,0:0:0:0:
224,192,114180,1,0,0:0:0:0:
64,192,114180,1,0,0:0:0:0:
448,192,114280,1,0,0:0:0:0:
320,192,114380,1,0,0:0:0:0:
64,192,114380,1,0,0:0:0:0:
192,192,114480,1,0,0:0:0:0:
64,192,114580,1,0,0:0:0:0:
448,192,114580,1,0,0:0:0:0:
320,192,114680,1,0,0:0:0:0:
448,192,114780,1,0,0:0:0:0:
224,192,114780,1,8,0:0:0:0:
64,192,114880,1,0,0:0:0:0:
448,192,114980,1,0,0:0:0:0:
320,192,114980,1,0,0:0:0:0:
192,192,115080,1,0,0:0:0:0:
64,192,115180,1,2,0:0:0:0:
320,192,115180,1,0,0:0:0:0:
480,192,115180,1,0,0:0:0:0:
64,192,115380,1,0,0:0:0:0:
192,192,115480,1,0,0:0:0:0:
96,192,115580,1,0,0:0:0:0:
352,192,115580,1,8,0:0:0:0:
480,192,115580,1,0,0:0:0:0:
192,192,115780,1,0,0:0:0:0:
320,192,115880,1,0,0:0:0:0:
448,192,115880,1,0,0:0:0:0:
96,192,115980,1,2,0:0:0:0:
320,192,115980,1,0,0:0:0:0:
480,192,115980,1,0,0:0:0:0:
192,192,116180,1,0,0:0:0:0:
64,192,116280,1,0,0:0:0:0:
224,192,116380,1,8,0:0:0:0:
352,192,116380,1,0,0:0:0:0:
480,192,116380,1,0,0:0:0:0:
64,192,116480,1,0,0:0:0:0:
192,192,116580,1,0,0:0:0:0:
320,192,116680,1,0,0:0:0:0:
192,192,116780,1,0,0:0:0:0:
64,192,116780,1,2,0:0:0:0:
480,192,116780,1,0,0:0:0:0:
320,192,116880,1,0,0:0:0:0:
96,192,116980,1,0,0:0:0:0:
288,192,117080,1,0,0:0:0:0:
96,192,117180,1,0,0:0:0:0:
192,192,117180,1,8,0:0:0:0:
480,192,117180,1,0,0:0:0:0:
320,192,117280,1,0,0:0:0:0:
448,192,117380,1,0,0:0:0:0:
192,192,117480,1,0,0:0:0:0:
96,192,117580,1,2,0:0:0:0:
352,192,117580,1,0,0:0:0:0:
480,192,117580,1,0,0:0:0:0:
160,192,117680,1,0,0:0:0:0:
96,192,117780,1,2,0:0:0:0:
448,192,117780,1,0,0:0:0:0:
320,192,117880,1,0,0:0:0:0:
416,192,117980,1,0,0:0:0:0:
192,192,117980,1,0,0:0:0:0:
64,192,117980,1,0,0:0:0:0:
320,192,118080,1,0,0:0:0:0:
448,192,118180,1,0,0:0:0:0:
192,192,118180,1,2,0:0:0:0:
64,192,118280,1,0,0:0:0:0:
320,192,118380,1,4,0:0:0:0:
480,192,118380,1,0,0:0:0:0:
192,192,118380,1,2,0:0:0:0:
96,192,118780,1,0,0:0:0:0:
480,192,118780,1,2,0:0:0:0:
320,192,118880,1,0,0:0:0:0:
192,192,118980,1,0,0:0:0:0:
64,192,119080,1,0,0:0:0:0:
192,192,119180,1,0,0:0:0:0:
480,192,119180,1,2,0:0:0:0:
320,192,119280,1,0,0:0:0:0:
192,192,119380,1,0,0:0:0:0:
64,192,119480,1,0,0:0:0:0:
192,192,119580,1,0,0:0:0:0:
480,192,119580,1,2,0:0:0:0:
320,192,119680,1,0,0:0:0:0:
192,192,119780,1,0,0:0:0:0:
64,192,119880,1,0,0:0:0:0:
320,192,119980,1,0,0:0:0:0:
480,192,119980,1,2,0:0:0:0:
64,192,120080,1,0,0:0:0:0:
192,192,120180,1,0,0:0:0:0:
320,192,120280,1,0,0:0:0:0:
192,192,120380,1,0,0:0:0:0:
448,192,120380,1,2,0:0:0:0:
64,192,120480,1,0,0:0:0:0:
192,192,120580,1,0,0:0:0:0:
320,192,120680,1,0,0:0:0:0:
96,192,120780,1,0,0:0:0:0:
448,192,120780,1,2,0:0:0:0:
192,192,120880,1,0,0:0:0:0:
320,192,120980,1,0,0:0:0:0:
416,192,121080,1,0,0:0:0:0:
96,192,121180,1,0,0:0:0:0:
320,192,121180,1,2,0:0:0:0:
192,192,121480,1,0,0:0:0:0:
448,192,121580,1,0,0:0:0:0:
320,192,121913,1,0,0:0:0:0:
64,192,121980,1,0,0:0:0:0:
192,192,122246,1,0,0:0:0:0:
320,192,122313,1,0,0:0:0:0:
448,192,122380,1,0,0:0:0:0:
320,192,122446,1,0,0:0:0:0:
192,192,122513,1,0,0:0:0:0:
64,192,122580,1,0,0:0:0:0:
320,192,122713,1,0,0:0:0:0:
480,192,122780,1,0,0:0:0:0:
64,192,123080,1,0,0:0:0:0:
448,192,123080,1,0,0:0:0:0:
192,192,123180,1,4,0:0:0:0:
64,192,123180,1,2,0:0:0:0:
480,192,123180,1,0,0:0:0:0:
