osu file format v14

[General]
AudioFilename: audio.mp3
AudioLeadIn: 0
PreviewTime: 91630
Countdown: 0
SampleSet: Soft
StackLeniency: 0.6
Mode: 0
LetterboxInBreaks: 0
WidescreenStoryboard: 1

[Editor]
Bookmarks: 26030,38830,66030,78830,91630,104430,115430,117230
DistanceSpacing: 1
BeatDivisor: 4
GridSize: 32
TimelineZoom: 4.099998

[Metadata]
Title:Tenkuu no Yoake
TitleUnicode:天空の夜明け
Artist:Cuvelia
ArtistUnicode:Cuvelia
Creator:Nao
Version:Matrix's Insane
Source:Beatmania IIDX 19 Lincle
Tags:dj taka bemani popn music sunny park pop'n reflec beat limelight plus ポップンリズミン TAKAパック1 anthem pack rhythm matrix thinking raja
BeatmapID:2002765
BeatmapSetID:954238

[Difficulty]
HPDrainRate:7
CircleSize:4.5
OverallDifficulty:8
ApproachRate:8
SliderMultiplier:1.6
SliderTickRate:1

[Events]
//Background and Video events
0,0,"Tenkuu no Yoake.jpg",0,0
//Break Periods
//Storyboard Layer 0 (Background)
//Storyboard Layer 1 (Fail)
//Storyboard Layer 2 (Pass)
//Storyboard Layer 3 (Foreground)
//Storyboard Layer 4 (Overlay)
//Storyboard Sound Samples

[TimingPoints]
430,400,4,2,0,70,1,0
25430,-66.6666666666667,4,2,0,70,0,0
26030,-80,4,2,0,70,0,0
27430,-80,4,2,0,70,0,0
28530,-200,4,2,0,70,0,0
28930,-80,4,2,0,70,0,0
29430,-80,4,2,0,70,0,0
32330,-200,4,2,0,70,0,0
34030,-80,4,2,0,70,0,0
34430,-166.666666666667,4,2,0,70,0,0
35830,-80,4,2,0,70,0,0
37230,-133.333333333333,4,2,2,70,0,0
38830,-66.6666666666667,4,2,1,70,0,0
40430,-153.846153846154,4,2,1,70,0,0
40830,-133.333333333333,4,2,1,70,0,0
41330,-117.647058823529,4,2,1,70,0,0
42030,-250,4,2,1,70,0,0
43830,-100,4,2,1,70,0,0
44130,-66.6666666666667,4,2,1,70,0,0
45330,-166.666666666667,4,2,1,70,0,0
46830,-66.6666666666667,4,2,1,70,0,0
47230,-166.666666666667,4,2,1,70,0,0
50030,-80,4,2,1,70,0,0
51630,-133.333333333333,4,2,2,70,0,1
56430,-100,4,2,2,70,0,1
59630,-66.6666666666667,4,2,2,70,0,1
62030,-500,4,2,2,70,0,1
62830,-200,4,2,2,70,0,1
64330,-100,4,2,2,70,0,0
66030,-133.333333333333,4,2,0,70,0,0
77230,-133.333333333333,4,2,2,70,0,0
77630,-100,4,2,2,70,0,0
78030,-80,4,2,2,70,0,0
78430,-66.6666666666667,4,2,2,70,0,0
78830,-133.333333333333,4,2,2,70,0,0
86430,-66.6666666666667,4,2,2,70,0,0
86830,-500,4,2,2,70,0,0
88430,-66.6666666666667,4,2,2,70,0,0
89230,-133.333333333333,4,2,2,70,0,0
91630,-133.333333333333,4,2,2,70,0,0
91930,-90.9090909090909,4,2,2,70,0,0
98030,-333.333333333333,4,2,0,30,0,0
98830,-333.333333333333,4,2,0,50,0,0
99630,-333.333333333333,4,2,0,70,0,0
100030,-133.333333333333,4,2,0,70,0,0
103830,-66.6666666666667,4,2,0,70,0,0
104430,-66.6666666666667,4,2,1,70,0,0
110830,-66.6666666666667,4,2,1,70,0,0
113230,-200,4,2,1,70,0,0
114230,-100,4,2,1,70,0,0
115630,-100,4,2,1,70,0,0
117230,-100,4,2,2,70,0,0
117630,-250,4,2,2,70,0,0
120430,-80,4,2,2,70,0,0
122130,-80,4,2,2,5,0,0
128430,-80,4,2,0,5,0,0

[Colours]
Combo1 : 248,211,171
Combo2 : 171,252,203
Combo3 : 175,221,254
Combo4 : 249,254,186
Combo5 : 240,80,80

[HitObjects]
333,194,25430,6,0,B|277:162|277:162|254:109|254:109|200:75,1,180.000006866455,0|0,0:0|0:0,0:0:0:0:
38,67,26030,5,4,0:0:0:0:
142,145,26230,1,0,0:0:0:0:
133,116,26330,1,2,0:0:0:0:
273,151,26630,1,0,0:0:0:0:
346,56,26830,1,2,0:0:0:0:
223,42,27030,1,2,0:0:0:0:
396,165,27230,1,0,0:0:0:0:
320,257,27430,2,0,L|361:148,1,100,2|0,0:0|0:0,0:0:0:0:
239,116,27830,6,0,L|248:175,1,50,0|2,0:0|0:0,0:0:0:0:
191,270,28230,2,0,B|130:250|130:250|68:286,1,100,0|2,0:0|0:0,0:0:0:0:
79,274,28530,1,2,0:0:0:0:
61,263,28630,1,0,0:0:0:0:
52,244,28730,1,0,0:0:0:0:
56,224,28830,1,0,0:0:0:0:
66,206,28930,2,0,B|17:136|17:136|40:74,1,150,2|0,0:0|0:0,0:0:0:0:
166,49,29430,6,0,L|168:102,1,50,0|2,0:0|0:0,0:0:0:0:
225,180,29830,2,0,L|259:75,1,100,0|2,0:0|0:0,0:0:0:0:
338,172,30230,1,2,0:0:0:0:
454,116,30430,1,0,0:0:0:0:
333,72,30630,1,2,0:0:0:0:
449,16,30830,5,0,0:0:0:0:
398,145,31030,1,0,0:0:0:0:
384,117,31130,1,2,0:0:0:0:
291,50,31430,2,0,L|279:161,1,100,0|2,0:0|0:0,0:0:0:0:
235,218,31730,2,0,L|219:160,1,50,2|0,0:0|0:0,0:0:0:0:
171,123,31930,2,0,L|155:184,1,50,0|0,0:0|0:0,0:0:0:0:
111,226,32130,2,0,L|95:175,1,50,2|0,0:0|0:0,0:0:0:0:
59,94,32430,5,0,1:0:0:0:
75,82,32530,1,0,1:0:0:0:
93,73,32630,1,0,1:0:0:0:
111,66,32730,1,0,1:0:0:0:
131,60,32830,1,0,1:0:0:0:
150,56,32930,1,0,1:0:0:0:
170,55,33030,1,0,1:0:0:0:
190,55,33130,1,0,1:0:0:0:
210,57,33230,5,0,1:0:0:0:
229,61,33330,1,0,1:0:0:0:
248,68,33430,1,0,1:0:0:0:
267,76,33530,1,0,1:0:0:0:
284,86,33630,1,0,1:0:0:0:
300,97,33730,1,0,1:0:0:0:
316,110,33830,1,0,1:0:0:0:
329,125,33930,1,0,1:0:0:0:
341,144,34030,2,0,L|383:106,1,50,0|0,1:0|1:0,0:0:0:0:
441,144,34230,2,0,L|430:199,1,50,0|0,1:0|1:0,0:0:0:0:
427,214,34430,5,0,1:0:0:0:
405,203,34530,1,0,1:0:0:0:
381,200,34630,1,0,1:0:0:0:
358,206,34730,1,0,1:0:0:0:
339,220,34830,1,0,1:0:0:0:
325,239,34930,1,0,1:0:0:0:
320,263,35030,1,0,1:0:0:0:
322,286,35130,1,0,1:0:0:0:
333,307,35230,1,0,1:0:0:0:
351,323,35330,1,0,1:0:0:0:
373,332,35430,1,0,0:0:0:0:
397,332,35530,1,0,1:0:0:0:
420,324,35630,5,0,1:0:0:0:
343,240,35830,2,0,P|298:238|258:216,1,50,0|0,1:0|0:0,0:0:0:0:
198,235,36230,1,0,1:0:0:0:
242,163,36430,1,0,1:0:0:0:
131,228,36630,1,0,1:0:0:0:
168,96,36830,1,0,1:0:0:0:
65,222,37030,1,0,1:0:0:0:
93,29,37230,5,4,0:0:0:0:
184,155,37430,1,0,0:0:0:0:
193,124,37530,1,0,0:0:0:0:
314,324,37830,2,0,L|280:247,1,60.0000022888184,0|0,0:0|0:0,0:0:0:0:
306,232,38130,1,0,0:0:0:0:
423,337,38330,1,8,0:0:0:0:
412,309,38430,1,8,0:0:0:0:
402,281,38530,1,0,0:0:0:0:
472,95,38830,6,0,P|352:86|331:71,1,120.000004577637,4|0,1:0|0:0,0:0:0:0:
320,210,39230,1,0,0:0:0:0:
258,93,39430,1,0,0:0:0:0:
145,24,39630,2,0,P|162:90|142:144,1,120.000004577637,0|0,1:0|1:0,0:0:0:0:
74,248,40030,2,0,P|174:236|224:255,1,120.000004577637,8|0,0:0|1:0,0:0:0:0:
253,155,40430,1,0,1:0:0:0:
262,130,40530,1,0,0:0:0:0:
267,105,40630,1,0,0:0:0:0:
267,79,40730,1,0,1:0:0:0:
255,18,40830,5,0,0:0:0:0:
274,40,40930,1,0,0:0:0:0:
298,59,41030,1,0,0:0:0:0:
326,71,41130,1,0,0:0:0:0:
382,50,41230,5,0,1:0:0:0:
368,77,41330,1,0,1:0:0:0:
357,105,41430,1,0,0:0:0:0:
350,133,41530,1,0,0:0:0:0:
345,163,41630,1,0,0:0:0:0:
343,193,41730,1,0,1:0:0:0:
344,224,41830,1,0,1:0:0:0:
347,253,41930,1,0,0:0:0:0:
287,295,42030,5,0,1:0:0:0:
281,310,42130,1,0,0:0:0:0:
270,319,42230,1,0,0:0:0:0:
254,321,42330,1,0,1:0:0:0:
240,312,42430,1,8,0:0:0:0:
236,298,42530,1,0,0:0:0:0:
239,282,42630,1,0,0:0:0:0:
251,273,42730,1,0,0:0:0:0:
278,201,42830,5,0,1:0:0:0:
290,210,42930,1,0,0:0:0:0:
305,211,43030,1,0,1:0:0:0:
318,203,43130,1,0,0:0:0:0:
325,188,43230,1,8,0:0:0:0:
320,174,43330,1,0,0:0:0:0:
308,163,43430,1,0,1:0:0:0:
294,162,43530,1,0,0:0:0:0:
284,165,43630,1,0,1:0:0:0:
174,63,43830,6,0,L|183:125,2,40,0|0|0,0:0|1:0|0:0,0:0:0:0:
270,59,44230,2,0,P|300:106|366:129,1,120.000004577637,0|0,0:0|1:0,0:0:0:0:
416,199,44630,2,0,P|360:201|307:247,1,120.000004577637,0|8,0:0|0:0,0:0:0:0:
220,257,45030,2,0,P|245:207|232:138,1,120.000004577637,0|0,1:0|1:0,0:0:0:0:
178,67,45430,5,0,0:0:0:0:
166,88,45530,1,0,1:0:0:0:
154,109,45630,1,0,0:0:0:0:
56,176,45830,5,0,0:0:0:0:
68,155,45930,1,0,0:0:0:0:
80,134,46030,1,0,1:0:0:0:
170,187,46230,5,0,1:0:0:0:
149,176,46330,1,0,0:0:0:0:
128,164,46430,1,8,0:0:0:0:
61,65,46630,5,0,1:0:0:0:
82,77,46730,1,0,0:0:0:0:
105,89,46830,2,0,P|149:127|182:181,1,120.000004577637,0|0,1:0|0:0,0:0:0:0:
228,97,47230,2,0,L|236:67,1,23.9999992675781,0|0,0:0|0:0,0:0:0:0:
268,173,47430,2,0,L|260:203,1,23.9999992675781,0|0,0:0|0:0,0:0:0:0:
311,109,47630,2,0,L|319:79,1,23.9999992675781,0|0,1:0|1:0,0:0:0:0:
351,185,47830,2,0,L|343:215,1,23.9999992675781,0|0,0:0|0:0,0:0:0:0:
393,113,48030,2,0,L|401:83,1,23.9999992675781,0|0,0:0|1:0,0:0:0:0:
433,189,48230,2,0,L|425:219,1,23.9999992675781,0|0,1:0|0:0,0:0:0:0:
418,242,48430,5,0,1:0:0:0:
394,240,48530,1,0,0:0:0:0:
370,242,48630,1,0,0:0:0:0:
346,247,48730,1,0,1:0:0:0:
324,256,48830,1,8,0:0:0:0:
303,267,48930,1,0,0:0:0:0:
284,282,49030,1,0,0:0:0:0:
267,299,49130,1,0,0:0:0:0:
204,272,49230,5,0,1:0:0:0:
217,251,49330,1,0,0:0:0:0:
227,230,49430,1,0,1:0:0:0:
234,207,49530,1,0,0:0:0:0:
238,183,49630,1,8,0:0:0:0:
239,159,49730,1,0,0:0:0:0:
237,136,49830,1,0,1:0:0:0:
231,112,49930,1,0,0:0:0:0:
222,90,50030,6,0,P|165:110|49:116,1,150,0|0,1:0|1:0,0:0:0:0:
0,35,50430,2,0,P|5:109|28:180,1,150,8|0,0:0|0:0,0:0:0:0:
0,248,50830,2,0,P|74:242|145:219,1,150,0|0,1:0|1:0,0:0:0:0:
214,174,51230,2,0,P|208:248|185:319,1,150,8|0,1:2|1:0,0:0:0:0:
177,341,51630,1,6,0:0:0:0:
184,332,51730,1,0,0:0:0:0:
193,323,51830,1,0,0:0:0:0:
202,315,51930,1,0,0:0:0:0:
211,307,52030,1,10,0:0:0:0:
220,299,52130,5,0,0:0:0:0:
230,292,52230,1,0,0:0:0:0:
240,286,52330,1,0,0:0:0:0:
250,280,52430,1,2,0:0:0:0:
261,274,52530,1,0,0:0:0:0:
271,269,52630,1,0,0:0:0:0:
282,264,52730,1,0,0:0:0:0:
294,259,52830,1,10,0:0:0:0:
305,256,52930,1,0,0:0:0:0:
316,252,53030,1,0,0:0:0:0:
328,249,53130,1,0,0:0:0:0:
340,246,53230,1,2,0:0:0:0:
416,320,53430,6,0,L|428:304,2,20.0000007629395,0|0|0,0:0|0:0|0:0,0:0:0:0:
480,224,53630,2,0,L|492:208,2,20.0000007629395,10|0|0,0:0|0:0|0:0,0:0:0:0:
416,128,53830,2,0,L|436:104,2,20.0000007629395,0|0|0,0:0|0:0|0:0,0:0:0:0:
352,224,54030,2,0,L|372:200,2,20.0000007629395,2|0|0,0:0|0:0|0:0,0:0:0:0:
288,128,54230,2,0,L|308:104,2,20.0000007629395,0|0|0,0:0|0:0|0:0,0:0:0:0:
352,32,54430,2,0,L|372:8,4,20.0000007629395,10|0|0|0|0,0:0|0:0|0:0|0:0|0:0,0:0:0:0:
480,32,54830,5,2,0:0:0:0:
416,134,55030,2,0,L|407:105,1,30.0000011444092,0|10,0:0|0:0,0:0:0:0:
453,230,55330,1,0,0:0:0:0:
480,241,55430,1,0,0:0:0:0:
365,279,55630,1,2,0:0:0:0:
361,290,55730,1,0,0:0:0:0:
357,301,55830,1,0,0:0:0:0:
352,312,55930,1,0,0:0:0:0:
346,323,56030,1,10,0:0:0:0:
339,333,56130,1,0,0:0:0:0:
332,342,56230,1,0,0:0:0:0:
324,351,56330,1,0,0:0:0:0:
315,359,56430,6,0,L|289:369,11,26.6666666666667,2|0|0|0|0|0|10|0|0|0|0|0,0:0|0:0|0:0|0:0|0:0|0:0|0:0|0:0|0:0|0:0|0:0|0:0,0:0:0:0:
253,292,57230,2,0,L|262:264,10,26.6666666666667,2|0|0|0|0|0|10|0|0|2|0,0:0|0:0|0:0|0:0|0:0|0:0|0:0|0:0|0:0|0:0|0:0,0:0:0:0:
173,282,58030,5,6,0:0:0:0:
35,202,58230,1,0,0:0:0:0:
115,64,58430,1,10,0:0:0:0:
253,143,58630,1,0,0:0:0:0:
173,282,58830,5,2,0:0:0:0:
198,125,59030,1,0,0:0:0:0:
355,152,59230,1,10,0:0:0:0:
327,310,59430,1,2,0:0:0:0:
478,264,59630,6,0,P|419:244|339:235,1,120.000004577637,6|0,0:0|0:0,0:0:0:0:
243,233,60030,2,0,P|289:191|337:127,1,120.000004577637,10|0,0:0|0:0,0:0:0:0:
137,67,60430,2,0,L|235:147,1,120.000004577637,2|0,0:0|0:0,0:0:0:0:
59,260,60830,2,0,L|139:162,1,120.000004577637,10|2,0:0|0:0,0:0:0:0:
179,303,61230,5,6,0:0:0:0:
134,167,61430,1,0,0:0:0:0:
308,322,61630,5,10,0:0:0:0:
204,223,61830,1,2,0:0:0:0:
374,256,62030,5,6,0:0:0:0:
350,246,62130,1,0,0:0:0:0:
327,238,62230,1,0,0:0:0:0:
306,229,62330,1,0,0:0:0:0:
283,221,62430,1,10,0:0:0:0:
260,212,62530,1,0,0:0:0:0:
238,203,62630,1,2,0:0:0:0:
216,195,62730,1,2,0:0:0:0:
197,188,62830,6,0,L|177:180,12,13.3333333333333,6|0|0|0|0|0|14|0|0|0|0|0|6,0:0|0:0|0:0|0:0|0:0|0:0|0:0|0:0|0:0|0:0|0:0|0:0|0:0,0:0:0:0:
192,64,63830,1,6,0:0:0:0:
323,56,64030,5,14,0:0:0:0:
291,111,64130,1,6,0:0:0:0:
346,143,64230,1,6,0:0:0:0:
378,88,64330,1,6,0:0:0:0:
160,192,65530,6,0,L|192:128,1,40,8|8,0:0|0:0,0:0:0:0:
81,229,65830,1,0,0:0:0:0:
483,294,66030,6,0,L|454:257,1,30.0000011444092,4|0,0:0|0:0,0:0:0:0:
376,237,66230,2,0,L|422:230,1,30.0000011444092,2|0,0:0|0:0,0:0:0:0:
478,173,66430,2,0,L|460:216,1,30.0000011444092,0|0,0:0|0:0,0:0:0:0:
294,327,66630,6,0,L|299:280,1,30.0000011444092,0|0,0:0|0:0,0:0:0:0:
258,211,66830,2,0,L|295:239,1,30.0000011444092,0|0,0:0|0:0,0:0:0:0:
376,237,67030,2,0,L|332:255,1,30.0000011444092,2|0,0:0|0:0,0:0:0:0:
330,253,67230,1,0,0:0:0:0:
301,263,67330,1,0,0:0:0:0:
272,269,67430,1,2,0:0:0:0:
242,271,67530,1,0,0:0:0:0:
243,312,67630,5,0,0:0:0:0:
214,303,67730,1,0,0:0:0:0:
186,291,67830,1,2,0:0:0:0:
161,274,67930,1,0,0:0:0:0:
139,254,68030,1,0,0:0:0:0:
120,230,68130,1,0,0:0:0:0:
105,204,68230,1,0,0:0:0:0:
95,176,68330,1,0,0:0:0:0:
61,152,68430,5,0,0:0:0:0:
90,155,68530,1,0,0:0:0:0:
120,153,68630,1,2,0:0:0:0:
149,144,68730,1,0,0:0:0:0:
175,130,68830,1,0,0:0:0:0:
198,111,68930,1,0,0:0:0:0:
217,87,69030,1,0,0:0:0:0:
230,61,69130,1,0,0:0:0:0:
238,32,69230,6,0,L|243:63,1,30.0000011444092,0|0,0:0|0:0,0:0:0:0:
258,158,69430,2,0,L|289:152,1,30.0000011444092,0|0,0:0|0:0,0:0:0:0:
385,135,69630,2,0,L|379:103,1,30.0000011444092,0|0,0:0|0:0,0:0:0:0:
362,9,69830,2,0,L|330:14,1,30.0000011444092,0|0,0:0|0:0,0:0:0:0:
355,139,70030,6,0,L|336:165,1,30.0000011444092,0|0,0:0|0:0,0:0:0:0:
280,242,70230,2,0,L|306:260,1,30.0000011444092,2|0,0:0|0:0,0:0:0:0:
386,315,70430,2,0,L|404:288,1,30.0000011444092,0|0,0:0|0:0,0:0:0:0:
458,210,70630,2,0,L|431:191,1,30.0000011444092,2|0,0:0|0:0,0:0:0:0:
472,334,70830,6,0,L|445:352,1,30.0000011444092,0|0,0:0|0:0,0:0:0:0:
294,302,71030,2,0,L|320:283,1,30.0000011444092,2|0,0:0|0:0,0:0:0:0:
402,328,71230,6,0,L|370:330,1,30.0000011444092,0|0,0:0|0:0,0:0:0:0:
263,211,71430,2,0,L|294:208,1,30.0000011444092,2|0,0:0|0:0,0:0:0:0:
294,302,71630,6,0,L|264:288,1,30.0000011444092,0|0,0:0|0:0,0:0:0:0:
232,131,71830,2,0,L|261:144,1,30.0000011444092,2|0,0:0|0:0,0:0:0:0:
263,211,72030,6,0,L|244:184,1,30.0000011444092,0|0,0:0|0:0,0:0:0:0:
294,31,72230,2,0,L|312:57,1,30.0000011444092,2|0,0:0|0:0,0:0:0:0:
337,88,72430,5,0,0:0:0:0:
307,89,72530,1,0,0:0:0:0:
277,88,72630,1,0,0:0:0:0:
247,85,72730,1,0,0:0:0:0:
217,80,72830,1,0,0:0:0:0:
188,73,72930,1,0,0:0:0:0:
159,64,73030,1,0,0:0:0:0:
132,53,73130,1,0,0:0:0:0:
139,19,73230,5,0,0:0:0:0:
139,48,73330,1,0,0:0:0:0:
134,78,73430,1,2,0:0:0:0:
126,107,73530,1,0,0:0:0:0:
114,134,73630,1,0,0:0:0:0:
97,159,73730,1,0,0:0:0:0:
77,182,73830,1,2,0:0:0:0:
54,201,73930,1,0,0:0:0:0:
14,158,74030,5,0,0:0:0:0:
43,157,74130,1,0,0:0:0:0:
73,161,74230,1,2,0:0:0:0:
102,169,74330,1,0,0:0:0:0:
130,180,74430,1,0,0:0:0:0:
156,195,74530,1,0,0:0:0:0:
179,214,74630,1,2,0:0:0:0:
200,235,74730,1,0,0:0:0:0:
143,244,74830,5,0,0:0:0:0:
169,229,74930,1,0,0:0:0:0:
197,218,75030,1,2,0:0:0:0:
226,210,75130,1,0,0:0:0:0:
255,205,75230,1,0,0:0:0:0:
285,202,75330,1,0,0:0:0:0:
315,203,75430,1,2,0:0:0:0:
345,207,75530,1,0,0:0:0:0:
374,214,75630,6,0,L|354:251,1,30.0000011444092,0|0,0:0|0:0,0:0:0:0:
413,324,75830,2,0,L|393:361,1,30.0000011444092,2|0,0:0|0:0,0:0:0:0:
373,184,76030,6,0,L|374:226,1,30.0000011444092,0|0,0:0|0:0,0:0:0:0:
461,259,76230,2,0,L|462:301,1,30.0000011444092,2|0,0:0|0:0,0:0:0:0:
357,158,76430,6,0,L|379:193,1,30.0000011444092,0|0,0:0|0:0,0:0:0:0:
470,178,76630,2,0,L|492:213,1,30.0000011444092,2|0,0:0|0:0,0:0:0:0:
330,143,76830,6,0,L|367:163,1,30.0000011444092,0|0,0:0|0:0,0:0:0:0:
437,103,77030,2,0,L|473:122,1,30.0000011444092,2|2,0:0|0:0,0:0:0:0:
330,142,77230,6,0,P|273:126|240:87,1,90.0000034332277,2|0,0:0|0:0,0:0:0:0:
213,41,77630,2,0,P|166:55|98:130,1,120,2|0,0:0|0:0,0:0:0:0:
34,158,78030,2,0,P|108:193|162:278,1,150,2|0,0:0|0:0,0:0:0:0:
150,332,78430,2,0,P|290:282|370:289,1,180.000006866455,2|0,0:0|0:0,0:0:0:0:
327,316,78830,5,6,0:0:0:0:
348,295,78930,1,0,0:0:0:0:
366,271,79030,1,0,0:0:0:0:
379,244,79130,1,0,0:0:0:0:
387,215,79230,1,10,0:0:0:0:
389,185,79330,1,0,0:0:0:0:
386,155,79430,1,0,0:0:0:0:
378,126,79530,1,0,0:0:0:0:
364,100,79630,1,2,0:0:0:0:
346,76,79730,1,0,0:0:0:0:
324,56,79830,1,0,0:0:0:0:
298,40,79930,1,0,0:0:0:0:
271,29,80030,5,10,0:0:0:0:
241,24,80130,1,0,0:0:0:0:
211,23,80230,1,0,0:0:0:0:
182,29,80330,1,0,0:0:0:0:
154,39,80430,1,2,0:0:0:0:
128,55,80530,1,0,0:0:0:0:
106,75,80630,1,0,0:0:0:0:
87,99,80730,1,0,0:0:0:0:
74,125,80830,1,10,0:0:0:0:
65,154,80930,1,0,0:0:0:0:
62,184,81030,1,0,0:0:0:0:
64,214,81130,1,0,0:0:0:0:
125,273,81230,5,2,0:0:0:0:
139,246,81330,1,0,0:0:0:0:
147,218,81430,1,0,0:0:0:0:
150,188,81530,1,0,0:0:0:0:
246,162,81630,5,10,0:0:0:0:
231,188,81730,1,0,0:0:0:0:
222,216,81830,1,0,0:0:0:0:
220,246,81930,1,0,0:0:0:0:
268,307,82030,5,2,0:0:0:0:
287,283,82130,1,0,0:0:0:0:
305,259,82230,1,0,0:0:0:0:
323,235,82330,1,0,0:0:0:0:
409,228,82430,5,10,0:0:0:0:
390,204,82530,1,0,0:0:0:0:
372,180,82630,1,0,0:0:0:0:
354,156,82730,1,0,0:0:0:0:
269,148,82830,5,2,0:0:0:0:
288,124,82930,1,0,0:0:0:0:
306,100,83030,1,0,0:0:0:0:
324,76,83130,1,0,0:0:0:0:
342,50,83230,2,0,L|367:14,3,30.0000011444092,10|0|0|0,0:0|0:0|0:0|0:0,0:0:0:0:
223,60,83630,2,0,L|248:24,3,30.0000011444092,2|0|0|0,0:0|0:0|0:0|0:0,0:0:0:0:
104,73,84030,2,0,L|129:37,3,30.0000011444092,10|0|0|0,0:0|0:0|0:0|0:0,0:0:0:0:
94,91,84430,5,2,0:0:0:0:
78,116,84530,1,0,0:0:0:0:
65,143,84630,1,0,0:0:0:0:
55,171,84730,1,0,0:0:0:0:
47,200,84830,1,10,0:0:0:0:
43,230,84930,1,0,0:0:0:0:
41,260,85030,1,10,0:0:0:0:
43,290,85130,1,0,0:0:0:0:
48,320,85230,5,6,0:0:0:0:
255,285,85430,1,0,0:0:0:0:
360,301,85630,5,10,0:0:0:0:
153,266,85830,1,0,0:0:0:0:
255,285,86030,5,2,0:0:0:0:
255,285,86130,1,0,0:0:0:0:
255,285,86230,1,0,0:0:0:0:
462,249,86430,2,0,P|394:218|362:181,1,120.000004577637,10|2,0:0|0:0,0:0:0:0:
441,108,86830,1,6,0:0:0:0:
434,103,86930,1,0,0:0:0:0:
428,98,87030,1,0,0:0:0:0:
421,94,87130,1,0,0:0:0:0:
414,90,87230,1,10,0:0:0:0:
406,87,87330,5,0,0:0:0:0:
399,84,87430,1,0,0:0:0:0:
391,81,87530,1,0,0:0:0:0:
384,79,87630,1,2,0:0:0:0:
376,77,87730,1,0,0:0:0:0:
368,76,87830,1,0,0:0:0:0:
360,75,87930,1,0,0:0:0:0:
352,74,88030,1,10,0:0:0:0:
344,74,88130,1,0,0:0:0:0:
336,74,88230,1,2,0:0:0:0:
328,75,88330,1,2,0:0:0:0:
320,76,88430,5,6,0:0:0:0:
154,173,88630,1,0,0:0:0:0:
280,202,88830,5,10,0:0:0:0:
183,36,89030,1,2,0:0:0:0:
26,89,89230,5,4,0:0:0:0:
46,67,89330,1,0,0:0:0:0:
65,44,89430,1,0,0:0:0:0:
158,217,89630,1,10,0:0:0:0:
139,195,89730,1,0,0:0:0:0:
119,172,89830,1,2,0:0:0:0:
35,347,90030,5,6,0:0:0:0:
63,337,90130,1,0,0:0:0:0:
92,327,90230,1,0,0:0:0:0:
120,317,90330,1,2,0:0:0:0:
169,259,90430,5,14,0:0:0:0:
141,249,90530,1,0,0:0:0:0:
113,239,90630,1,0,0:0:0:0:
84,229,90730,1,2,0:0:0:0:
31,175,90830,5,6,0:0:0:0:
59,165,90930,1,0,0:0:0:0:
88,155,91030,1,6,0:0:0:0:
116,145,91130,1,0,0:0:0:0:
184,101,91230,5,14,0:0:0:0:
158,87,91330,1,6,0:0:0:0:
131,72,91430,1,6,0:0:0:0:
105,58,91530,1,6,0:0:0:0:
78,44,91630,1,6,0:1:0:0:
275,63,91930,5,0,0:0:0:0:
275,63,92030,1,0,0:0:0:0:
373,140,92230,1,0,0:0:0:0:
373,140,92330,1,0,0:0:0:0:
373,140,92430,2,0,P|303:151|284:162,1,88.000002685547,0|0,0:0|0:0,0:0:0:0:
261,172,92730,1,0,0:0:0:0:
261,172,92830,1,0,0:0:0:0:
102,64,93230,6,0,P|92:139|75:174,1,88.000002685547,0|0,0:0|0:0,0:0:0:0:
75,179,93530,1,0,0:0:0:0:
75,179,93630,1,0,0:0:0:0:
88,319,93830,5,0,0:0:0:0:
200,245,94030,1,0,0:0:0:0:
392,331,94330,1,0,0:0:0:0:
392,331,94430,2,0,P|450:315|486:315,1,88.000002685547,0|0,0:0|0:0,0:0:0:0:
427,193,94830,2,0,P|372:152|350:124,1,88.000002685547,0|0,0:0|0:0,0:0:0:0:
347,115,95130,1,0,0:0:0:0:
347,115,95230,1,0,0:0:0:0:
217,169,95430,5,0,0:0:0:0:
173,51,95630,2,0,P|158:91|120:129,1,88.000002685547,0|0,0:0|0:0,0:0:0:0:
111,155,95930,1,0,0:0:0:0:
111,155,96030,1,0,0:0:0:0:
41,277,96230,1,0,0:0:0:0:
174,322,96430,6,0,P|262:307|338:369,1,176.000005371094,0|0,0:0|0:0,0:0:0:0:
260,199,97030,1,0,0:0:0:0:
386,110,97230,2,0,P|371:198|433:274,1,176.000005371094,0|0,0:0|0:0,0:0:0:0:
260,199,97830,1,0,0:0:0:0:
257,116,98030,5,2,0:0:0:0:
245,118,98130,1,0,0:0:0:0:
233,122,98230,1,0,0:0:0:0:
223,127,98330,1,0,0:0:0:0:
213,133,98430,1,2,0:0:0:0:
204,141,98530,1,0,0:0:0:0:
196,150,98630,1,0,0:0:0:0:
189,160,98730,1,0,0:0:0:0:
184,171,98830,5,2,0:0:0:0:
180,182,98930,1,0,0:0:0:0:
178,194,99030,1,0,0:0:0:0:
177,206,99130,1,0,0:0:0:0:
178,218,99230,1,2,0:0:0:0:
180,230,99330,1,0,0:0:0:0:
184,241,99430,1,0,0:0:0:0:
190,252,99530,1,0,0:0:0:0:
197,262,99630,1,2,0:0:0:0:
79,323,99830,5,0,0:0:0:0:
113,236,100030,1,2,0:0:0:0:
137,219,100130,1,2,0:0:0:0:
165,207,100230,1,2,0:0:0:0:
194,200,100330,1,2,0:0:0:0:
224,198,100430,1,2,0:0:0:0:
254,202,100530,1,2,0:0:0:0:
282,211,100630,1,2,0:0:0:0:
309,225,100730,1,0,0:0:0:0:
333,243,100830,1,2,0:0:0:0:
353,266,100930,1,0,0:0:0:0:
368,291,101030,1,0,0:0:0:0:
379,319,101130,1,0,0:0:0:0:
385,348,101230,1,2,0:0:0:0:
433,170,101630,6,0,P|376:154|357:155,1,60.0000022888184,0|0,0:0|0:0,0:0:0:0:
333,147,101930,1,2,0:0:0:0:
333,147,102030,1,2,0:0:0:0:
92,175,102430,6,0,P|104:202|126:223,1,60.0000022888184,0|0,0:0|0:0,0:0:0:0:
242,196,102830,2,0,P|213:192|185:201,1,60.0000022888184,2|0,0:0|0:0,0:0:0:0:
147,314,103230,2,0,P|165:291|172:262,1,60.0000022888184,0|0,0:0|0:0,0:0:0:0:
158,118,103630,1,2,0:0:0:0:
358,322,103830,6,0,B|386:256|386:256|438:225|438:225|464:161,1,180.000006866455,0|0,0:0|0:0,0:0:0:0:
238,129,104430,5,4,1:0:0:0:
421,57,104730,1,0,1:0:0:0:
421,57,104830,2,0,P|326:55|283:69,1,120.000004577637,8|0,1:2|0:0,0:0:0:0:
353,308,105230,1,0,1:0:0:0:
170,236,105530,1,0,0:0:0:0:
170,236,105630,2,0,P|264:234|307:248,1,120.000004577637,8|0,1:2|0:0,0:0:0:0:
429,204,106030,5,0,1:0:0:0:
297,87,106330,1,0,1:0:0:0:
297,87,106430,2,0,B|285:148|285:148|331:215,1,120.000004577637,8|0,1:2|0:0,0:0:0:0:
83,180,106830,1,0,1:0:0:0:
215,297,107130,1,0,0:0:0:0:
215,297,107230,2,0,B|227:236|227:236|181:169,1,120.000004577637,8|0,1:2|1:0,0:0:0:0:
420,174,107630,5,0,1:0:0:0:
278,42,107930,1,0,1:0:0:0:
278,42,108030,2,0,L|134:13,1,120.000004577637,8|0,1:2|0:0,0:0:0:0:
68,286,108430,1,0,1:0:0:0:
210,154,108730,1,0,0:0:0:0:
210,154,108830,2,0,L|354:125,1,120.000004577637,8|0,1:2|0:0,0:0:0:0:
355,296,109230,6,0,B|277:280|277:280|230:303,1,120.000004577637,0|0,1:0|0:0,0:0:0:0:
197,327,109530,1,0,0:0:0:0:
197,327,109630,1,8,1:2:0:0:
157,88,110030,2,0,B|235:104|235:104|282:81,1,120.000004577637,0|0,1:0|1:0,0:0:0:0:
315,57,110330,1,0,0:0:0:0:
315,57,110430,1,8,1:2:0:0:
432,203,110830,5,4,1:0:0:0:
314,227,111030,1,0,0:0:0:0:
197,252,111230,2,0,L|300:338,1,120.000004577637,8|0,1:2|0:0,0:0:0:0:
55,127,111630,1,0,1:0:0:0:
172,151,111830,1,0,0:0:0:0:
289,176,112030,2,0,L|186:261,1,120.000004577637,8|0,1:2|0:0,0:0:0:0:
430,50,112430,1,0,1:0:0:0:
313,74,112630,1,0,0:0:0:0:
196,99,112830,2,0,L|298:184,1,120.000004577637,8|0,1:2|0:0,0:0:0:0:
440,160,113230,5,0,1:0:0:0:
426,174,113330,1,0,0:0:0:0:
414,190,113430,1,0,0:0:0:0:
405,208,113530,1,0,0:0:0:0:
398,227,113630,1,8,1:2:0:0:
394,246,113730,1,0,0:0:0:0:
392,266,113830,1,0,0:0:0:0:
393,286,113930,1,0,0:0:0:0:
397,306,114030,1,0,1:0:0:0:
269,321,114230,6,0,P|236:260|234:212,1,80,0|8,0:0|0:2,0:0:0:0:
389,137,114730,1,0,1:0:0:0:
389,137,114830,1,0,1:0:0:0:
305,39,115030,2,0,P|236:81|207:86,1,80,0|8,0:0|0:2,0:0:0:0:
121,133,115430,1,0,0:0:0:0:
63,252,115630,2,0,P|121:255|235:289,1,160,0|8,1:0|0:2,0:0:0:0:
233,193,116230,1,0,0:0:0:0:
381,130,116430,2,0,P|323:127|209:93,1,160,0|8,1:0|1:2,0:0:0:0:
233,193,117030,1,0,1:0:0:0:
459,327,117230,6,0,P|431:285|418:201,1,120,6|0,0:0|0:0,0:0:0:0:
435,189,117630,1,10,0:0:0:0:
424,177,117730,1,0,0:0:0:0:
412,166,117830,1,0,0:0:0:0:
399,156,117930,1,0,0:0:0:0:
386,147,118030,1,2,0:0:0:0:
373,139,118130,1,0,0:0:0:0:
358,131,118230,1,0,0:0:0:0:
344,125,118330,1,0,0:0:0:0:
328,120,118430,1,10,0:0:0:0:
313,116,118530,5,0,0:0:0:0:
297,113,118630,1,0,0:0:0:0:
281,111,118730,1,0,0:0:0:0:
265,111,118830,1,2,0:0:0:0:
249,111,118930,1,0,0:0:0:0:
233,113,119030,1,0,0:0:0:0:
218,116,119130,1,0,0:0:0:0:
202,120,119230,1,10,0:0:0:0:
187,125,119330,1,0,0:0:0:0:
172,131,119430,1,0,0:0:0:0:
158,138,119530,5,0,0:0:0:0:
144,146,119630,1,2,0:0:0:0:
131,155,119730,1,0,0:0:0:0:
118,165,119830,1,0,0:0:0:0:
106,176,119930,1,0,0:0:0:0:
96,187,120030,1,10,0:0:0:0:
85,200,120130,1,0,0:0:0:0:
76,213,120230,1,0,0:0:0:0:
68,227,120330,1,0,0:0:0:0:
60,243,120430,6,0,B|110:277|110:277|129:331,1,100,2|0,0:0|0:0,0:0:0:0:
188,272,120830,2,0,B|222:222|222:222|276:203,1,100,2|0,0:0|0:0,0:0:0:0:
387,238,121230,2,0,B|337:204|337:204|318:150,1,100,2|0,0:0|0:0,0:0:0:0:
359,36,121630,2,0,B|325:86|325:86|271:105,1,100,2|0,0:0|0:0,0:0:0:0:
252,109,121930,1,8,0:0:0:0:
252,109,122030,1,14,0:0:0:0:
