osu file format v14

[General]
AudioFilename: audio.mp3
AudioLeadIn: 0
PreviewTime: 38636
Countdown: 0
SampleSet: Soft
StackLeniency: 0.7
Mode: 3
LetterboxInBreaks: 0
StoryFireInFront: 0
EpilepsyWarning: 1
SpecialStyle: 0
WidescreenStoryboard: 1

[Editor]
DistanceSpacing: 0.9
BeatDivisor: 4
GridSize: 8
TimelineZoom: 3.699999

[Metadata]
Title:Tenkuu no Yoake
TitleUnicode:天空の夜明け
Artist:Cuvelia
ArtistUnicode:Cuvelia
Creator:Ibrahim
Version:Sora's Hyper
Source:beatmania IIDX 19 Lincle
Tags:KONAMI BEMANI Last Dance Sky High pop'n music Sunny Park REFLEC BEAT limelight plus ポップンリズミン the dawn of the sky original soundtrack dj taka -SoraGami- Critical_Star Dellvangel arviejhay
BeatmapID:1083050
BeatmapSetID:509270

[Difficulty]
HPDrainRate:7.5
CircleSize:4
OverallDifficulty:7.5
ApproachRate:5
SliderMultiplier:1.4
SliderTickRate:1

[Events]
//Background and Video events
0,0,"672344.jpg",0,0
//Break Periods
//Storyboard Layer 0 (Background)
//Storyboard Layer 1 (Fail)
//Storyboard Layer 2 (Pass)
//Storyboard Layer 3 (Foreground)
//Storyboard Sound Samples

[TimingPoints]
236,400,4,2,1,32,1,0
38636,-100,4,2,1,32,0,1
64136,-100,4,2,1,32,0,0
104236,-100,4,2,1,32,0,1
117036,-100,4,2,1,32,0,0

[HitObjects]
448,192,236,128,0,1036:0:0:0:0:
320,192,1036,128,0,1436:0:0:0:0:
192,192,1436,128,0,1836:0:0:0:0:
64,192,1836,128,0,2636:0:0:0:0:
320,192,2636,128,0,3436:0:0:0:0:
192,192,3436,128,0,4236:0:0:0:0:
448,192,4236,128,0,5036:0:0:0:0:
64,192,5036,128,0,6636:0:0:0:0:
320,192,5836,128,0,6636:0:0:0:0:
448,192,6636,128,0,7436:0:0:0:0:
192,192,7436,128,0,7836:0:0:0:0:
320,192,7836,128,0,8236:0:0:0:0:
64,192,8236,128,0,9036:0:0:0:0:
448,192,9036,128,0,9836:0:0:0:0:
192,192,9836,128,0,10636:0:0:0:0:
320,192,10636,128,0,11436:0:0:0:0:
448,192,11436,128,0,13036:0:0:0:0:
64,192,12236,128,0,13036:0:0:0:0:
192,192,13036,1,0,0:0:0:0:
320,192,13036,1,0,0:0:0:0:
448,192,13136,1,0,0:0:0:0:
64,192,13236,1,0,0:0:0:0:
320,192,13336,1,0,0:0:0:0:
192,192,13436,1,0,0:0:0:0:
448,192,13536,1,0,0:0:0:0:
320,192,13636,1,0,0:0:0:0:
64,192,13736,1,0,0:0:0:0:
192,192,13836,1,0,0:0:0:0:
448,192,13936,1,0,0:0:0:0:
64,192,14036,1,0,0:0:0:0:
320,192,14136,1,0,0:0:0:0:
192,192,14236,1,0,0:0:0:0:
448,192,14336,1,0,0:0:0:0:
320,192,14436,1,0,0:0:0:0:
192,192,14536,1,0,0:0:0:0:
64,192,14636,1,0,0:0:0:0:
448,192,14636,1,0,0:0:0:0:
320,192,14736,1,0,0:0:0:0:
192,192,14836,1,0,0:0:0:0:
448,192,14936,1,0,0:0:0:0:
320,192,15036,1,0,0:0:0:0:
64,192,15136,1,0,0:0:0:0:
448,192,15236,1,0,0:0:0:0:
192,192,15336,1,0,0:0:0:0:
320,192,15436,1,0,0:0:0:0:
64,192,15536,1,0,0:0:0:0:
192,192,15636,1,0,0:0:0:0:
448,192,15736,1,0,0:0:0:0:
64,192,15836,1,0,0:0:0:0:
320,192,15936,1,0,0:0:0:0:
192,192,16036,1,0,0:0:0:0:
448,192,16136,1,0,0:0:0:0:
64,192,16236,1,0,0:0:0:0:
320,192,16236,1,0,0:0:0:0:
192,192,16336,1,0,0:0:0:0:
448,192,16436,1,0,0:0:0:0:
320,192,16536,1,0,0:0:0:0:
64,192,16636,1,0,0:0:0:0:
192,192,16736,1,0,0:0:0:0:
448,192,16836,1,0,0:0:0:0:
64,192,16936,1,0,0:0:0:0:
320,192,17036,1,0,0:0:0:0:
192,192,17136,1,0,0:0:0:0:
448,192,17236,1,0,0:0:0:0:
320,192,17336,1,0,0:0:0:0:
64,192,17436,1,0,0:0:0:0:
192,192,17536,1,0,0:0:0:0:
320,192,17636,1,0,0:0:0:0:
448,192,17736,1,0,0:0:0:0:
192,192,17836,1,0,0:0:0:0:
64,192,17836,1,0,0:0:0:0:
320,192,17936,1,0,0:0:0:0:
64,192,18036,1,0,0:0:0:0:
448,192,18136,1,0,0:0:0:0:
192,192,18236,1,0,0:0:0:0:
320,192,18336,1,0,0:0:0:0:
64,192,18436,1,0,0:0:0:0:
192,192,18536,1,0,0:0:0:0:
448,192,18636,1,0,0:0:0:0:
320,192,18736,1,0,0:0:0:0:
64,192,18836,1,0,0:0:0:0:
448,192,18936,1,0,0:0:0:0:
192,192,19036,1,0,0:0:0:0:
320,192,19136,1,0,0:0:0:0:
64,192,19236,1,0,0:0:0:0:
192,192,19336,1,0,0:0:0:0:
320,192,19436,1,0,0:0:0:0:
448,192,19436,1,0,0:0:0:0:
64,192,19536,1,0,0:0:0:0:
448,192,19636,1,0,0:0:0:0:
192,192,19736,1,0,0:0:0:0:
320,192,19836,1,0,0:0:0:0:
64,192,19936,1,0,0:0:0:0:
192,192,20036,1,0,0:0:0:0:
448,192,20136,1,0,0:0:0:0:
192,192,20236,1,0,0:0:0:0:
320,192,20336,1,0,0:0:0:0:
64,192,20436,1,0,0:0:0:0:
448,192,20536,1,0,0:0:0:0:
192,192,20636,1,0,0:0:0:0:
320,192,20736,1,0,0:0:0:0:
64,192,20836,1,0,0:0:0:0:
448,192,20936,1,0,0:0:0:0:
64,192,21036,1,0,0:0:0:0:
192,192,21036,1,0,0:0:0:0:
320,192,21136,1,0,0:0:0:0:
448,192,21236,1,0,0:0:0:0:
64,192,21336,1,0,0:0:0:0:
320,192,21436,1,0,0:0:0:0:
192,192,21536,1,0,0:0:0:0:
448,192,21636,1,0,0:0:0:0:
64,192,21736,1,0,0:0:0:0:
448,192,21836,1,0,0:0:0:0:
192,192,21936,1,0,0:0:0:0:
320,192,22036,1,0,0:0:0:0:
64,192,22136,1,0,0:0:0:0:
192,192,22236,1,0,0:0:0:0:
448,192,22336,1,0,0:0:0:0:
320,192,22436,1,0,0:0:0:0:
64,192,22536,1,0,0:0:0:0:
320,192,22636,1,0,0:0:0:0:
448,192,22636,1,0,0:0:0:0:
192,192,22736,1,0,0:0:0:0:
448,192,22836,1,0,0:0:0:0:
64,192,22936,1,0,0:0:0:0:
320,192,23036,1,0,0:0:0:0:
192,192,23136,1,0,0:0:0:0:
64,192,23236,1,0,0:0:0:0:
448,192,23336,1,0,0:0:0:0:
64,192,23436,1,0,0:0:0:0:
320,192,23536,1,0,0:0:0:0:
192,192,23636,1,0,0:0:0:0:
448,192,23736,1,0,0:0:0:0:
320,192,23836,1,0,0:0:0:0:
64,192,23936,1,0,0:0:0:0:
448,192,24036,1,0,0:0:0:0:
192,192,24136,1,0,0:0:0:0:
320,192,24236,1,0,0:0:0:0:
448,192,24236,1,0,0:0:0:0:
64,192,24336,1,0,0:0:0:0:
192,192,24436,1,0,0:0:0:0:
320,192,24536,1,0,0:0:0:0:
448,192,24636,1,0,0:0:0:0:
64,192,24736,1,0,0:0:0:0:
192,192,24836,1,0,0:0:0:0:
320,192,24936,1,0,0:0:0:0:
192,192,25036,1,0,0:0:0:0:
448,192,25136,1,0,0:0:0:0:
64,192,25236,1,0,0:0:0:0:
320,192,25336,1,0,0:0:0:0:
192,192,25436,1,0,0:0:0:0:
448,192,25536,1,0,0:0:0:0:
320,192,25636,1,0,0:0:0:0:
192,192,25736,1,0,0:0:0:0:
64,192,25836,1,4,0:0:0:0:
448,192,25836,1,2,0:0:0:0:
320,192,25836,1,0,0:0:0:0:
192,192,26036,1,0,0:0:0:0:
448,192,26136,1,0,0:0:0:0:
64,192,26136,1,0,0:0:0:0:
320,192,26436,1,0,0:0:0:0:
192,192,26436,1,0,0:0:0:0:
192,192,26836,1,0,0:0:0:0:
448,192,26836,1,0,0:0:0:0:
320,192,27036,1,8,0:0:0:0:
64,192,27036,1,0,0:0:0:0:
192,192,27236,1,0,0:0:0:0:
64,192,27236,1,0,0:0:0:0:
320,192,27436,1,0,0:0:0:0:
448,192,27436,1,0,0:0:0:0:
64,192,27636,1,0,0:0:0:0:
320,192,27736,1,0,0:0:0:0:
448,192,27736,1,0,0:0:0:0:
192,192,28036,1,0,0:0:0:0:
64,192,28036,1,0,0:0:0:0:
448,192,28336,1,0,0:0:0:0:
192,192,28436,1,0,0:0:0:0:
448,192,28536,1,0,0:0:0:0:
64,192,28636,1,0,0:0:0:0:
320,192,28736,1,0,0:0:0:0:
192,192,28836,1,0,0:0:0:0:
320,192,29036,1,0,0:0:0:0:
64,192,29036,1,0,0:0:0:0:
448,192,29236,1,0,0:0:0:0:
64,192,29336,1,0,0:0:0:0:
320,192,29336,1,0,0:0:0:0:
192,192,29636,1,0,0:0:0:0:
448,192,29636,1,0,0:0:0:0:
448,192,29836,1,0,0:0:0:0:
64,192,29836,1,0,0:0:0:0:
320,192,30036,1,0,0:0:0:0:
192,192,30036,1,0,0:0:0:0:
320,192,30236,1,8,0:0:0:0:
64,192,30236,1,0,0:0:0:0:
192,192,30436,1,0,0:0:0:0:
448,192,30436,1,0,0:0:0:0:
448,192,30636,1,0,0:0:0:0:
64,192,30636,1,0,0:0:0:0:
320,192,30836,1,0,0:0:0:0:
448,192,30936,1,0,0:0:0:0:
64,192,30936,1,0,0:0:0:0:
192,192,31236,1,0,0:0:0:0:
320,192,31236,1,0,0:0:0:0:
448,192,31536,1,0,0:0:0:0:
64,192,31636,1,0,0:0:0:0:
448,192,31736,1,0,0:0:0:0:
192,192,31836,1,0,0:0:0:0:
320,192,31936,1,0,0:0:0:0:
64,192,32036,1,0,0:0:0:0:
320,192,32236,1,0,0:0:0:0:
448,192,32236,1,0,0:0:0:0:
192,192,32336,1,0,0:0:0:0:
320,192,32436,1,0,0:0:0:0:
64,192,32536,1,0,0:0:0:0:
192,192,32636,1,8,0:0:0:0:
448,192,32736,1,0,0:0:0:0:
64,192,32836,1,0,0:0:0:0:
320,192,32936,1,0,0:0:0:0:
192,192,33036,1,0,0:0:0:0:
448,192,33136,1,0,0:0:0:0:
320,192,33236,1,0,0:0:0:0:
64,192,33336,1,0,0:0:0:0:
192,192,33436,1,8,0:0:0:0:
448,192,33536,1,0,0:0:0:0:
64,192,33636,1,0,0:0:0:0:
320,192,33736,1,0,0:0:0:0:
192,192,33836,1,0,0:0:0:0:
64,192,33836,1,0,0:0:0:0:
448,192,33936,1,0,0:0:0:0:
192,192,34036,1,0,0:0:0:0:
320,192,34136,1,0,0:0:0:0:
64,192,34236,1,8,0:0:0:0:
448,192,34336,1,0,0:0:0:0:
320,192,34436,1,0,0:0:0:0:
192,192,34536,1,0,0:0:0:0:
64,192,34636,1,0,0:0:0:0:
320,192,34736,1,0,0:0:0:0:
64,192,34836,1,0,0:0:0:0:
448,192,34936,1,0,0:0:0:0:
192,192,35036,1,8,0:0:0:0:
448,192,35136,1,0,0:0:0:0:
320,192,35236,1,0,0:0:0:0:
64,192,35336,1,0,0:0:0:0:
192,192,35436,1,0,0:0:0:0:
448,192,35436,1,0,0:0:0:0:
320,192,35636,1,0,0:0:0:0:
192,192,35736,1,0,0:0:0:0:
64,192,35736,1,0,0:0:0:0:
448,192,35836,1,8,0:0:0:0:
320,192,36036,1,0,0:0:0:0:
64,192,36036,1,0,0:0:0:0:
192,192,36236,1,0,0:0:0:0:
448,192,36236,1,0,0:0:0:0:
448,192,36436,1,0,0:0:0:0:
320,192,36436,1,0,0:0:0:0:
64,192,36636,1,0,0:0:0:0:
192,192,36636,1,0,0:0:0:0:
192,192,36836,1,0,0:0:0:0:
320,192,36836,1,0,0:0:0:0:
64,192,37036,1,4,0:0:0:0:
320,192,37036,1,2,0:0:0:0:
448,192,37036,1,0,0:0:0:0:
192,192,37836,1,2,0:0:0:0:
64,192,37836,1,0,0:0:0:0:
320,192,37936,1,0,0:0:0:0:
64,192,38136,1,8,0:0:0:0:
448,192,38136,1,0,0:0:0:0:
320,192,38236,1,8,0:0:0:0:
192,192,38236,1,0,0:0:0:0:
192,192,38436,1,0,0:0:0:0:
64,192,38636,1,2,0:0:0:0:
448,192,38636,1,4,0:0:0:0:
320,192,38702,1,0,0:0:0:0:
192,192,38769,1,0,0:0:0:0:
64,192,38836,1,0,0:0:0:0:
448,192,38902,1,0,0:0:0:0:
320,192,38969,1,0,0:0:0:0:
64,192,39036,1,8,0:0:0:0:
192,192,39102,1,0,0:0:0:0:
320,192,39169,1,0,0:0:0:0:
448,192,39236,1,0,0:0:0:0:
320,192,39336,1,0,0:0:0:0:
192,192,39436,1,2,0:0:0:0:
64,192,39436,1,0,0:0:0:0:
448,192,39536,1,0,0:0:0:0:
320,192,39636,1,0,0:0:0:0:
192,192,39736,1,0,0:0:0:0:
64,192,39836,1,8,0:0:0:0:
448,192,39836,1,0,0:0:0:0:
320,192,39936,1,0,0:0:0:0:
192,192,40036,1,0,0:0:0:0:
320,192,40136,1,0,0:0:0:0:
64,192,40236,1,2,0:0:0:0:
448,192,40236,1,0,0:0:0:0:
192,192,40436,1,0,0:0:0:0:
320,192,40536,1,0,0:0:0:0:
192,192,40636,1,8,0:0:0:0:
64,192,40636,1,0,0:0:0:0:
448,192,40836,1,0,0:0:0:0:
192,192,40936,1,0,0:0:0:0:
320,192,41036,1,2,0:0:0:0:
448,192,41036,1,0,0:0:0:0:
64,192,41102,1,0,0:0:0:0:
320,192,41236,1,0,0:0:0:0:
64,192,41302,1,0,0:0:0:0:
448,192,41436,1,8,0:0:0:0:
192,192,41502,1,0,0:0:0:0:
448,192,41636,1,0,0:0:0:0:
192,192,41702,1,0,0:0:0:0:
448,192,41836,1,2,0:0:0:0:
320,192,41836,1,0,0:0:0:0:
64,192,41936,1,0,0:0:0:0:
192,192,42036,1,0,0:0:0:0:
320,192,42136,1,0,0:0:0:0:
64,192,42236,1,8,0:0:0:0:
448,192,42236,1,0,0:0:0:0:
192,192,42336,1,0,0:0:0:0:
320,192,42436,1,0,0:0:0:0:
192,192,42536,1,0,0:0:0:0:
320,192,42636,1,2,0:0:0:0:
448,192,42636,1,8,0:0:0:0:
64,192,42736,1,0,0:0:0:0:
192,192,42836,1,0,0:0:0:0:
320,192,42936,1,0,0:0:0:0:
192,192,43036,1,8,0:0:0:0:
64,192,43036,1,0,0:0:0:0:
448,192,43136,1,0,0:0:0:0:
320,192,43236,1,0,0:0:0:0:
192,192,43336,1,0,0:0:0:0:
64,192,43436,1,2,0:0:0:0:
448,192,43436,1,0,0:0:0:0:
320,192,43636,1,0,0:0:0:0:
192,192,43736,1,0,0:0:0:0:
448,192,43836,1,8,0:0:0:0:
320,192,43836,1,0,0:0:0:0:
64,192,44036,1,0,0:0:0:0:
64,192,44236,1,2,0:0:0:0:
448,192,44236,1,0,0:0:0:0:
192,192,44436,1,0,0:0:0:0:
192,192,44636,1,8,0:0:0:0:
320,192,44636,1,0,0:0:0:0:
448,192,44836,1,0,0:0:0:0:
64,192,45036,1,2,0:0:0:0:
448,192,45036,1,0,0:0:0:0:
192,192,45102,1,0,0:0:0:0:
320,192,45169,1,0,0:0:0:0:
448,192,45236,1,0,0:0:0:0:
64,192,45302,1,0,0:0:0:0:
192,192,45369,1,0,0:0:0:0:
448,192,45436,1,8,0:0:0:0:
320,192,45502,1,0,0:0:0:0:
192,192,45569,1,0,0:0:0:0:
64,192,45636,1,0,0:0:0:0:
192,192,45736,1,0,0:0:0:0:
320,192,45836,1,2,0:0:0:0:
448,192,45836,1,0,0:0:0:0:
64,192,45936,1,0,0:0:0:0:
192,192,46036,1,0,0:0:0:0:
320,192,46136,1,0,0:0:0:0:
64,192,46236,1,8,0:0:0:0:
448,192,46236,1,0,0:0:0:0:
320,192,46336,1,0,0:0:0:0:
192,192,46436,1,0,0:0:0:0:
448,192,46536,1,0,0:0:0:0:
64,192,46636,1,2,0:0:0:0:
320,192,46636,1,0,0:0:0:0:
448,192,46836,1,0,0:0:0:0:
192,192,46936,1,0,0:0:0:0:
320,192,47036,1,8,0:0:0:0:
448,192,47036,1,0,0:0:0:0:
64,192,47236,1,0,0:0:0:0:
320,192,47336,1,0,0:0:0:0:
64,192,47436,1,2,0:0:0:0:
192,192,47436,1,0,0:0:0:0:
448,192,47502,1,0,0:0:0:0:
192,192,47636,1,0,0:0:0:0:
448,192,47702,1,0,0:0:0:0:
64,192,47836,1,8,0:0:0:0:
320,192,47902,1,0,0:0:0:0:
64,192,48036,1,0,0:0:0:0:
320,192,48102,1,0,0:0:0:0:
192,192,48236,1,2,0:0:0:0:
64,192,48236,1,0,0:0:0:0:
448,192,48336,1,0,0:0:0:0:
320,192,48436,1,0,0:0:0:0:
192,192,48536,1,0,0:0:0:0:
320,192,48636,1,8,0:0:0:0:
448,192,48636,1,0,0:0:0:0:
64,192,48736,1,0,0:0:0:0:
192,192,48836,1,0,0:0:0:0:
320,192,48936,1,0,0:0:0:0:
64,192,49036,1,2,0:0:0:0:
192,192,49036,1,0,0:0:0:0:
448,192,49136,1,0,0:0:0:0:
320,192,49236,1,0,0:0:0:0:
192,192,49336,1,0,0:0:0:0:
64,192,49436,1,8,0:0:0:0:
448,192,49436,1,0,0:0:0:0:
320,192,49536,1,0,0:0:0:0:
192,192,49636,1,0,0:0:0:0:
320,192,49736,1,0,0:0:0:0:
448,192,49836,1,2,0:0:0:0:
64,192,49836,1,0,0:0:0:0:
320,192,50036,1,0,0:0:0:0:
192,192,50136,1,0,0:0:0:0:
320,192,50236,1,8,0:0:0:0:
448,192,50236,1,0,0:0:0:0:
64,192,50436,1,0,0:0:0:0:
64,192,50636,1,2,0:0:0:0:
448,192,50636,1,0,0:0:0:0:
192,192,50836,1,2,0:0:0:0:
448,192,50836,1,0,0:0:0:0:
320,192,51036,1,2,0:0:0:0:
192,192,51036,1,0,0:0:0:0:
320,192,51236,1,2,0:0:0:0:
64,192,51236,1,0,0:0:0:0:
192,192,51436,1,4,0:0:0:0:
64,192,51436,1,2,0:0:0:0:
448,192,51436,1,0,0:0:0:0:
320,192,51536,1,0,0:0:0:0:
192,192,51636,1,0,0:0:0:0:
320,192,51736,1,0,0:0:0:0:
64,192,51836,1,2,0:0:0:0:
448,192,51836,1,8,0:0:0:0:
192,192,51936,1,0,0:0:0:0:
320,192,52036,1,0,0:0:0:0:
448,192,52136,1,0,0:0:0:0:
320,192,52236,1,2,0:0:0:0:
64,192,52336,1,0,0:0:0:0:
192,192,52436,1,0,0:0:0:0:
320,192,52536,1,0,0:0:0:0:
448,192,52636,1,8,0:0:0:0:
64,192,52636,1,2,0:0:0:0:
192,192,52736,1,0,0:0:0:0:
320,192,52836,1,0,0:0:0:0:
192,192,52936,1,0,0:0:0:0:
448,192,53036,1,2,0:0:0:0:
64,192,53036,1,0,0:0:0:0:
448,192,53236,1,0,0:0:0:0:
320,192,53302,1,0,0:0:0:0:
192,192,53369,1,0,0:0:0:0:
448,192,53502,1,0,0:0:0:0:
64,192,53569,1,0,0:0:0:0:
448,192,53702,1,0,0:0:0:0:
64,192,53769,1,0,0:0:0:0:
320,192,53902,1,0,0:0:0:0:
192,192,53969,1,0,0:0:0:0:
64,192,54036,1,0,0:0:0:0:
448,192,54102,1,0,0:0:0:0:
320,192,54169,1,0,0:0:0:0:
64,192,54236,1,10,0:0:0:0:
192,192,54302,1,0,0:0:0:0:
448,192,54369,1,0,0:0:0:0:
320,192,54436,1,0,0:0:0:0:
64,192,54502,1,0,0:0:0:0:
192,192,54569,1,0,0:0:0:0:
320,192,54636,1,2,0:0:0:0:
448,192,54636,1,0,0:0:0:0:
192,192,54836,1,0,0:0:0:0:
320,192,54936,1,0,0:0:0:0:
448,192,55036,1,8,0:0:0:0:
64,192,55036,1,2,0:0:0:0:
192,192,55136,1,0,0:0:0:0:
320,192,55236,1,0,0:0:0:0:
64,192,55336,1,0,0:0:0:0:
192,192,55436,1,2,0:0:0:0:
448,192,55536,1,0,0:0:0:0:
320,192,55636,1,0,0:0:0:0:
192,192,55736,1,0,0:0:0:0:
64,192,55836,1,8,0:0:0:0:
448,192,55836,1,2,0:0:0:0:
320,192,55936,1,0,0:0:0:0:
192,192,56036,1,0,0:0:0:0:
320,192,56136,1,0,0:0:0:0:
448,192,56236,1,2,0:0:0:0:
64,192,56236,1,0,0:0:0:0:
320,192,56436,1,0,0:0:0:0:
192,192,56502,1,0,0:0:0:0:
64,192,56569,1,0,0:0:0:0:
448,192,56636,1,10,0:0:0:0:
320,192,56702,1,0,0:0:0:0:
192,192,56769,1,0,0:0:0:0:
320,192,56836,1,0,0:0:0:0:
448,192,56902,1,0,0:0:0:0:
64,192,56969,1,0,0:0:0:0:
192,192,57036,1,2,0:0:0:0:
320,192,57102,1,0,0:0:0:0:
448,192,57169,1,0,0:0:0:0:
320,192,57236,1,0,0:0:0:0:
192,192,57302,1,0,0:0:0:0:
64,192,57369,1,0,0:0:0:0:
448,192,57436,1,10,0:0:0:0:
320,192,57502,1,0,0:0:0:0:
192,192,57569,1,0,0:0:0:0:
64,192,57636,1,0,0:0:0:0:
192,192,57702,1,0,0:0:0:0:
320,192,57769,1,0,0:0:0:0:
64,192,57836,1,2,0:0:0:0:
448,192,57836,1,4,0:0:0:0:
192,192,58036,1,0,0:0:0:0:
320,192,58136,1,0,0:0:0:0:
448,192,58236,1,8,0:0:0:0:
64,192,58236,1,2,0:0:0:0:
192,192,58436,1,0,0:0:0:0:
320,192,58536,1,0,0:0:0:0:
64,192,58636,1,2,0:0:0:0:
192,192,58736,1,0,0:0:0:0:
448,192,58836,1,0,0:0:0:0:
320,192,58936,1,0,0:0:0:0:
64,192,59036,1,2,0:0:0:0:
192,192,59036,1,8,0:0:0:0:
448,192,59136,1,0,0:0:0:0:
320,192,59236,1,0,0:0:0:0:
192,192,59336,1,0,0:0:0:0:
64,192,59436,1,4,0:0:0:0:
448,192,59436,1,2,0:0:0:0:
192,192,59636,1,0,0:0:0:0:
320,192,59736,1,0,0:0:0:0:
64,192,59836,1,2,0:0:0:0:
448,192,59836,1,8,0:0:0:0:
320,192,60036,1,0,0:0:0:0:
192,192,60136,1,0,0:0:0:0:
64,192,60236,1,2,0:0:0:0:
448,192,60436,1,0,0:0:0:0:
320,192,60536,1,0,0:0:0:0:
64,192,60636,1,2,0:0:0:0:
192,192,60636,1,8,0:0:0:0:
192,192,60836,1,0,0:0:0:0:
320,192,60936,1,0,0:0:0:0:
64,192,61036,1,4,0:0:0:0:
448,192,61036,1,2,0:0:0:0:
192,192,61136,1,0,0:0:0:0:
320,192,61236,1,0,0:0:0:0:
192,192,61336,1,0,0:0:0:0:
64,192,61436,1,2,0:0:0:0:
448,192,61436,1,8,0:0:0:0:
320,192,61636,1,0,0:0:0:0:
192,192,61836,1,4,0:0:0:0:
448,192,61836,1,2,0:0:0:0:
320,192,61936,1,0,0:0:0:0:
64,192,62036,1,0,0:0:0:0:
192,192,62136,1,0,0:0:0:0:
448,192,62236,1,8,0:0:0:0:
320,192,62236,1,2,0:0:0:0:
192,192,62436,1,0,0:0:0:0:
64,192,62636,1,4,0:0:0:0:
448,192,62636,1,2,0:0:0:0:
320,192,62702,1,0,0:0:0:0:
192,192,62769,1,0,0:0:0:0:
320,192,62836,1,0,0:0:0:0:
448,192,62902,1,0,0:0:0:0:
64,192,62969,1,0,0:0:0:0:
192,192,63036,1,12,0:0:0:0:
320,192,63102,1,0,0:0:0:0:
192,192,63169,1,0,0:0:0:0:
64,192,63236,1,0,0:0:0:0:
448,192,63302,1,0,0:0:0:0:
320,192,63369,1,0,0:0:0:0:
192,192,63436,1,2,0:0:0:0:
64,192,63436,1,4,0:0:0:0:
192,192,63636,1,2,0:0:0:0:
320,192,63636,1,0,0:0:0:0:
64,192,63836,1,2,0:0:0:0:
448,192,63836,1,8,0:0:0:0:
320,192,63936,1,10,0:0:0:0:
192,192,64036,1,0,0:0:0:0:
64,192,64036,1,2,0:0:0:0:
448,192,64136,1,10,0:0:0:0:
64,192,65336,5,8,0:0:0:0:
192,192,65336,1,0,0:0:0:0:
320,192,65436,1,8,0:0:0:0:
448,192,65436,1,0,0:0:0:0:
192,192,65636,1,2,0:0:0:0:
320,192,65636,1,0,0:0:0:0:
192,192,65836,1,2,0:0:0:0:
64,192,65836,1,4,0:0:0:0:
448,192,65836,1,0,0:0:0:0:
320,192,65936,1,0,0:0:0:0:
192,192,66036,1,0,0:0:0:0:
320,192,66136,1,0,0:0:0:0:
64,192,66236,1,8,0:0:0:0:
192,192,66336,1,0,0:0:0:0:
448,192,66436,1,0,0:0:0:0:
64,192,66536,1,0,0:0:0:0:
320,192,66636,1,2,0:0:0:0:
448,192,66636,1,0,0:0:0:0:
192,192,66736,1,0,0:0:0:0:
64,192,66836,1,0,0:0:0:0:
320,192,66936,1,0,0:0:0:0:
192,192,67036,1,8,0:0:0:0:
320,192,67136,1,0,0:0:0:0:
448,192,67236,1,0,0:0:0:0:
64,192,67336,1,0,0:0:0:0:
320,192,67436,1,2,0:0:0:0:
448,192,67436,1,0,0:0:0:0:
192,192,67536,1,0,0:0:0:0:
64,192,67636,1,0,0:0:0:0:
192,192,67736,1,0,0:0:0:0:
320,192,67836,1,8,0:0:0:0:
192,192,67936,1,0,0:0:0:0:
448,192,68036,1,0,0:0:0:0:
64,192,68136,1,0,0:0:0:0:
320,192,68236,1,2,0:0:0:0:
448,192,68236,1,0,0:0:0:0:
192,192,68336,1,0,0:0:0:0:
64,192,68436,1,0,0:0:0:0:
448,192,68536,1,0,0:0:0:0:
320,192,68636,1,8,0:0:0:0:
192,192,68736,1,0,0:0:0:0:
64,192,68836,1,0,0:0:0:0:
448,192,68936,1,0,0:0:0:0:
192,192,69036,1,2,0:0:0:0:
64,192,69036,1,0,0:0:0:0:
320,192,69136,1,0,0:0:0:0:
448,192,69236,1,0,0:0:0:0:
64,192,69336,1,0,0:0:0:0:
192,192,69436,1,8,0:0:0:0:
320,192,69536,1,0,0:0:0:0:
64,192,69636,1,0,0:0:0:0:
448,192,69736,1,0,0:0:0:0:
64,192,69836,1,2,0:0:0:0:
192,192,69836,1,0,0:0:0:0:
320,192,69936,1,0,0:0:0:0:
448,192,70036,1,0,0:0:0:0:
192,192,70136,1,0,0:0:0:0:
320,192,70236,1,8,0:0:0:0:
192,192,70336,1,0,0:0:0:0:
64,192,70436,1,0,0:0:0:0:
448,192,70536,1,0,0:0:0:0:
192,192,70636,1,2,0:0:0:0:
64,192,70636,1,0,0:0:0:0:
320,192,70736,1,0,0:0:0:0:
192,192,70836,1,0,0:0:0:0:
448,192,70936,1,0,0:0:0:0:
320,192,71036,1,8,0:0:0:0:
192,192,71136,1,0,0:0:0:0:
64,192,71236,1,0,0:0:0:0:
448,192,71336,1,0,0:0:0:0:
192,192,71436,1,2,0:0:0:0:
64,192,71436,1,0,0:0:0:0:
320,192,71536,1,0,0:0:0:0:
192,192,71636,1,0,0:0:0:0:
448,192,71736,1,0,0:0:0:0:
320,192,71836,1,8,0:0:0:0:
64,192,71936,1,0,0:0:0:0:
448,192,72036,1,0,0:0:0:0:
192,192,72136,1,0,0:0:0:0:
320,192,72236,1,2,0:0:0:0:
448,192,72236,1,0,0:0:0:0:
64,192,72336,1,0,0:0:0:0:
192,192,72436,1,0,0:0:0:0:
320,192,72536,1,0,0:0:0:0:
192,192,72636,1,8,0:0:0:0:
64,192,72736,1,0,0:0:0:0:
448,192,72836,1,0,0:0:0:0:
192,192,72936,1,0,0:0:0:0:
320,192,73036,1,2,0:0:0:0:
448,192,73036,1,0,0:0:0:0:
64,192,73136,1,0,0:0:0:0:
192,192,73236,1,0,0:0:0:0:
448,192,73336,1,0,0:0:0:0:
320,192,73436,1,8,0:0:0:0:
192,192,73536,1,0,0:0:0:0:
448,192,73636,1,0,0:0:0:0:
64,192,73736,1,0,0:0:0:0:
320,192,73836,1,2,0:0:0:0:
448,192,73836,1,0,0:0:0:0:
192,192,73936,1,0,0:0:0:0:
64,192,74036,1,0,0:0:0:0:
192,192,74136,1,0,0:0:0:0:
320,192,74236,1,8,0:0:0:0:
192,192,74336,1,0,0:0:0:0:
448,192,74436,1,0,0:0:0:0:
64,192,74536,1,0,0:0:0:0:
320,192,74636,1,2,0:0:0:0:
448,192,74636,1,0,0:0:0:0:
192,192,74736,1,0,0:0:0:0:
320,192,74836,1,0,0:0:0:0:
64,192,74936,1,0,0:0:0:0:
192,192,75036,1,8,0:0:0:0:
448,192,75136,1,0,0:0:0:0:
64,192,75236,1,0,0:0:0:0:
320,192,75336,1,0,0:0:0:0:
192,192,75436,1,2,0:0:0:0:
64,192,75436,1,0,0:0:0:0:
448,192,75536,1,0,0:0:0:0:
320,192,75636,1,0,0:0:0:0:
192,192,75736,1,0,0:0:0:0:
320,192,75836,1,8,0:0:0:0:
64,192,75936,5,0,0:0:0:0:
192,192,76036,1,0,0:0:0:0:
448,192,76136,1,0,0:0:0:0:
192,192,76236,1,2,0:0:0:0:
64,192,76236,1,0,0:0:0:0:
320,192,76436,1,2,0:0:0:0:
448,192,76436,1,0,0:0:0:0:
192,192,76536,1,0,0:0:0:0:
448,192,76636,1,8,0:0:0:0:
64,192,76636,1,0,0:0:0:0:
320,192,76836,1,2,0:0:0:0:
192,192,76836,1,0,0:0:0:0:
64,192,77036,128,2,77436:0:0:0:0:
192,192,77036,1,0,0:0:0:0:
448,192,77236,1,0,0:0:0:0:
320,192,77336,1,0,0:0:0:0:
192,192,77436,128,0,77836:0:0:0:0:
448,192,77636,1,0,0:0:0:0:
64,192,77836,1,0,0:0:0:0:
320,192,77836,128,0,78236:0:0:0:0:
64,192,78036,1,0,0:0:0:0:
448,192,78236,128,2,78636:0:0:0:0:
192,192,78236,128,0,78436:0:0:0:0:
64,192,78436,1,2,0:0:0:0:
320,192,78636,1,4,0:0:0:0:
64,192,78636,1,2,0:0:0:0:
192,192,78736,1,0,0:0:0:0:
448,192,78836,1,0,0:0:0:0:
320,192,78936,1,0,0:0:0:0:
192,192,79036,1,8,0:0:0:0:
64,192,79036,1,2,0:0:0:0:
448,192,79136,1,0,0:0:0:0:
320,192,79236,1,0,0:0:0:0:
192,192,79336,1,0,0:0:0:0:
320,192,79436,1,2,0:0:0:0:
64,192,79536,1,0,0:0:0:0:
192,192,79636,1,0,0:0:0:0:
320,192,79736,1,0,0:0:0:0:
448,192,79836,1,8,0:0:0:0:
64,192,79836,1,2,0:0:0:0:
192,192,79936,1,0,0:0:0:0:
320,192,80036,1,0,0:0:0:0:
448,192,80136,1,0,0:0:0:0:
64,192,80236,1,2,0:0:0:0:
192,192,80336,1,0,0:0:0:0:
448,192,80436,1,0,0:0:0:0:
320,192,80536,1,0,0:0:0:0:
192,192,80636,1,8,0:0:0:0:
64,192,80636,1,2,0:0:0:0:
448,192,80736,1,0,0:0:0:0:
320,192,80836,1,0,0:0:0:0:
192,192,80936,1,0,0:0:0:0:
64,192,81036,1,2,0:0:0:0:
320,192,81136,1,0,0:0:0:0:
192,192,81236,1,0,0:0:0:0:
320,192,81336,1,0,0:0:0:0:
448,192,81436,1,2,0:0:0:0:
64,192,81436,1,8,0:0:0:0:
192,192,81536,1,0,0:0:0:0:
320,192,81636,1,0,0:0:0:0:
448,192,81736,1,0,0:0:0:0:
64,192,81836,1,2,0:0:0:0:
192,192,81936,1,0,0:0:0:0:
448,192,82036,1,0,0:0:0:0:
64,192,82136,1,0,0:0:0:0:
320,192,82236,1,2,0:0:0:0:
448,192,82236,1,8,0:0:0:0:
192,192,82336,1,0,0:0:0:0:
320,192,82436,1,0,0:0:0:0:
64,192,82536,1,0,0:0:0:0:
192,192,82636,1,2,0:0:0:0:
448,192,82736,1,0,0:0:0:0:
64,192,82836,1,0,0:0:0:0:
320,192,82936,1,0,0:0:0:0:
192,192,83036,1,8,0:0:0:0:
64,192,83036,1,2,0:0:0:0:
448,192,83136,1,0,0:0:0:0:
320,192,83236,1,0,0:0:0:0:
64,192,83336,1,0,0:0:0:0:
192,192,83436,1,2,0:0:0:0:
448,192,83536,1,0,0:0:0:0:
64,192,83636,1,0,0:0:0:0:
192,192,83736,1,0,0:0:0:0:
320,192,83836,1,8,0:0:0:0:
448,192,83836,1,2,0:0:0:0:
64,192,83936,1,0,0:0:0:0:
192,192,84036,1,0,0:0:0:0:
448,192,84136,1,0,0:0:0:0:
320,192,84236,1,2,0:0:0:0:
64,192,84336,1,0,0:0:0:0:
192,192,84436,1,0,0:0:0:0:
320,192,84536,1,0,0:0:0:0:
448,192,84636,1,2,0:0:0:0:
64,192,84636,1,8,0:0:0:0:
192,192,84736,1,0,0:0:0:0:
320,192,84836,1,0,0:0:0:0:
192,192,84936,1,0,0:0:0:0:
64,192,85036,1,4,0:0:0:0:
448,192,85036,1,2,0:0:0:0:
320,192,85136,1,0,0:0:0:0:
192,192,85236,1,0,0:0:0:0:
64,192,85336,1,0,0:0:0:0:
320,192,85436,1,8,0:0:0:0:
448,192,85436,1,2,0:0:0:0:
192,192,85536,1,0,0:0:0:0:
320,192,85636,1,0,0:0:0:0:
64,192,85736,1,0,0:0:0:0:
192,192,85836,1,2,0:0:0:0:
448,192,85936,1,0,0:0:0:0:
64,192,86036,1,0,0:0:0:0:
320,192,86136,1,0,0:0:0:0:
192,192,86236,1,2,0:0:0:0:
64,192,86236,1,8,0:0:0:0:
448,192,86336,1,0,0:0:0:0:
320,192,86436,1,0,0:0:0:0:
192,192,86536,1,0,0:0:0:0:
64,192,86636,1,4,0:0:0:0:
448,192,86636,1,2,0:0:0:0:
320,192,86736,1,0,0:0:0:0:
192,192,86836,1,0,0:0:0:0:
320,192,86936,1,0,0:0:0:0:
64,192,87036,1,8,0:0:0:0:
448,192,87036,1,2,0:0:0:0:
192,192,87136,1,0,0:0:0:0:
320,192,87236,1,0,0:0:0:0:
192,192,87336,1,0,0:0:0:0:
64,192,87436,1,2,0:0:0:0:
320,192,87536,1,0,0:0:0:0:
192,192,87636,1,0,0:0:0:0:
448,192,87736,1,0,0:0:0:0:
320,192,87836,1,2,0:0:0:0:
64,192,87836,1,8,0:0:0:0:
192,192,87936,1,0,0:0:0:0:
448,192,88036,1,0,0:0:0:0:
320,192,88136,1,0,0:0:0:0:
64,192,88236,1,4,0:0:0:0:
192,192,88236,1,2,0:0:0:0:
448,192,88336,1,0,0:0:0:0:
64,192,88436,1,0,0:0:0:0:
192,192,88536,1,0,0:0:0:0:
320,192,88636,1,8,0:0:0:0:
448,192,88636,1,2,0:0:0:0:
64,192,88736,1,0,0:0:0:0:
448,192,88836,1,0,0:0:0:0:
320,192,88936,1,0,0:0:0:0:
192,192,89036,1,4,0:0:0:0:
64,192,89036,1,2,0:0:0:0:
320,192,89136,1,0,0:0:0:0:
64,192,89236,1,0,0:0:0:0:
192,192,89336,1,0,0:0:0:0:
320,192,89436,1,8,0:0:0:0:
448,192,89436,1,2,0:0:0:0:
64,192,89536,1,0,0:0:0:0:
192,192,89636,1,0,0:0:0:0:
320,192,89736,1,0,0:0:0:0:
448,192,89836,1,2,0:0:0:0:
64,192,89836,1,0,0:0:0:0:
192,192,90036,1,0,0:0:0:0:
320,192,90136,1,2,0:0:0:0:
448,192,90136,1,0,0:0:0:0:
192,192,90236,1,8,0:0:0:0:
64,192,90236,1,2,0:0:0:0:
320,192,90436,1,0,0:0:0:0:
192,192,90536,1,2,0:0:0:0:
64,192,90536,1,0,0:0:0:0:
320,192,90636,5,2,0:0:0:0:
448,192,90636,1,0,0:0:0:0:
320,192,90836,1,2,0:0:0:0:
192,192,90836,1,0,0:0:0:0:
192,192,91036,1,2,0:0:0:0:
64,192,91036,1,8,0:0:0:0:
448,192,91136,1,2,0:0:0:0:
320,192,91236,1,2,0:0:0:0:
64,192,91236,1,8,0:0:0:0:
192,192,91336,1,2,0:0:0:0:
320,192,91436,1,4,0:0:0:0:
448,192,91436,1,2,0:0:0:0:
64,192,91736,5,0,0:0:0:0:
320,192,91836,1,0,0:0:0:0:
448,192,91836,1,0,0:0:0:0:
192,192,92036,1,0,0:0:0:0:
64,192,92236,1,0,0:0:0:0:
448,192,92236,1,0,0:0:0:0:
320,192,92536,1,0,0:0:0:0:
448,192,92636,1,0,0:0:0:0:
192,192,92636,1,0,0:0:0:0:
64,192,92836,1,0,0:0:0:0:
320,192,93036,1,0,0:0:0:0:
448,192,93036,1,0,0:0:0:0:
192,192,93336,1,0,0:0:0:0:
320,192,93436,1,0,0:0:0:0:
64,192,93436,1,0,0:0:0:0:
448,192,93636,1,0,0:0:0:0:
192,192,93836,1,0,0:0:0:0:
64,192,93836,1,0,0:0:0:0:
320,192,94136,1,0,0:0:0:0:
448,192,94236,1,0,0:0:0:0:
64,192,94236,1,0,0:0:0:0:
192,192,94436,1,0,0:0:0:0:
320,192,94636,1,0,0:0:0:0:
448,192,94636,1,0,0:0:0:0:
64,192,94936,1,0,0:0:0:0:
192,192,95036,1,0,0:0:0:0:
448,192,95036,1,0,0:0:0:0:
320,192,95236,1,0,0:0:0:0:
192,192,95436,1,0,0:0:0:0:
64,192,95436,1,0,0:0:0:0:
448,192,95736,1,0,0:0:0:0:
320,192,95836,1,0,0:0:0:0:
64,192,95836,1,0,0:0:0:0:
192,192,96036,1,0,0:0:0:0:
320,192,96236,1,0,0:0:0:0:
448,192,96236,1,0,0:0:0:0:
64,192,96536,1,0,0:0:0:0:
192,192,96636,1,0,0:0:0:0:
320,192,96636,1,0,0:0:0:0:
448,192,96836,1,0,0:0:0:0:
192,192,97036,1,0,0:0:0:0:
64,192,97036,1,0,0:0:0:0:
320,192,97336,1,0,0:0:0:0:
448,192,97436,1,0,0:0:0:0:
64,192,97436,1,0,0:0:0:0:
192,192,97636,1,0,0:0:0:0:
320,192,97836,1,0,0:0:0:0:
448,192,97836,128,0,98236:0:0:0:0:
192,192,98236,1,0,0:0:0:0:
64,192,98236,128,0,98636:0:0:0:0:
320,192,98636,128,0,99036:0:0:0:0:
448,192,98636,1,0,0:0:0:0:
448,192,99036,128,0,99436:0:0:0:0:
64,192,99036,1,0,0:0:0:0:
64,192,99436,128,0,99836:0:0:0:0:
192,192,99436,1,0,0:0:0:0:
448,192,99836,1,0,0:0:0:0:
320,192,99936,1,0,0:0:0:0:
192,192,100036,1,0,0:0:0:0:
320,192,100136,1,0,0:0:0:0:
64,192,100236,1,0,0:0:0:0:
192,192,100336,1,0,0:0:0:0:
320,192,100436,1,0,0:0:0:0:
448,192,100536,1,0,0:0:0:0:
320,192,100636,1,0,0:0:0:0:
192,192,100736,1,0,0:0:0:0:
448,192,100836,1,0,0:0:0:0:
320,192,100936,1,0,0:0:0:0:
192,192,101036,1,0,0:0:0:0:
64,192,101036,1,0,0:0:0:0:
64,192,101436,1,0,0:0:0:0:
448,192,101436,1,0,0:0:0:0:
320,192,101736,1,0,0:0:0:0:
448,192,101836,1,0,0:0:0:0:
192,192,101836,1,0,0:0:0:0:
320,192,102236,1,0,0:0:0:0:
64,192,102236,1,0,0:0:0:0:
192,192,102636,1,0,0:0:0:0:
64,192,102636,1,0,0:0:0:0:
320,192,103036,1,0,0:0:0:0:
448,192,103036,1,0,0:0:0:0:
192,192,103436,1,0,0:0:0:0:
320,192,103436,1,0,0:0:0:0:
64,192,103636,128,0,103836:0:0:0:0:
192,192,103836,1,0,0:0:0:0:
448,192,103836,1,0,0:0:0:0:
320,192,104236,1,2,0:0:0:0:
448,192,104236,1,4,0:0:0:0:
64,192,104236,1,0,0:0:0:0:
192,192,104536,1,0,0:0:0:0:
64,192,104536,1,0,0:0:0:0:
320,192,104636,1,8,0:0:0:0:
448,192,104636,1,2,0:0:0:0:
192,192,104836,1,0,0:0:0:0:
64,192,105036,1,2,0:0:0:0:
448,192,105036,1,0,0:0:0:0:
64,192,105336,1,0,0:0:0:0:
320,192,105336,1,0,0:0:0:0:
192,192,105436,1,2,0:0:0:0:
448,192,105436,1,8,0:0:0:0:
320,192,105636,1,0,0:0:0:0:
192,192,105836,1,2,0:0:0:0:
64,192,105836,1,0,0:0:0:0:
64,192,106136,1,0,0:0:0:0:
448,192,106136,1,0,0:0:0:0:
192,192,106236,1,2,0:0:0:0:
320,192,106236,1,8,0:0:0:0:
448,192,106436,1,0,0:0:0:0:
64,192,106636,1,2,0:0:0:0:
192,192,106636,1,0,0:0:0:0:
320,192,106936,1,0,0:0:0:0:
448,192,106936,1,0,0:0:0:0:
64,192,107036,1,8,0:0:0:0:
192,192,107036,1,2,0:0:0:0:
320,192,107236,1,2,0:0:0:0:
64,192,107236,1,0,0:0:0:0:
448,192,107436,1,2,0:0:0:0:
192,192,107436,1,0,0:0:0:0:
64,192,107736,1,0,0:0:0:0:
448,192,107736,1,0,0:0:0:0:
320,192,107836,1,2,0:0:0:0:
192,192,107836,1,8,0:0:0:0:
64,192,108036,1,0,0:0:0:0:
192,192,108236,1,2,0:0:0:0:
448,192,108236,1,0,0:0:0:0:
448,192,108536,1,0,0:0:0:0:
320,192,108536,1,0,0:0:0:0:
192,192,108636,1,8,0:0:0:0:
64,192,108636,1,2,0:0:0:0:
320,192,108836,1,0,0:0:0:0:
64,192,109036,1,2,0:0:0:0:
448,192,109036,1,0,0:0:0:0:
192,192,109336,1,0,0:0:0:0:
448,192,109336,1,0,0:0:0:0:
320,192,109436,1,8,0:0:0:0:
64,192,109436,1,2,0:0:0:0:
192,192,109636,1,0,0:0:0:0:
448,192,109836,1,2,0:0:0:0:
320,192,109836,1,0,0:0:0:0:
192,192,110036,1,2,0:0:0:0:
64,192,110036,1,0,0:0:0:0:
320,192,110136,1,0,0:0:0:0:
448,192,110236,1,8,0:0:0:0:
64,192,110236,1,2,0:0:0:0:
192,192,110436,1,2,0:0:0:0:
320,192,110436,1,0,0:0:0:0:
448,192,110636,1,2,0:0:0:0:
320,192,110636,1,4,0:0:0:0:
64,192,110636,128,0,111036:0:0:0:0:
192,192,110836,1,0,0:0:0:0:
320,192,111036,128,8,111436:0:0:0:0:
448,192,111036,1,2,0:0:0:0:
64,192,111236,1,0,0:0:0:0:
192,192,111436,128,2,111836:0:0:0:0:
448,192,111436,1,0,0:0:0:0:
320,192,111636,1,0,0:0:0:0:
448,192,111836,128,8,112236:0:0:0:0:
64,192,111836,1,2,0:0:0:0:
320,192,112036,1,0,0:0:0:0:
192,192,112236,1,2,0:0:0:0:
64,192,112236,128,0,112636:0:0:0:0:
320,192,112636,1,2,0:0:0:0:
448,192,112636,1,8,0:0:0:0:
192,192,112736,1,0,0:0:0:0:
448,192,112836,1,0,0:0:0:0:
320,192,112936,1,0,0:0:0:0:
192,192,113036,1,2,0:0:0:0:
64,192,113036,1,0,0:0:0:0:
448,192,113136,1,0,0:0:0:0:
320,192,113236,1,0,0:0:0:0:
64,192,113336,1,0,0:0:0:0:
192,192,113436,1,8,0:0:0:0:
448,192,113436,1,2,0:0:0:0:
320,192,113536,1,0,0:0:0:0:
64,192,113636,1,0,0:0:0:0:
192,192,113736,1,0,0:0:0:0:
320,192,113836,1,2,0:0:0:0:
448,192,113836,1,0,0:0:0:0:
448,192,114036,1,0,0:0:0:0:
192,192,114236,1,2,0:0:0:0:
64,192,114236,1,8,0:0:0:0:
320,192,114536,1,0,0:0:0:0:
192,192,114536,1,0,0:0:0:0:
64,192,114636,1,2,0:0:0:0:
448,192,114636,1,0,0:0:0:0:
320,192,114836,1,0,0:0:0:0:
192,192,115036,1,2,0:0:0:0:
64,192,115036,1,8,0:0:0:0:
448,192,115236,1,0,0:0:0:0:
320,192,115436,1,2,0:0:0:0:
192,192,115436,1,0,0:0:0:0:
192,192,115636,1,0,0:0:0:0:
64,192,115836,1,2,0:0:0:0:
448,192,115836,1,8,0:0:0:0:
320,192,116036,1,0,0:0:0:0:
192,192,116236,1,2,0:0:0:0:
64,192,116236,1,0,0:0:0:0:
448,192,116436,128,2,116636:0:0:0:0:
320,192,116436,128,0,116636:0:0:0:0:
64,192,116636,1,8,0:0:0:0:
192,192,116836,1,2,0:0:0:0:
320,192,116836,1,0,0:0:0:0:
192,192,117036,1,2,0:0:0:0:
64,192,117036,1,4,0:0:0:0:
448,192,117036,1,0,0:0:0:0:
320,192,117236,1,0,0:0:0:0:
448,192,117436,1,8,0:0:0:0:
64,192,117436,1,0,0:0:0:0:
192,192,117536,1,0,0:0:0:0:
320,192,117636,1,0,0:0:0:0:
192,192,117736,1,0,0:0:0:0:
64,192,117836,1,2,0:0:0:0:
448,192,117836,1,0,0:0:0:0:
320,192,117936,1,0,0:0:0:0:
192,192,118036,1,0,0:0:0:0:
320,192,118136,1,0,0:0:0:0:
448,192,118236,1,8,0:0:0:0:
64,192,118236,1,0,0:0:0:0:
192,192,118336,1,0,0:0:0:0:
320,192,118436,1,0,0:0:0:0:
192,192,118536,1,0,0:0:0:0:
64,192,118636,1,2,0:0:0:0:
448,192,118636,1,0,0:0:0:0:
320,192,118736,1,0,0:0:0:0:
192,192,118836,1,0,0:0:0:0:
64,192,118936,1,0,0:0:0:0:
320,192,119036,1,8,0:0:0:0:
448,192,119036,1,0,0:0:0:0:
192,192,119136,1,0,0:0:0:0:
64,192,119236,1,0,0:0:0:0:
192,192,119336,1,0,0:0:0:0:
320,192,119436,1,2,0:0:0:0:
448,192,119436,1,0,0:0:0:0:
64,192,119536,1,0,0:0:0:0:
192,192,119636,1,0,0:0:0:0:
320,192,119736,1,0,0:0:0:0:
448,192,119836,1,8,0:0:0:0:
64,192,119836,1,0,0:0:0:0:
192,192,119936,1,0,0:0:0:0:
320,192,120036,1,0,0:0:0:0:
448,192,120036,1,0,0:0:0:0:
192,192,120136,1,0,0:0:0:0:
448,192,120236,1,0,0:0:0:0:
64,192,120236,1,0,0:0:0:0:
192,192,120436,1,0,0:0:0:0:
320,192,120536,1,0,0:0:0:0:
448,192,120636,1,0,0:0:0:0:
64,192,120836,1,0,0:0:0:0:
192,192,120936,1,0,0:0:0:0:
448,192,121036,1,0,0:0:0:0:
64,192,121236,1,0,0:0:0:0:
320,192,121336,1,0,0:0:0:0:
448,192,121436,1,0,0:0:0:0:
64,192,121636,1,0,0:0:0:0:
192,192,121736,1,0,0:0:0:0:
64,192,121836,1,4,0:0:0:0:
320,192,121836,1,2,0:0:0:0:
448,192,121836,128,0,126636:0:0:0:0:
