osu file format v14

[General]
AudioFilename: audio.mp3
AudioLeadIn: 0
PreviewTime: 38636
Countdown: 0
SampleSet: Soft
StackLeniency: 0.7
Mode: 3
LetterboxInBreaks: 0
StoryFireInFront: 0
EpilepsyWarning: 1
SpecialStyle: 0
WidescreenStoryboard: 1

[Editor]
DistanceSpacing: 0.9
BeatDivisor: 4
GridSize: 8
TimelineZoom: 1.900001

[Metadata]
Title:Tenkuu no Yoake
TitleUnicode:天空の夜明け
Artist:Cuvelia
ArtistUnicode:Cuvelia
Creator:Ibrahim
Version:Normal
Source:beatmania IIDX 19 Lincle
Tags:KONAMI BEMANI Last Dance Sky High pop'n music Sunny Park REFLEC BEAT limelight plus ポップンリズミン the dawn of the sky original soundtrack dj taka -SoraGami- Critical_Star Dellvangel arviejhay
BeatmapID:1083116
BeatmapSetID:509270

[Difficulty]
HPDrainRate:7.5
CircleSize:4
OverallDifficulty:7
ApproachRate:5
SliderMultiplier:1.4
SliderTickRate:1

[Events]
//Background and Video events
0,0,"672344.jpg",0,0
//Break Periods
//Storyboard Layer 0 (Background)
//Storyboard Layer 1 (Fail)
//Storyboard Layer 2 (Pass)
//Storyboard Layer 3 (Foreground)
//Storyboard Sound Samples

[TimingPoints]
236,400,4,2,1,32,1,0
38636,-100,4,2,1,32,0,1
64136,-100,4,2,1,32,0,0
104236,-100,4,2,1,32,0,1
117036,-100,4,2,1,32,0,0

[HitObjects]
448,192,236,128,0,1036:0:0:0:0:
320,192,1036,128,0,1436:0:0:0:0:
192,192,1436,128,0,1836:0:0:0:0:
64,192,1836,128,0,2636:0:0:0:0:
320,192,2636,128,0,3436:0:0:0:0:
448,192,3436,128,0,4236:0:0:0:0:
64,192,4236,128,0,5036:0:0:0:0:
192,192,5036,128,0,5836:0:0:0:0:
320,192,5836,128,0,6636:0:0:0:0:
448,192,6636,128,0,7436:0:0:0:0:
64,192,7436,128,0,7836:0:0:0:0:
192,192,7836,128,0,8236:0:0:0:0:
448,192,8236,128,0,9036:0:0:0:0:
320,192,9036,128,0,9836:0:0:0:0:
192,192,9836,128,0,10636:0:0:0:0:
64,192,10636,128,0,11436:0:0:0:0:
320,192,11436,128,0,12236:0:0:0:0:
448,192,12236,128,0,13036:0:0:0:0:
320,192,13036,1,0,0:0:0:0:
64,192,13036,128,0,13836:0:0:0:0:
192,192,13836,128,0,14236:0:0:0:0:
320,192,14236,128,0,14636:0:0:0:0:
448,192,14636,128,0,15436:0:0:0:0:
64,192,14636,1,0,0:0:0:0:
192,192,15436,128,0,16236:0:0:0:0:
320,192,16236,128,0,17036:0:0:0:0:
448,192,16236,1,0,0:0:0:0:
64,192,17036,128,0,17836:0:0:0:0:
448,192,17836,128,0,18636:0:0:0:0:
320,192,17836,1,0,0:0:0:0:
192,192,18636,128,0,19436:0:0:0:0:
64,192,19436,128,0,20236:0:0:0:0:
448,192,19436,1,0,0:0:0:0:
320,192,20236,128,0,20636:0:0:0:0:
448,192,20636,128,0,21036:0:0:0:0:
192,192,21036,128,0,21836:0:0:0:0:
320,192,21036,1,0,0:0:0:0:
64,192,21836,128,0,22636:0:0:0:0:
320,192,22636,128,0,23436:0:0:0:0:
448,192,22636,1,0,0:0:0:0:
192,192,23436,128,0,24236:0:0:0:0:
448,192,24236,128,0,25036:0:0:0:0:
64,192,24236,1,0,0:0:0:0:
64,192,25036,128,0,25836:0:0:0:0:
448,192,25836,1,4,0:0:0:0:
192,192,25836,1,2,0:0:0:0:
320,192,26036,1,0,0:0:0:0:
64,192,26136,1,0,0:0:0:0:
320,192,26436,1,0,0:0:0:0:
448,192,26836,1,0,0:0:0:0:
320,192,27036,1,8,0:0:0:0:
192,192,27236,1,0,0:0:0:0:
64,192,27436,1,0,0:0:0:0:
320,192,27636,1,0,0:0:0:0:
448,192,27736,1,0,0:0:0:0:
192,192,28036,1,0,0:0:0:0:
320,192,28336,1,0,0:0:0:0:
320,192,28536,1,0,0:0:0:0:
192,192,28736,1,0,0:0:0:0:
64,192,28836,1,0,0:0:0:0:
448,192,29036,1,0,0:0:0:0:
320,192,29236,1,0,0:0:0:0:
64,192,29336,1,0,0:0:0:0:
192,192,29636,1,0,0:0:0:0:
320,192,29836,1,0,0:0:0:0:
64,192,30036,1,0,0:0:0:0:
448,192,30236,1,8,0:0:0:0:
192,192,30436,1,0,0:0:0:0:
320,192,30636,1,0,0:0:0:0:
192,192,30836,1,0,0:0:0:0:
448,192,30936,1,0,0:0:0:0:
64,192,31236,1,0,0:0:0:0:
448,192,31536,1,0,0:0:0:0:
448,192,31736,1,0,0:0:0:0:
320,192,31936,1,0,0:0:0:0:
64,192,32036,1,0,0:0:0:0:
320,192,32236,1,0,0:0:0:0:
448,192,32236,128,0,33836:0:0:0:0:
64,192,32436,1,0,0:0:0:0:
192,192,32536,1,0,0:0:0:0:
64,192,32836,1,0,0:0:0:0:
64,192,33236,1,0,0:0:0:0:
192,192,33436,1,8,0:0:0:0:
320,192,33636,1,0,0:0:0:0:
192,192,33836,1,0,0:0:0:0:
64,192,33836,128,0,35436:0:0:0:0:
192,192,34036,1,0,0:0:0:0:
448,192,34136,1,0,0:0:0:0:
192,192,34436,1,0,0:0:0:0:
448,192,34736,1,0,0:0:0:0:
448,192,34936,1,0,0:0:0:0:
320,192,35136,1,0,0:0:0:0:
192,192,35236,1,0,0:0:0:0:
448,192,35436,1,0,0:0:0:0:
320,192,35636,1,0,0:0:0:0:
192,192,35736,1,0,0:0:0:0:
448,192,35836,1,8,0:0:0:0:
64,192,36036,128,0,37036:0:0:0:0:
192,192,36036,1,0,0:0:0:0:
320,192,36236,1,0,0:0:0:0:
448,192,36436,1,0,0:0:0:0:
192,192,36636,1,0,0:0:0:0:
320,192,36836,1,0,0:0:0:0:
448,192,37036,1,4,0:0:0:0:
192,192,37036,1,2,0:0:0:0:
320,192,37236,1,0,0:0:0:0:
64,192,37336,1,0,0:0:0:0:
448,192,37636,1,0,0:0:0:0:
192,192,37936,1,0,0:0:0:0:
320,192,38136,1,8,0:0:0:0:
64,192,38236,1,8,0:0:0:0:
448,192,38436,1,0,0:0:0:0:
192,192,38636,1,2,0:0:0:0:
64,192,38636,128,4,39436:0:0:0:0:
320,192,38836,1,0,0:0:0:0:
448,192,39036,1,8,0:0:0:0:
192,192,39236,1,0,0:0:0:0:
320,192,39436,1,2,0:0:0:0:
192,192,39636,1,0,0:0:0:0:
64,192,39836,1,0,0:0:0:0:
448,192,39836,1,8,0:0:0:0:
320,192,40036,1,0,0:0:0:0:
192,192,40236,1,2,0:0:0:0:
320,192,40436,1,0,0:0:0:0:
192,192,40536,1,0,0:0:0:0:
64,192,40636,1,8,0:0:0:0:
448,192,40636,1,0,0:0:0:0:
320,192,40836,1,0,0:0:0:0:
448,192,41036,128,2,41836:0:0:0:0:
64,192,41036,1,0,0:0:0:0:
192,192,41236,1,0,0:0:0:0:
320,192,41436,1,8,0:0:0:0:
64,192,41636,1,0,0:0:0:0:
192,192,41836,1,2,0:0:0:0:
320,192,42036,1,0,0:0:0:0:
448,192,42236,1,8,0:0:0:0:
64,192,42236,1,0,0:0:0:0:
320,192,42436,1,0,0:0:0:0:
192,192,42636,1,2,0:0:0:0:
64,192,42836,1,0,0:0:0:0:
448,192,43036,1,8,0:0:0:0:
320,192,43036,1,0,0:0:0:0:
192,192,43236,1,0,0:0:0:0:
320,192,43436,1,2,0:0:0:0:
64,192,43636,1,0,0:0:0:0:
192,192,43736,1,0,0:0:0:0:
448,192,43836,1,8,0:0:0:0:
320,192,43836,1,0,0:0:0:0:
192,192,44036,1,0,0:0:0:0:
64,192,44236,1,2,0:0:0:0:
448,192,44436,1,0,0:0:0:0:
320,192,44636,1,8,0:0:0:0:
64,192,44636,1,0,0:0:0:0:
192,192,44836,1,0,0:0:0:0:
320,192,45036,1,2,0:0:0:0:
448,192,45036,128,0,45836:0:0:0:0:
64,192,45236,1,0,0:0:0:0:
192,192,45436,1,8,0:0:0:0:
320,192,45636,1,0,0:0:0:0:
64,192,45836,1,2,0:0:0:0:
192,192,46036,1,8,0:0:0:0:
448,192,46236,1,0,0:0:0:0:
320,192,46236,1,0,0:0:0:0:
64,192,46436,1,0,0:0:0:0:
448,192,46636,1,2,0:0:0:0:
192,192,46836,1,0,0:0:0:0:
320,192,46936,1,0,0:0:0:0:
64,192,47036,1,8,0:0:0:0:
448,192,47036,1,0,0:0:0:0:
320,192,47236,1,0,0:0:0:0:
64,192,47436,128,2,48236:0:0:0:0:
192,192,47436,1,0,0:0:0:0:
320,192,47636,1,0,0:0:0:0:
448,192,47836,1,8,0:0:0:0:
192,192,48036,1,0,0:0:0:0:
320,192,48236,1,2,0:0:0:0:
448,192,48436,1,0,0:0:0:0:
320,192,48536,1,0,0:0:0:0:
64,192,48636,1,8,0:0:0:0:
192,192,48636,1,0,0:0:0:0:
448,192,48836,1,0,0:0:0:0:
320,192,49036,1,2,0:0:0:0:
192,192,49236,1,0,0:0:0:0:
64,192,49436,1,8,0:0:0:0:
448,192,49436,1,0,0:0:0:0:
192,192,49636,1,0,0:0:0:0:
320,192,49836,1,2,0:0:0:0:
64,192,50036,1,0,0:0:0:0:
192,192,50136,1,0,0:0:0:0:
320,192,50236,1,8,0:0:0:0:
448,192,50236,1,0,0:0:0:0:
192,192,50436,1,0,0:0:0:0:
448,192,50636,1,2,0:0:0:0:
320,192,50836,1,2,0:0:0:0:
192,192,51036,1,2,0:0:0:0:
64,192,51036,1,0,0:0:0:0:
320,192,51236,1,2,0:0:0:0:
64,192,51436,1,4,0:0:0:0:
192,192,51436,1,2,0:0:0:0:
320,192,51636,1,0,0:0:0:0:
64,192,51836,1,2,0:0:0:0:
448,192,51836,1,8,0:0:0:0:
320,192,52036,1,0,0:0:0:0:
192,192,52236,1,2,0:0:0:0:
320,192,52436,1,0,0:0:0:0:
64,192,52636,1,8,0:0:0:0:
448,192,52636,1,2,0:0:0:0:
192,192,52836,1,0,0:0:0:0:
320,192,53036,1,2,0:0:0:0:
192,192,53236,128,0,53436:0:0:0:0:
64,192,53436,1,2,0:0:0:0:
448,192,53436,128,8,53636:0:0:0:0:
320,192,53636,128,0,53836:0:0:0:0:
192,192,53836,128,2,54036:0:0:0:0:
64,192,54036,128,0,54236:0:0:0:0:
320,192,54236,1,2,0:0:0:0:
448,192,54236,128,8,54436:0:0:0:0:
192,192,54436,128,0,54636:0:0:0:0:
320,192,54636,1,2,0:0:0:0:
448,192,54836,1,0,0:0:0:0:
64,192,55036,1,8,0:0:0:0:
192,192,55036,1,2,0:0:0:0:
320,192,55236,1,0,0:0:0:0:
448,192,55436,1,2,0:0:0:0:
64,192,55636,1,0,0:0:0:0:
192,192,55836,1,8,0:0:0:0:
448,192,55836,1,2,0:0:0:0:
320,192,56036,1,0,0:0:0:0:
64,192,56236,1,2,0:0:0:0:
192,192,56436,1,0,0:0:0:0:
320,192,56636,1,8,0:0:0:0:
448,192,56636,1,2,0:0:0:0:
64,192,56836,1,0,0:0:0:0:
448,192,57036,128,2,57236:0:0:0:0:
192,192,57236,128,0,57436:0:0:0:0:
64,192,57436,1,2,0:0:0:0:
320,192,57436,128,8,57636:0:0:0:0:
448,192,57636,128,0,57836:0:0:0:0:
64,192,57836,1,4,0:0:0:0:
192,192,57836,1,0,0:0:0:0:
320,192,58036,1,0,0:0:0:0:
448,192,58236,1,8,0:0:0:0:
64,192,58236,1,2,0:0:0:0:
192,192,58436,1,0,0:0:0:0:
320,192,58636,1,2,0:0:0:0:
448,192,58836,1,0,0:0:0:0:
320,192,59036,1,2,0:0:0:0:
192,192,59036,1,8,0:0:0:0:
64,192,59236,1,0,0:0:0:0:
448,192,59436,1,4,0:0:0:0:
192,192,59436,1,2,0:0:0:0:
320,192,59636,1,0,0:0:0:0:
64,192,59836,1,2,0:0:0:0:
448,192,59836,1,8,0:0:0:0:
192,192,60036,1,0,0:0:0:0:
320,192,60236,1,2,0:0:0:0:
192,192,60436,1,0,0:0:0:0:
64,192,60636,1,2,0:0:0:0:
448,192,60636,1,8,0:0:0:0:
320,192,60836,1,0,0:0:0:0:
192,192,61036,1,4,0:0:0:0:
448,192,61036,1,2,0:0:0:0:
64,192,61236,1,0,0:0:0:0:
320,192,61436,1,2,0:0:0:0:
448,192,61436,1,8,0:0:0:0:
192,192,61636,1,0,0:0:0:0:
64,192,61836,1,4,0:0:0:0:
448,192,61836,1,2,0:0:0:0:
320,192,62036,1,0,0:0:0:0:
192,192,62236,1,8,0:0:0:0:
64,192,62236,1,2,0:0:0:0:
320,192,62436,1,0,0:0:0:0:
448,192,62636,1,4,0:0:0:0:
64,192,62636,128,2,63436:0:0:0:0:
192,192,62836,1,0,0:0:0:0:
320,192,63036,1,8,0:0:0:0:
448,192,63036,1,4,0:0:0:0:
192,192,63236,1,0,0:0:0:0:
448,192,63436,1,2,0:0:0:0:
320,192,63436,1,4,0:0:0:0:
192,192,63636,1,2,0:0:0:0:
64,192,63836,1,2,0:0:0:0:
448,192,63836,128,8,64136:0:0:0:0:
320,192,64136,1,8,0:0:0:0:
192,192,64136,1,2,0:0:0:0:
192,192,65336,1,8,0:0:0:0:
320,192,65436,1,8,0:0:0:0:
64,192,65636,1,2,0:0:0:0:
320,192,65836,1,2,0:0:0:0:
448,192,65836,1,4,0:0:0:0:
192,192,66036,1,0,0:0:0:0:
64,192,66236,1,8,0:0:0:0:
320,192,66436,1,0,0:0:0:0:
448,192,66636,1,2,0:0:0:0:
192,192,66836,1,0,0:0:0:0:
320,192,67036,1,8,0:0:0:0:
64,192,67236,1,0,0:0:0:0:
192,192,67436,1,2,0:0:0:0:
320,192,67636,1,0,0:0:0:0:
448,192,67836,1,8,0:0:0:0:
64,192,68036,1,0,0:0:0:0:
320,192,68236,1,2,0:0:0:0:
192,192,68436,1,0,0:0:0:0:
448,192,68636,1,8,0:0:0:0:
320,192,68836,1,0,0:0:0:0:
192,192,69036,1,2,0:0:0:0:
448,192,69036,1,0,0:0:0:0:
64,192,69236,1,0,0:0:0:0:
320,192,69436,1,8,0:0:0:0:
192,192,69636,1,0,0:0:0:0:
448,192,69836,1,2,0:0:0:0:
320,192,70036,1,0,0:0:0:0:
64,192,70236,1,8,0:0:0:0:
192,192,70436,1,0,0:0:0:0:
320,192,70636,1,2,0:0:0:0:
192,192,70836,1,0,0:0:0:0:
448,192,71036,1,8,0:0:0:0:
320,192,71236,1,0,0:0:0:0:
192,192,71436,1,2,0:0:0:0:
64,192,71636,1,0,0:0:0:0:
320,192,71836,1,8,0:0:0:0:
448,192,72036,1,0,0:0:0:0:
320,192,72136,1,0,0:0:0:0:
192,192,72236,1,2,0:0:0:0:
64,192,72236,1,0,0:0:0:0:
448,192,72436,1,0,0:0:0:0:
64,192,72636,1,8,0:0:0:0:
192,192,72836,1,0,0:0:0:0:
448,192,73036,1,2,0:0:0:0:
320,192,73236,1,0,0:0:0:0:
192,192,73436,1,8,0:0:0:0:
64,192,73636,1,0,0:0:0:0:
320,192,73836,1,2,0:0:0:0:
64,192,74036,1,0,0:0:0:0:
192,192,74236,1,8,0:0:0:0:
448,192,74436,1,0,0:0:0:0:
320,192,74636,1,2,0:0:0:0:
192,192,74836,1,0,0:0:0:0:
448,192,75036,1,8,0:0:0:0:
64,192,75236,1,0,0:0:0:0:
320,192,75436,1,2,0:0:0:0:
192,192,75436,1,0,0:0:0:0:
448,192,75636,1,0,0:0:0:0:
64,192,75836,1,8,0:0:0:0:
448,192,76036,1,0,0:0:0:0:
320,192,76236,1,2,0:0:0:0:
192,192,76436,1,2,0:0:0:0:
64,192,76636,1,8,0:0:0:0:
320,192,76836,1,2,0:0:0:0:
448,192,77036,1,0,0:0:0:0:
64,192,77036,128,2,77836:0:0:0:0:
320,192,77236,1,0,0:0:0:0:
192,192,77436,1,0,0:0:0:0:
448,192,77636,1,0,0:0:0:0:
192,192,77836,128,0,78236:0:0:0:0:
320,192,77836,1,0,0:0:0:0:
64,192,78036,1,0,0:0:0:0:
320,192,78236,128,2,78636:0:0:0:0:
448,192,78236,1,0,0:0:0:0:
192,192,78436,1,2,0:0:0:0:
448,192,78636,128,4,81036:0:0:0:0:
64,192,78636,1,2,0:0:0:0:
192,192,78836,1,0,0:0:0:0:
320,192,79036,1,8,0:0:0:0:
64,192,79036,1,2,0:0:0:0:
192,192,79236,1,0,0:0:0:0:
320,192,79436,1,2,0:0:0:0:
64,192,79636,1,0,0:0:0:0:
320,192,79836,1,8,0:0:0:0:
192,192,79836,1,2,0:0:0:0:
64,192,80036,1,0,0:0:0:0:
320,192,80236,1,2,0:0:0:0:
192,192,80436,1,0,0:0:0:0:
320,192,80636,1,8,0:0:0:0:
64,192,80636,1,0,0:0:0:0:
192,192,80836,1,0,0:0:0:0:
64,192,81036,128,2,81436:0:0:0:0:
320,192,81236,1,0,0:0:0:0:
192,192,81436,128,2,81836:0:0:0:0:
448,192,81436,1,8,0:0:0:0:
320,192,81636,1,0,0:0:0:0:
448,192,81836,128,2,85036:0:0:0:0:
64,192,82036,1,0,0:0:0:0:
192,192,82236,1,8,0:0:0:0:
320,192,82236,1,2,0:0:0:0:
64,192,82436,1,0,0:0:0:0:
320,192,82636,1,2,0:0:0:0:
192,192,82836,1,0,0:0:0:0:
64,192,83036,1,2,0:0:0:0:
320,192,83036,1,8,0:0:0:0:
192,192,83236,1,0,0:0:0:0:
64,192,83436,1,2,0:0:0:0:
320,192,83636,1,0,0:0:0:0:
192,192,83836,1,8,0:0:0:0:
64,192,83836,1,2,0:0:0:0:
320,192,84036,1,0,0:0:0:0:
64,192,84236,1,2,0:0:0:0:
192,192,84436,1,0,0:0:0:0:
320,192,84636,1,8,0:0:0:0:
64,192,84636,1,2,0:0:0:0:
192,192,84836,1,0,0:0:0:0:
64,192,85036,128,4,86636:0:0:0:0:
320,192,85036,1,2,0:0:0:0:
192,192,85236,1,0,0:0:0:0:
448,192,85436,1,8,0:0:0:0:
320,192,85436,1,2,0:0:0:0:
192,192,85636,1,0,0:0:0:0:
448,192,85836,1,2,0:0:0:0:
320,192,86036,1,0,0:0:0:0:
192,192,86236,1,8,0:0:0:0:
448,192,86236,1,2,0:0:0:0:
320,192,86436,1,0,0:0:0:0:
192,192,86636,1,2,0:0:0:0:
448,192,86636,128,0,88236:0:0:0:0:
64,192,86836,1,0,0:0:0:0:
320,192,87036,1,8,0:0:0:0:
192,192,87036,1,2,0:0:0:0:
64,192,87236,1,0,0:0:0:0:
320,192,87436,1,2,0:0:0:0:
192,192,87636,1,0,0:0:0:0:
320,192,87836,1,8,0:0:0:0:
64,192,87836,1,2,0:0:0:0:
192,192,88036,1,0,0:0:0:0:
320,192,88236,1,2,0:0:0:0:
64,192,88236,128,0,89836:0:0:0:0:
192,192,88436,1,0,0:0:0:0:
320,192,88636,1,8,0:0:0:0:
448,192,88636,1,2,0:0:0:0:
192,192,88836,1,0,0:0:0:0:
320,192,89036,1,4,0:0:0:0:
448,192,89036,1,2,0:0:0:0:
448,192,89236,1,0,0:0:0:0:
192,192,89436,1,8,0:0:0:0:
320,192,89436,1,2,0:0:0:0:
192,192,89636,1,0,0:0:0:0:
448,192,89836,128,2,91036:0:0:0:0:
192,192,90036,1,0,0:0:0:0:
64,192,90236,1,8,0:0:0:0:
320,192,90236,1,2,0:0:0:0:
192,192,90436,1,0,0:0:0:0:
64,192,90636,1,2,0:0:0:0:
320,192,90836,1,2,0:0:0:0:
64,192,91036,128,2,91436:0:0:0:0:
192,192,91036,1,8,0:0:0:0:
320,192,91436,1,4,0:0:0:0:
448,192,91436,128,2,92236:0:0:0:0:
192,192,91736,1,0,0:0:0:0:
320,192,91836,1,0,0:0:0:0:
64,192,92036,1,0,0:0:0:0:
320,192,92236,128,0,93036:0:0:0:0:
64,192,92536,1,0,0:0:0:0:
448,192,92636,1,0,0:0:0:0:
64,192,92836,1,0,0:0:0:0:
192,192,93036,128,0,93836:0:0:0:0:
64,192,93336,1,0,0:0:0:0:
320,192,93436,1,0,0:0:0:0:
448,192,93636,1,0,0:0:0:0:
64,192,93836,128,0,94636:0:0:0:0:
192,192,94136,1,0,0:0:0:0:
448,192,94236,1,0,0:0:0:0:
192,192,94436,1,0,0:0:0:0:
320,192,94636,128,0,95436:0:0:0:0:
64,192,94936,1,0,0:0:0:0:
192,192,95036,1,0,0:0:0:0:
448,192,95236,1,0,0:0:0:0:
192,192,95436,128,0,96236:0:0:0:0:
448,192,95736,1,0,0:0:0:0:
320,192,95836,1,0,0:0:0:0:
64,192,96036,1,0,0:0:0:0:
448,192,96236,128,0,97036:0:0:0:0:
192,192,96536,1,0,0:0:0:0:
64,192,96636,1,0,0:0:0:0:
320,192,96836,1,0,0:0:0:0:
192,192,97036,128,0,97836:0:0:0:0:
448,192,97336,1,0,0:0:0:0:
64,192,97436,1,0,0:0:0:0:
320,192,97636,1,0,0:0:0:0:
64,192,97836,128,0,98236:0:0:0:0:
448,192,97836,1,0,0:0:0:0:
192,192,98236,128,0,98636:0:0:0:0:
320,192,98236,1,0,0:0:0:0:
320,192,98636,128,0,99036:0:0:0:0:
64,192,98636,1,0,0:0:0:0:
448,192,99036,128,0,99436:0:0:0:0:
192,192,99036,1,0,0:0:0:0:
64,192,99436,128,0,99836:0:0:0:0:
320,192,99436,1,0,0:0:0:0:
448,192,99836,128,0,101036:0:0:0:0:
192,192,99836,1,0,0:0:0:0:
320,192,100036,1,0,0:0:0:0:
64,192,100236,1,0,0:0:0:0:
192,192,100436,1,0,0:0:0:0:
320,192,100636,1,0,0:0:0:0:
192,192,100836,1,0,0:0:0:0:
64,192,101036,1,0,0:0:0:0:
320,192,101436,1,0,0:0:0:0:
192,192,101736,1,0,0:0:0:0:
448,192,101836,1,0,0:0:0:0:
320,192,102236,1,0,0:0:0:0:
64,192,102636,1,0,0:0:0:0:
448,192,103036,1,0,0:0:0:0:
192,192,103436,1,0,0:0:0:0:
64,192,103636,128,0,103836:0:0:0:0:
320,192,103836,1,0,0:0:0:0:
192,192,104236,1,2,0:0:0:0:
448,192,104236,1,4,0:0:0:0:
64,192,104436,1,0,0:0:0:0:
320,192,104636,1,8,0:0:0:0:
448,192,104636,1,2,0:0:0:0:
192,192,104836,1,0,0:0:0:0:
64,192,105036,1,2,0:0:0:0:
320,192,105236,1,0,0:0:0:0:
192,192,105436,1,2,0:0:0:0:
448,192,105436,1,8,0:0:0:0:
320,192,105636,1,0,0:0:0:0:
64,192,105836,1,2,0:0:0:0:
192,192,106036,1,0,0:0:0:0:
320,192,106236,1,2,0:0:0:0:
448,192,106236,1,8,0:0:0:0:
64,192,106436,1,0,0:0:0:0:
320,192,106636,1,2,0:0:0:0:
192,192,106836,1,0,0:0:0:0:
448,192,107036,1,8,0:0:0:0:
64,192,107036,1,2,0:0:0:0:
320,192,107236,1,2,0:0:0:0:
192,192,107436,1,2,0:0:0:0:
320,192,107636,1,0,0:0:0:0:
448,192,107836,1,2,0:0:0:0:
64,192,107836,1,8,0:0:0:0:
192,192,108036,1,0,0:0:0:0:
320,192,108236,1,2,0:0:0:0:
448,192,108436,1,0,0:0:0:0:
64,192,108636,1,8,0:0:0:0:
192,192,108636,1,2,0:0:0:0:
320,192,108836,1,0,0:0:0:0:
192,192,109036,1,2,0:0:0:0:
448,192,109236,1,0,0:0:0:0:
320,192,109436,1,8,0:0:0:0:
64,192,109436,1,2,0:0:0:0:
192,192,109636,1,0,0:0:0:0:
320,192,109836,1,2,0:0:0:0:
64,192,110036,1,2,0:0:0:0:
448,192,110236,1,8,0:0:0:0:
192,192,110236,1,2,0:0:0:0:
320,192,110436,1,2,0:0:0:0:
192,192,110636,1,2,0:0:0:0:
448,192,110636,128,4,111036:0:0:0:0:
320,192,111036,128,8,111436:0:0:0:0:
64,192,111036,1,2,0:0:0:0:
192,192,111436,128,2,111836:0:0:0:0:
448,192,111436,1,0,0:0:0:0:
64,192,111836,128,8,112236:0:0:0:0:
320,192,111836,1,2,0:0:0:0:
448,192,112236,128,2,112636:0:0:0:0:
192,192,112236,1,0,0:0:0:0:
64,192,112636,128,8,113836:0:0:0:0:
320,192,112636,1,2,0:0:0:0:
192,192,112836,1,0,0:0:0:0:
448,192,113036,1,2,0:0:0:0:
192,192,113236,1,0,0:0:0:0:
320,192,113436,1,8,0:0:0:0:
448,192,113436,1,2,0:0:0:0:
192,192,113636,1,0,0:0:0:0:
448,192,113836,1,2,0:0:0:0:
320,192,114036,1,0,0:0:0:0:
192,192,114236,1,2,0:0:0:0:
64,192,114236,1,8,0:0:0:0:
320,192,114436,1,0,0:0:0:0:
192,192,114636,1,2,0:0:0:0:
64,192,114836,1,0,0:0:0:0:
448,192,115036,1,2,0:0:0:0:
320,192,115036,1,8,0:0:0:0:
192,192,115236,1,0,0:0:0:0:
448,192,115436,1,2,0:0:0:0:
64,192,115636,1,0,0:0:0:0:
192,192,115836,1,2,0:0:0:0:
320,192,115836,1,8,0:0:0:0:
448,192,116036,1,0,0:0:0:0:
64,192,116236,1,2,0:0:0:0:
192,192,116436,128,2,116636:0:0:0:0:
448,192,116636,1,8,0:0:0:0:
320,192,116836,1,2,0:0:0:0:
192,192,117036,1,2,0:0:0:0:
64,192,117036,1,4,0:0:0:0:
320,192,117236,1,0,0:0:0:0:
448,192,117436,128,8,118636:0:0:0:0:
64,192,117436,1,0,0:0:0:0:
192,192,117636,1,0,0:0:0:0:
320,192,117836,1,2,0:0:0:0:
64,192,118036,1,0,0:0:0:0:
320,192,118236,1,8,0:0:0:0:
192,192,118436,1,0,0:0:0:0:
320,192,118636,128,2,120236:0:0:0:0:
64,192,118636,1,0,0:0:0:0:
192,192,118836,1,0,0:0:0:0:
448,192,119036,1,8,0:0:0:0:
64,192,119236,1,0,0:0:0:0:
448,192,119436,1,2,0:0:0:0:
192,192,119636,1,0,0:0:0:0:
64,192,119836,1,8,0:0:0:0:
448,192,120036,1,0,0:0:0:0:
64,192,120236,1,0,0:0:0:0:
192,192,120236,128,0,120636:0:0:0:0:
448,192,120636,128,0,121036:0:0:0:0:
320,192,121036,128,0,121436:0:0:0:0:
192,192,121436,128,0,121836:0:0:0:0:
64,192,121836,128,4,126636:0:0:0:0:
320,192,121836,1,2,0:0:0:0:
