osu file format v14

[General]
AudioFilename: audio.mp3
AudioLeadIn: 0
PreviewTime: 38636
Countdown: 0
SampleSet: Soft
StackLeniency: 0.7
Mode: 3
LetterboxInBreaks: 0
StoryFireInFront: 0
EpilepsyWarning: 1
SpecialStyle: 0
WidescreenStoryboard: 1

[Editor]
DistanceSpacing: 0.9
BeatDivisor: 4
GridSize: 8
TimelineZoom: 2.6

[Metadata]
Title:Tenkuu no Yoake
TitleUnicode:天空の夜明け
Artist:Cuvelia
ArtistUnicode:Cuvelia
Creator:Ibrahim
Version:Dell's Beginner
Source:beatmania IIDX 19 Lincle
Tags:KONAMI BEMANI Last Dance Sky High pop'n music Sunny Park REFLEC BEAT limelight plus ポップンリズミン the dawn of the sky original soundtrack dj taka -SoraGami- Critical_Star Dellvangel arviejhay
BeatmapID:1085111
BeatmapSetID:509270

[Difficulty]
HPDrainRate:7
CircleSize:4
OverallDifficulty:7
ApproachRate:5
SliderMultiplier:1.4
SliderTickRate:1

[Events]
//Background and Video events
0,0,"672344.jpg",0,0
//Break Periods
//Storyboard Layer 0 (Background)
//Storyboard Layer 1 (Fail)
//Storyboard Layer 2 (Pass)
//Storyboard Layer 3 (Foreground)
//Storyboard Sound Samples

[TimingPoints]
236,400,4,2,1,32,1,0
38636,-100,4,2,1,32,0,1
64136,-100,4,2,1,32,0,0
104236,-100,4,2,1,32,0,1
117036,-100,4,2,1,32,0,0

[HitObjects]
320,192,236,128,0,1036:0:0:0:0:
192,192,1036,128,0,1436:0:0:0:0:
64,192,1436,128,0,1836:0:0:0:0:
320,192,1836,128,0,2636:0:0:0:0:
448,192,2636,128,0,3436:0:0:0:0:
192,192,3436,128,0,4236:0:0:0:0:
320,192,4236,128,0,5036:0:0:0:0:
64,192,5036,128,0,5836:0:0:0:0:
192,192,5836,128,0,6636:0:0:0:0:
448,192,6636,128,0,7436:0:0:0:0:
320,192,7436,128,0,7836:0:0:0:0:
64,192,7836,128,0,8236:0:0:0:0:
192,192,8236,128,0,9036:0:0:0:0:
320,192,9036,128,0,9836:0:0:0:0:
448,192,9836,128,0,10636:0:0:0:0:
64,192,10636,128,0,11436:0:0:0:0:
192,192,11436,128,0,12236:0:0:0:0:
320,192,12236,128,0,13036:0:0:0:0:
64,192,13036,1,0,0:0:0:0:
448,192,13036,1,0,0:0:0:0:
320,192,13836,1,0,0:0:0:0:
192,192,14236,1,0,0:0:0:0:
320,192,14636,1,0,0:0:0:0:
448,192,14636,1,0,0:0:0:0:
64,192,15436,1,0,0:0:0:0:
192,192,16236,1,0,0:0:0:0:
448,192,16236,1,0,0:0:0:0:
320,192,17036,1,0,0:0:0:0:
192,192,17836,1,0,0:0:0:0:
64,192,17836,1,0,0:0:0:0:
448,192,18636,1,0,0:0:0:0:
320,192,19436,1,0,0:0:0:0:
64,192,19436,1,0,0:0:0:0:
192,192,20236,1,0,0:0:0:0:
320,192,20636,1,0,0:0:0:0:
64,192,21036,1,0,0:0:0:0:
448,192,21036,1,0,0:0:0:0:
192,192,21836,1,0,0:0:0:0:
320,192,22636,1,0,0:0:0:0:
448,192,22636,1,0,0:0:0:0:
64,192,23436,1,0,0:0:0:0:
192,192,24236,1,0,0:0:0:0:
320,192,24236,1,0,0:0:0:0:
448,192,25036,1,0,0:0:0:0:
192,192,25836,1,4,0:0:0:0:
64,192,25836,1,2,0:0:0:0:
320,192,26136,1,0,0:0:0:0:
320,192,26436,1,0,0:0:0:0:
448,192,27436,1,0,0:0:0:0:
192,192,27736,1,0,0:0:0:0:
192,192,28036,1,0,0:0:0:0:
320,192,29036,1,0,0:0:0:0:
64,192,29336,1,0,0:0:0:0:
64,192,29636,1,0,0:0:0:0:
448,192,29836,1,0,0:0:0:0:
192,192,30636,1,0,0:0:0:0:
448,192,30936,1,0,0:0:0:0:
448,192,31236,1,0,0:0:0:0:
64,192,32236,128,0,33836:0:0:0:0:
192,192,33836,128,0,35436:0:0:0:0:
320,192,35436,1,0,0:0:0:0:
448,192,35636,128,0,35836:0:0:0:0:
64,192,36036,128,0,37036:0:0:0:0:
320,192,37036,1,4,0:0:0:0:
448,192,37036,1,2,0:0:0:0:
192,192,37336,1,0,0:0:0:0:
192,192,37636,1,0,0:0:0:0:
448,192,37836,1,2,0:0:0:0:
64,192,38236,1,8,0:0:0:0:
192,192,38636,1,2,0:0:0:0:
320,192,38636,1,4,0:0:0:0:
448,192,39036,1,8,0:0:0:0:
192,192,39436,1,2,0:0:0:0:
320,192,39836,1,8,0:0:0:0:
64,192,40236,1,2,0:0:0:0:
448,192,40236,1,0,0:0:0:0:
192,192,40636,1,8,0:0:0:0:
448,192,41036,1,2,0:0:0:0:
320,192,41436,1,8,0:0:0:0:
192,192,41836,1,2,0:0:0:0:
64,192,41836,1,0,0:0:0:0:
320,192,42236,1,8,0:0:0:0:
448,192,42636,1,2,0:0:0:0:
64,192,43036,1,8,0:0:0:0:
320,192,43436,1,2,0:0:0:0:
448,192,43436,1,0,0:0:0:0:
192,192,43836,1,8,0:0:0:0:
320,192,44236,1,2,0:0:0:0:
64,192,44636,1,8,0:0:0:0:
192,192,45036,1,2,0:0:0:0:
448,192,45036,1,0,0:0:0:0:
320,192,45436,1,8,0:0:0:0:
64,192,45836,1,2,0:0:0:0:
448,192,46236,1,8,0:0:0:0:
64,192,46636,1,2,0:0:0:0:
192,192,46636,1,0,0:0:0:0:
320,192,47036,1,8,0:0:0:0:
192,192,47436,1,2,0:0:0:0:
448,192,47836,1,8,0:0:0:0:
64,192,48236,1,2,0:0:0:0:
320,192,48236,1,0,0:0:0:0:
192,192,48636,1,8,0:0:0:0:
448,192,49036,1,2,0:0:0:0:
64,192,49436,1,8,0:0:0:0:
192,192,49836,1,2,0:0:0:0:
448,192,49836,1,0,0:0:0:0:
320,192,50236,1,8,0:0:0:0:
192,192,50636,1,2,0:0:0:0:
320,192,50836,1,2,0:0:0:0:
64,192,51036,1,2,0:0:0:0:
448,192,51236,1,2,0:0:0:0:
320,192,51436,1,4,0:0:0:0:
192,192,51436,1,2,0:0:0:0:
192,192,51836,1,2,0:0:0:0:
64,192,51836,1,8,0:0:0:0:
320,192,52236,1,2,0:0:0:0:
192,192,52636,1,8,0:0:0:0:
448,192,52636,1,2,0:0:0:0:
64,192,53036,1,2,0:0:0:0:
320,192,53436,1,2,0:0:0:0:
448,192,53436,1,8,0:0:0:0:
192,192,53836,1,2,0:0:0:0:
320,192,54236,1,2,0:0:0:0:
64,192,54236,1,8,0:0:0:0:
448,192,54636,1,2,0:0:0:0:
320,192,55036,1,8,0:0:0:0:
192,192,55036,1,2,0:0:0:0:
64,192,55436,1,2,0:0:0:0:
192,192,55836,1,2,0:0:0:0:
448,192,55836,1,8,0:0:0:0:
320,192,56236,1,2,0:0:0:0:
192,192,56636,1,8,0:0:0:0:
64,192,56636,1,2,0:0:0:0:
448,192,57036,1,2,0:0:0:0:
320,192,57436,1,8,0:0:0:0:
192,192,57436,1,2,0:0:0:0:
64,192,57836,1,2,0:0:0:0:
448,192,57836,1,4,0:0:0:0:
192,192,58236,1,8,0:0:0:0:
448,192,58236,1,2,0:0:0:0:
320,192,58636,1,2,0:0:0:0:
192,192,59036,1,2,0:0:0:0:
64,192,59036,1,8,0:0:0:0:
448,192,59436,1,4,0:0:0:0:
64,192,59436,1,2,0:0:0:0:
320,192,59836,1,2,0:0:0:0:
192,192,59836,1,8,0:0:0:0:
64,192,60236,1,2,0:0:0:0:
320,192,60636,1,2,0:0:0:0:
448,192,60636,1,8,0:0:0:0:
64,192,61036,1,4,0:0:0:0:
448,192,61036,1,2,0:0:0:0:
192,192,61436,1,8,0:0:0:0:
64,192,61836,1,4,0:0:0:0:
448,192,61836,1,2,0:0:0:0:
320,192,62236,1,8,0:0:0:0:
64,192,62636,1,4,0:0:0:0:
448,192,62636,1,2,0:0:0:0:
448,192,63036,1,8,0:0:0:0:
64,192,63036,1,2,0:0:0:0:
64,192,63436,1,2,0:0:0:0:
448,192,63436,1,4,0:0:0:0:
192,192,63636,1,2,0:0:0:0:
64,192,63836,1,2,0:0:0:0:
448,192,63836,128,8,64136:0:0:0:0:
64,192,65436,1,8,0:0:0:0:
192,192,65836,1,2,0:0:0:0:
320,192,65836,1,4,0:0:0:0:
448,192,66236,1,8,0:0:0:0:
64,192,66636,1,2,0:0:0:0:
320,192,67036,1,8,0:0:0:0:
192,192,67436,1,2,0:0:0:0:
448,192,67836,1,8,0:0:0:0:
320,192,68236,1,2,0:0:0:0:
64,192,68636,1,8,0:0:0:0:
192,192,69036,1,2,0:0:0:0:
448,192,69036,1,0,0:0:0:0:
320,192,69436,1,8,0:0:0:0:
64,192,69836,1,2,0:0:0:0:
448,192,70236,1,8,0:0:0:0:
192,192,70636,1,2,0:0:0:0:
64,192,71036,1,8,0:0:0:0:
320,192,71436,1,2,0:0:0:0:
192,192,71836,1,8,0:0:0:0:
448,192,72236,1,2,0:0:0:0:
64,192,72236,1,0,0:0:0:0:
320,192,72636,1,8,0:0:0:0:
64,192,73036,1,2,0:0:0:0:
192,192,73436,1,8,0:0:0:0:
448,192,73836,1,2,0:0:0:0:
320,192,74236,1,8,0:0:0:0:
64,192,74636,1,2,0:0:0:0:
448,192,75036,1,8,0:0:0:0:
64,192,75436,1,2,0:0:0:0:
320,192,75436,1,0,0:0:0:0:
192,192,75836,1,8,0:0:0:0:
448,192,76236,1,2,0:0:0:0:
64,192,76436,1,2,0:0:0:0:
320,192,76636,1,8,0:0:0:0:
192,192,76836,1,2,0:0:0:0:
64,192,77036,128,2,77436:0:0:0:0:
448,192,77036,1,0,0:0:0:0:
192,192,77436,128,0,77836:0:0:0:0:
320,192,77836,128,0,78236:0:0:0:0:
448,192,78236,128,2,78636:0:0:0:0:
64,192,78636,128,4,81036:0:0:0:0:
192,192,78636,1,2,0:0:0:0:
320,192,79036,1,8,0:0:0:0:
192,192,79436,1,2,0:0:0:0:
448,192,79836,1,8,0:0:0:0:
192,192,80236,1,2,0:0:0:0:
320,192,80636,1,8,0:0:0:0:
448,192,81036,128,2,81436:0:0:0:0:
192,192,81436,128,8,81836:0:0:0:0:
320,192,81836,128,2,85036:0:0:0:0:
64,192,82236,1,8,0:0:0:0:
448,192,82636,1,2,0:0:0:0:
192,192,83036,1,8,0:0:0:0:
448,192,83436,1,2,0:0:0:0:
64,192,83836,1,8,0:0:0:0:
448,192,84236,1,2,0:0:0:0:
192,192,84636,1,8,0:0:0:0:
64,192,85036,1,4,0:0:0:0:
448,192,85036,128,2,86636:0:0:0:0:
192,192,85436,1,8,0:0:0:0:
64,192,85836,1,2,0:0:0:0:
320,192,86236,1,8,0:0:0:0:
64,192,86636,1,4,0:0:0:0:
192,192,86636,128,2,88236:0:0:0:0:
320,192,87036,1,8,0:0:0:0:
64,192,87436,1,2,0:0:0:0:
448,192,87836,1,8,0:0:0:0:
64,192,88236,1,4,0:0:0:0:
320,192,88236,128,2,89836:0:0:0:0:
192,192,88636,1,8,0:0:0:0:
64,192,89036,1,4,0:0:0:0:
448,192,89036,1,2,0:0:0:0:
192,192,89436,1,8,0:0:0:0:
448,192,89836,128,2,91036:0:0:0:0:
64,192,90236,1,8,0:0:0:0:
320,192,90636,1,2,0:0:0:0:
192,192,90836,1,2,0:0:0:0:
64,192,91036,128,2,91436:0:0:0:0:
320,192,91236,1,2,0:0:0:0:
192,192,91436,1,4,0:0:0:0:
448,192,91436,1,2,0:0:0:0:
64,192,91836,1,0,0:0:0:0:
320,192,92236,1,0,0:0:0:0:
448,192,92636,1,0,0:0:0:0:
192,192,93036,1,0,0:0:0:0:
64,192,93436,1,0,0:0:0:0:
448,192,93836,1,0,0:0:0:0:
320,192,94236,1,0,0:0:0:0:
192,192,94636,1,0,0:0:0:0:
448,192,95036,1,0,0:0:0:0:
64,192,95436,1,0,0:0:0:0:
320,192,95836,1,0,0:0:0:0:
448,192,96236,1,0,0:0:0:0:
192,192,96636,1,0,0:0:0:0:
320,192,97036,1,0,0:0:0:0:
64,192,97436,1,0,0:0:0:0:
448,192,97836,1,0,0:0:0:0:
192,192,98236,128,0,98636:0:0:0:0:
320,192,98636,128,0,99036:0:0:0:0:
448,192,99036,128,0,99436:0:0:0:0:
64,192,99436,128,0,99836:0:0:0:0:
192,192,99836,128,0,101036:0:0:0:0:
448,192,100236,1,0,0:0:0:0:
320,192,100636,1,0,0:0:0:0:
64,192,101036,1,0,0:0:0:0:
448,192,101436,1,0,0:0:0:0:
320,192,101836,1,0,0:0:0:0:
192,192,102236,1,0,0:0:0:0:
64,192,102636,1,0,0:0:0:0:
320,192,103036,1,0,0:0:0:0:
448,192,103436,1,0,0:0:0:0:
192,192,103636,1,0,0:0:0:0:
64,192,103836,1,0,0:0:0:0:
320,192,104236,1,2,0:0:0:0:
448,192,104236,1,4,0:0:0:0:
64,192,104636,1,8,0:0:0:0:
448,192,104636,1,2,0:0:0:0:
192,192,105036,1,2,0:0:0:0:
320,192,105436,1,2,0:0:0:0:
64,192,105436,1,8,0:0:0:0:
448,192,105836,1,2,0:0:0:0:
320,192,106236,1,2,0:0:0:0:
192,192,106236,1,8,0:0:0:0:
64,192,106636,1,2,0:0:0:0:
320,192,107036,1,8,0:0:0:0:
448,192,107036,1,2,0:0:0:0:
192,192,107236,1,2,0:0:0:0:
64,192,107436,1,2,0:0:0:0:
192,192,107836,1,2,0:0:0:0:
448,192,107836,1,8,0:0:0:0:
320,192,108236,1,2,0:0:0:0:
192,192,108636,1,8,0:0:0:0:
64,192,108636,1,2,0:0:0:0:
448,192,109036,1,2,0:0:0:0:
320,192,109436,1,8,0:0:0:0:
64,192,109436,1,2,0:0:0:0:
192,192,109836,1,2,0:0:0:0:
448,192,110036,1,2,0:0:0:0:
192,192,110236,1,8,0:0:0:0:
320,192,110236,1,2,0:0:0:0:
64,192,110436,1,2,0:0:0:0:
320,192,110636,1,2,0:0:0:0:
448,192,110636,1,4,0:0:0:0:
192,192,111036,128,8,111436:0:0:0:0:
320,192,111436,128,2,111836:0:0:0:0:
448,192,111836,128,8,112236:0:0:0:0:
64,192,112236,128,2,112636:0:0:0:0:
320,192,112636,128,8,113836:0:0:0:0:
192,192,113036,1,2,0:0:0:0:
64,192,113436,1,8,0:0:0:0:
448,192,113836,1,2,0:0:0:0:
64,192,114236,1,2,0:0:0:0:
192,192,114236,1,8,0:0:0:0:
448,192,114636,1,2,0:0:0:0:
320,192,115036,1,2,0:0:0:0:
192,192,115036,1,8,0:0:0:0:
64,192,115436,1,2,0:0:0:0:
192,192,115836,1,2,0:0:0:0:
448,192,115836,1,8,0:0:0:0:
320,192,116236,1,2,0:0:0:0:
64,192,116436,1,2,0:0:0:0:
192,192,116636,1,8,0:0:0:0:
448,192,116836,1,2,0:0:0:0:
64,192,117036,1,2,0:0:0:0:
320,192,117036,1,4,0:0:0:0:
192,192,117436,128,8,118636:0:0:0:0:
448,192,117836,1,2,0:0:0:0:
320,192,118236,1,8,0:0:0:0:
64,192,118636,128,2,120236:0:0:0:0:
448,192,119036,1,8,0:0:0:0:
320,192,119436,1,2,0:0:0:0:
192,192,119836,1,8,0:0:0:0:
320,192,120236,128,0,121836:0:0:0:0:
448,192,120636,1,0,0:0:0:0:
64,192,121036,1,0,0:0:0:0:
192,192,121436,1,0,0:0:0:0:
64,192,121836,1,4,0:0:0:0:
448,192,121836,128,2,126636:0:0:0:0:
