osu file format v14

[General]
AudioFilename: audio.mp3
AudioLeadIn: 0
PreviewTime: 30458
Countdown: 0
SampleSet: None
StackLeniency: 0.7
Mode: 3
LetterboxInBreaks: 0
SpecialStyle: 0
WidescreenStoryboard: 0

[Editor]
Bookmarks: 13204,32027,63400,88498,101047,118302
DistanceSpacing: 0.8
BeatDivisor: 4
GridSize: 8
TimelineZoom: 1.6

[Metadata]
Title:Sky High
TitleUnicode:Sky High
Artist:Cuvelia
ArtistUnicode:Cuvelia
Creator:Reba
Version:BMS Lv.18
Source:SOUND VOLTEX IV HEAVENLY HAVEN
Tags:Maybe~nyuugaku!? BeatStream gakkyoku VOLTE ni chakkou daisakusen!! メイビ~入学!? BeatStream楽曲ボルテに着港大作戦!!
BeatmapID:1667802
BeatmapSetID:794042

[Difficulty]
HPDrainRate:7
CircleSize:7
OverallDifficulty:7
ApproachRate:5
SliderMultiplier:1.4
SliderTickRate:1

[Events]
//Background and Video events
0,0,"Sky High BG.jpg",0,0
//Break Periods
//Storyboard Layer 0 (Background)
//Storyboard Layer 1 (Fail)
//Storyboard Layer 2 (Pass)
//Storyboard Layer 3 (Foreground)
//Storyboard Sound Samples

[TimingPoints]
655,392.156862745098,4,2,0,20,1,0

[HitObjects]
475,192,655,128,0,3792:0:0:0:0:
329,192,1439,128,0,4576:0:0:0:0:
182,192,2223,128,0,4968:0:0:0:0:
36,192,3007,128,0,5164:0:0:0:0:
402,192,3792,128,0,4968:0:0:0:0:
256,192,4576,128,0,6145:0:0:0:0:
109,192,4968,128,0,6929:0:0:0:0:
329,192,5164,128,0,6929:0:0:0:0:
475,192,5360,128,0,6929:0:0:0:0:
36,192,6145,128,0,6929:0:0:0:0:
256,192,6929,1,0,0:0:0:0:
182,192,6929,128,0,8498:0:0:0:0:
256,192,7713,1,0,0:0:0:0:
475,192,7713,128,0,9282:0:0:0:0:
402,192,8105,128,0,10851:0:0:0:0:
329,192,8498,128,0,10458:0:0:0:0:
36,192,8498,1,0,0:0:0:0:
182,192,8890,128,0,9674:0:0:0:0:
36,192,9282,1,0,0:0:0:0:
256,192,9282,128,0,10066:0:0:0:0:
36,192,9674,128,0,11243:0:0:0:0:
475,192,10066,1,0,0:0:0:0:
109,192,10066,128,0,11243:0:0:0:0:
182,192,10458,128,0,11243:0:0:0:0:
475,192,10851,1,0,0:0:0:0:
329,192,10851,128,0,11635:0:0:0:0:
475,192,11243,128,0,11635:0:0:0:0:
182,192,11635,128,0,11782:0:0:0:0:
36,192,11635,128,0,12027:0:0:0:0:
256,192,11684,128,0,11831:0:0:0:0:
329,192,11733,128,0,11880:0:0:0:0:
402,192,11782,128,0,11929:0:0:0:0:
475,192,11831,128,0,11978:0:0:0:0:
109,192,11880,128,0,12027:0:0:0:0:
182,192,11929,128,0,12076:0:0:0:0:
256,192,11978,128,0,12125:0:0:0:0:
329,192,12027,128,0,12174:0:0:0:0:
402,192,12076,128,0,12223:0:0:0:0:
475,192,12076,128,0,12517:0:0:0:0:
36,192,12125,128,0,12272:0:0:0:0:
109,192,12174,128,0,12321:0:0:0:0:
182,192,12223,128,0,12370:0:0:0:0:
256,192,12272,128,0,12419:0:0:0:0:
329,192,12321,128,0,12468:0:0:0:0:
402,192,12370,128,0,12517:0:0:0:0:
36,192,12419,128,0,12664:0:0:0:0:
109,192,12468,128,0,12664:0:0:0:0:
182,192,12517,128,0,12664:0:0:0:0:
256,192,12566,128,0,12664:0:0:0:0:
475,192,12615,128,0,13105:0:0:0:0:
402,192,12664,128,0,13105:0:0:0:0:
329,192,12713,128,0,13105:0:0:0:0:
256,192,12762,128,0,13105:0:0:0:0:
182,192,12811,128,0,13105:0:0:0:0:
109,192,12811,128,0,13105:0:0:0:0:
36,192,12811,128,0,13105:0:0:0:0:
475,192,13204,5,0,0:0:0:0:
402,192,13204,1,0,0:0:0:0:
109,192,13204,1,0,0:0:0:0:
36,192,13204,1,0,0:0:0:0:
256,192,13204,1,0,0:0:0:0:
329,192,13302,1,0,0:0:0:0:
182,192,13302,1,0,0:0:0:0:
256,192,13400,1,0,0:0:0:0:
109,192,13400,1,0,0:0:0:0:
475,192,13400,1,0,0:0:0:0:
36,192,13498,1,0,0:0:0:0:
182,192,13498,1,0,0:0:0:0:
329,192,13596,1,0,0:0:0:0:
109,192,13596,1,0,0:0:0:0:
402,192,13596,1,0,0:0:0:0:
256,192,13694,1,0,0:0:0:0:
36,192,13694,1,0,0:0:0:0:
182,192,13792,1,0,0:0:0:0:
329,192,13792,1,0,0:0:0:0:
475,192,13792,1,0,0:0:0:0:
109,192,13890,1,0,0:0:0:0:
402,192,13890,1,0,0:0:0:0:
475,192,13988,1,0,0:0:0:0:
36,192,13988,1,0,0:0:0:0:
256,192,13988,1,0,0:0:0:0:
329,192,14086,1,0,0:0:0:0:
182,192,14086,1,0,0:0:0:0:
402,192,14184,1,0,0:0:0:0:
109,192,14184,1,0,0:0:0:0:
36,192,14184,1,0,0:0:0:0:
256,192,14282,1,0,0:0:0:0:
475,192,14282,1,0,0:0:0:0:
329,192,14380,1,0,0:0:0:0:
182,192,14380,1,0,0:0:0:0:
402,192,14380,1,0,0:0:0:0:
109,192,14478,1,0,0:0:0:0:
256,192,14478,1,0,0:0:0:0:
182,192,14576,1,0,0:0:0:0:
36,192,14576,1,0,0:0:0:0:
402,192,14576,1,0,0:0:0:0:
475,192,14674,1,0,0:0:0:0:
256,192,14674,1,0,0:0:0:0:
329,192,14772,1,0,0:0:0:0:
109,192,14772,1,0,0:0:0:0:
36,192,14772,1,0,0:0:0:0:
402,192,14870,1,0,0:0:0:0:
182,192,14870,1,0,0:0:0:0:
256,192,14968,1,0,0:0:0:0:
475,192,14968,1,0,0:0:0:0:
109,192,14968,1,0,0:0:0:0:
36,192,15066,1,0,0:0:0:0:
329,192,15066,1,0,0:0:0:0:
402,192,15164,1,0,0:0:0:0:
475,192,15164,1,0,0:0:0:0:
182,192,15164,1,0,0:0:0:0:
256,192,15262,1,0,0:0:0:0:
329,192,15262,1,0,0:0:0:0:
182,192,15360,1,0,0:0:0:0:
109,192,15360,1,0,0:0:0:0:
402,192,15360,1,0,0:0:0:0:
36,192,15458,1,0,0:0:0:0:
475,192,15458,1,0,0:0:0:0:
329,192,15556,1,0,0:0:0:0:
256,192,15556,1,0,0:0:0:0:
109,192,15556,1,0,0:0:0:0:
402,192,15655,1,0,0:0:0:0:
182,192,15655,1,0,0:0:0:0:
256,192,15753,1,0,0:0:0:0:
475,192,15753,1,0,0:0:0:0:
36,192,15753,1,0,0:0:0:0:
329,192,15851,1,0,0:0:0:0:
182,192,15851,1,0,0:0:0:0:
109,192,15949,1,0,0:0:0:0:
402,192,15949,1,0,0:0:0:0:
475,192,15949,1,0,0:0:0:0:
36,192,16047,1,0,0:0:0:0:
256,192,16047,1,0,0:0:0:0:
182,192,16145,1,0,0:0:0:0:
329,192,16145,1,0,0:0:0:0:
475,192,16145,1,0,0:0:0:0:
109,192,16243,1,0,0:0:0:0:
256,192,16243,1,0,0:0:0:0:
182,192,16341,1,0,0:0:0:0:
36,192,16341,1,0,0:0:0:0:
402,192,16341,1,0,0:0:0:0:
329,192,16439,1,0,0:0:0:0:
256,192,16439,1,0,0:0:0:0:
402,192,16537,1,0,0:0:0:0:
475,192,16537,1,0,0:0:0:0:
109,192,16537,1,0,0:0:0:0:
182,192,16635,1,0,0:0:0:0:
256,192,16635,1,0,0:0:0:0:
329,192,16733,1,0,0:0:0:0:
36,192,16733,1,0,0:0:0:0:
475,192,16733,1,0,0:0:0:0:
109,192,16831,1,0,0:0:0:0:
402,192,16831,1,0,0:0:0:0:
182,192,16929,1,0,0:0:0:0:
329,192,16929,1,0,0:0:0:0:
36,192,16929,1,0,0:0:0:0:
256,192,17027,1,0,0:0:0:0:
475,192,17027,1,0,0:0:0:0:
402,192,17125,1,0,0:0:0:0:
182,192,17125,1,0,0:0:0:0:
109,192,17125,1,0,0:0:0:0:
329,192,17223,1,0,0:0:0:0:
36,192,17223,1,0,0:0:0:0:
256,192,17321,1,0,0:0:0:0:
475,192,17321,1,0,0:0:0:0:
182,192,17321,1,0,0:0:0:0:
109,192,17419,1,0,0:0:0:0:
402,192,17419,1,0,0:0:0:0:
36,192,17517,1,0,0:0:0:0:
329,192,17517,1,0,0:0:0:0:
256,192,17517,1,0,0:0:0:0:
182,192,17615,1,0,0:0:0:0:
475,192,17615,1,0,0:0:0:0:
109,192,17713,1,0,0:0:0:0:
402,192,17713,1,0,0:0:0:0:
329,192,17713,1,0,0:0:0:0:
256,192,17811,1,0,0:0:0:0:
36,192,17909,1,0,0:0:0:0:
182,192,17909,1,0,0:0:0:0:
475,192,17909,1,0,0:0:0:0:
402,192,17958,1,0,0:0:0:0:
329,192,18007,1,0,0:0:0:0:
109,192,18007,1,0,0:0:0:0:
182,192,18056,1,0,0:0:0:0:
475,192,18105,1,0,0:0:0:0:
256,192,18105,1,0,0:0:0:0:
109,192,18155,1,0,0:0:0:0:
36,192,18204,1,0,0:0:0:0:
329,192,18204,1,0,0:0:0:0:
256,192,18253,1,0,0:0:0:0:
182,192,18302,1,0,0:0:0:0:
402,192,18302,1,0,0:0:0:0:
475,192,18351,1,0,0:0:0:0:
36,192,18351,1,0,0:0:0:0:
109,192,18400,1,0,0:0:0:0:
329,192,18400,1,0,0:0:0:0:
182,192,18449,1,0,0:0:0:0:
475,192,18498,1,0,0:0:0:0:
402,192,18498,1,0,0:0:0:0:
329,192,18547,1,0,0:0:0:0:
256,192,18596,1,0,0:0:0:0:
109,192,18596,1,0,0:0:0:0:
36,192,18645,1,0,0:0:0:0:
182,192,18694,1,0,0:0:0:0:
475,192,18694,1,0,0:0:0:0:
402,192,18694,1,0,0:0:0:0:
256,192,18743,1,0,0:0:0:0:
329,192,18792,1,0,0:0:0:0:
109,192,18792,1,0,0:0:0:0:
36,192,18841,1,0,0:0:0:0:
182,192,18890,1,0,0:0:0:0:
475,192,18890,1,0,0:0:0:0:
402,192,18939,1,0,0:0:0:0:
329,192,18988,1,0,0:0:0:0:
36,192,18988,1,0,0:0:0:0:
256,192,18988,1,0,0:0:0:0:
109,192,19037,1,0,0:0:0:0:
475,192,19086,1,0,0:0:0:0:
182,192,19086,1,0,0:0:0:0:
256,192,19135,1,0,0:0:0:0:
329,192,19184,1,0,0:0:0:0:
109,192,19184,1,0,0:0:0:0:
36,192,19233,1,0,0:0:0:0:
475,192,19282,1,0,0:0:0:0:
402,192,19282,1,0,0:0:0:0:
182,192,19282,1,0,0:0:0:0:
256,192,19331,1,0,0:0:0:0:
329,192,19380,1,0,0:0:0:0:
109,192,19380,1,0,0:0:0:0:
36,192,19429,1,0,0:0:0:0:
475,192,19478,1,0,0:0:0:0:
402,192,19478,1,0,0:0:0:0:
182,192,19478,1,0,0:0:0:0:
256,192,19478,1,0,0:0:0:0:
109,192,19576,1,0,0:0:0:0:
329,192,19576,1,0,0:0:0:0:
256,192,19674,1,0,0:0:0:0:
36,192,19674,1,0,0:0:0:0:
402,192,19674,1,0,0:0:0:0:
475,192,19772,1,0,0:0:0:0:
182,192,19772,1,0,0:0:0:0:
109,192,19870,1,0,0:0:0:0:
36,192,19870,1,0,0:0:0:0:
329,192,19870,1,0,0:0:0:0:
256,192,19968,1,0,0:0:0:0:
402,192,19968,1,0,0:0:0:0:
182,192,20066,1,0,0:0:0:0:
109,192,20066,1,0,0:0:0:0:
475,192,20066,1,0,0:0:0:0:
36,192,20164,1,0,0:0:0:0:
329,192,20164,1,0,0:0:0:0:
256,192,20262,1,0,0:0:0:0:
402,192,20262,1,0,0:0:0:0:
475,192,20262,1,0,0:0:0:0:
182,192,20360,1,0,0:0:0:0:
109,192,20360,1,0,0:0:0:0:
36,192,20458,1,0,0:0:0:0:
402,192,20458,1,0,0:0:0:0:
329,192,20458,1,0,0:0:0:0:
256,192,20556,1,0,0:0:0:0:
182,192,20556,1,0,0:0:0:0:
109,192,20655,1,0,0:0:0:0:
36,192,20655,1,0,0:0:0:0:
329,192,20655,1,0,0:0:0:0:
402,192,20753,1,0,0:0:0:0:
182,192,20753,1,0,0:0:0:0:
256,192,20851,1,0,0:0:0:0:
475,192,20851,1,0,0:0:0:0:
109,192,20851,1,0,0:0:0:0:
36,192,20949,1,0,0:0:0:0:
329,192,20949,1,0,0:0:0:0:
402,192,21047,1,0,0:0:0:0:
475,192,21047,1,0,0:0:0:0:
182,192,21047,1,0,0:0:0:0:
109,192,21145,1,0,0:0:0:0:
329,192,21145,1,0,0:0:0:0:
36,192,21243,1,0,0:0:0:0:
256,192,21243,1,0,0:0:0:0:
182,192,21341,1,0,0:0:0:0:
329,192,21341,1,0,0:0:0:0:
402,192,21439,1,0,0:0:0:0:
475,192,21439,1,0,0:0:0:0:
109,192,21439,1,0,0:0:0:0:
36,192,21537,1,0,0:0:0:0:
182,192,21537,1,0,0:0:0:0:
256,192,21635,1,0,0:0:0:0:
475,192,21635,1,0,0:0:0:0:
329,192,21635,1,0,0:0:0:0:
402,192,21733,1,0,0:0:0:0:
109,192,21733,1,0,0:0:0:0:
182,192,21831,1,0,0:0:0:0:
36,192,21831,1,0,0:0:0:0:
329,192,21831,1,0,0:0:0:0:
256,192,21929,1,0,0:0:0:0:
475,192,21929,1,0,0:0:0:0:
402,192,22027,1,0,0:0:0:0:
182,192,22027,1,0,0:0:0:0:
109,192,22027,1,0,0:0:0:0:
329,192,22125,1,0,0:0:0:0:
256,192,22125,1,0,0:0:0:0:
36,192,22223,1,0,0:0:0:0:
475,192,22223,1,0,0:0:0:0:
109,192,22223,1,0,0:0:0:0:
182,192,22321,1,0,0:0:0:0:
402,192,22321,1,0,0:0:0:0:
329,192,22419,1,0,0:0:0:0:
256,192,22419,1,0,0:0:0:0:
36,192,22419,1,0,0:0:0:0:
109,192,22517,1,0,0:0:0:0:
402,192,22517,1,0,0:0:0:0:
475,192,22615,1,0,0:0:0:0:
256,192,22615,1,0,0:0:0:0:
182,192,22615,1,0,0:0:0:0:
329,192,22713,1,0,0:0:0:0:
36,192,22713,1,0,0:0:0:0:
402,192,22811,1,0,0:0:0:0:
109,192,22811,1,0,0:0:0:0:
182,192,22811,1,0,0:0:0:0:
256,192,22909,1,0,0:0:0:0:
475,192,22909,1,0,0:0:0:0:
329,192,23007,1,0,0:0:0:0:
109,192,23007,1,0,0:0:0:0:
36,192,23007,1,0,0:0:0:0:
182,192,23105,1,0,0:0:0:0:
402,192,23105,1,0,0:0:0:0:
256,192,23204,1,0,0:0:0:0:
475,192,23204,1,0,0:0:0:0:
36,192,23204,1,0,0:0:0:0:
329,192,23302,1,0,0:0:0:0:
182,192,23302,1,0,0:0:0:0:
109,192,23400,1,0,0:0:0:0:
402,192,23400,1,0,0:0:0:0:
475,192,23400,1,0,0:0:0:0:
256,192,23498,1,0,0:0:0:0:
36,192,23498,1,0,0:0:0:0:
182,192,23596,1,0,0:0:0:0:
329,192,23596,1,0,0:0:0:0:
475,192,23596,1,0,0:0:0:0:
402,192,23694,1,0,0:0:0:0:
109,192,23694,1,0,0:0:0:0:
36,192,23792,1,0,0:0:0:0:
256,192,23792,1,0,0:0:0:0:
475,192,23792,1,0,0:0:0:0:
329,192,23890,1,0,0:0:0:0:
109,192,23890,1,0,0:0:0:0:
182,192,23988,1,0,0:0:0:0:
475,192,23988,1,0,0:0:0:0:
402,192,23988,1,0,0:0:0:0:
109,192,24086,1,0,0:0:0:0:
256,192,24086,1,0,0:0:0:0:
475,192,24184,128,0,24576:0:0:0:0:
329,192,24184,128,0,24331:0:0:0:0:
36,192,24184,1,0,0:0:0:0:
256,192,24233,128,0,24380:0:0:0:0:
182,192,24282,128,0,24429:0:0:0:0:
109,192,24331,128,0,24478:0:0:0:0:
36,192,24380,128,0,24527:0:0:0:0:
402,192,24429,128,0,24576:0:0:0:0:
329,192,24478,128,0,24625:0:0:0:0:
256,192,24527,128,0,24674:0:0:0:0:
182,192,24576,128,0,24723:0:0:0:0:
109,192,24625,128,0,24772:0:0:0:0:
36,192,24625,128,0,25017:0:0:0:0:
475,192,24674,128,0,24821:0:0:0:0:
402,192,24723,128,0,24870:0:0:0:0:
329,192,24772,128,0,24919:0:0:0:0:
256,192,24821,128,0,24968:0:0:0:0:
182,192,24870,128,0,25017:0:0:0:0:
475,192,24919,128,0,25164:0:0:0:0:
402,192,24968,128,0,25164:0:0:0:0:
329,192,25017,128,0,25164:0:0:0:0:
256,192,25066,128,0,25164:0:0:0:0:
36,192,25115,128,0,25360:0:0:0:0:
109,192,25164,128,0,25360:0:0:0:0:
182,192,25213,128,0,25360:0:0:0:0:
256,192,25262,128,0,25360:0:0:0:0:
475,192,25360,1,0,0:0:0:0:
329,192,25360,1,0,0:0:0:0:
402,192,25458,1,0,0:0:0:0:
256,192,25458,1,0,0:0:0:0:
329,192,25556,1,0,0:0:0:0:
182,192,25556,1,0,0:0:0:0:
109,192,25655,1,0,0:0:0:0:
256,192,25655,1,0,0:0:0:0:
182,192,25753,1,0,0:0:0:0:
36,192,25753,1,0,0:0:0:0:
475,192,25753,1,0,0:0:0:0:
402,192,25753,1,0,0:0:0:0:
256,192,25851,1,0,0:0:0:0:
329,192,25851,1,0,0:0:0:0:
182,192,25949,1,0,0:0:0:0:
109,192,25949,1,0,0:0:0:0:
402,192,25949,1,0,0:0:0:0:
256,192,26047,1,0,0:0:0:0:
475,192,26047,1,0,0:0:0:0:
109,192,26145,1,0,0:0:0:0:
36,192,26145,1,0,0:0:0:0:
329,192,26145,1,0,0:0:0:0:
182,192,26243,1,0,0:0:0:0:
402,192,26243,1,0,0:0:0:0:
256,192,26341,1,0,0:0:0:0:
36,192,26341,1,0,0:0:0:0:
475,192,26341,1,0,0:0:0:0:
402,192,26439,1,0,0:0:0:0:
109,192,26439,1,0,0:0:0:0:
329,192,26439,1,0,0:0:0:0:
402,192,26537,1,0,0:0:0:0:
182,192,26537,1,0,0:0:0:0:
329,192,26537,1,0,0:0:0:0:
36,192,26537,1,0,0:0:0:0:
256,192,26635,1,0,0:0:0:0:
475,192,26635,1,0,0:0:0:0:
329,192,26733,1,0,0:0:0:0:
109,192,26733,1,0,0:0:0:0:
402,192,26831,1,0,0:0:0:0:
475,192,26831,1,0,0:0:0:0:
182,192,26831,1,0,0:0:0:0:
402,192,26929,1,0,0:0:0:0:
475,192,26929,1,0,0:0:0:0:
256,192,26929,1,0,0:0:0:0:
36,192,26929,1,0,0:0:0:0:
109,192,27027,1,0,0:0:0:0:
329,192,27027,1,0,0:0:0:0:
182,192,27125,1,0,0:0:0:0:
402,192,27125,1,0,0:0:0:0:
36,192,27125,1,0,0:0:0:0:
256,192,27223,1,0,0:0:0:0:
475,192,27223,1,0,0:0:0:0:
36,192,27321,1,0,0:0:0:0:
329,192,27321,1,0,0:0:0:0:
109,192,27321,1,0,0:0:0:0:
402,192,27321,1,0,0:0:0:0:
256,192,27419,1,0,0:0:0:0:
182,192,27419,1,0,0:0:0:0:
402,192,27517,1,0,0:0:0:0:
109,192,27517,1,0,0:0:0:0:
475,192,27517,1,0,0:0:0:0:
329,192,27615,1,0,0:0:0:0:
36,192,27615,1,0,0:0:0:0:
402,192,27713,1,0,0:0:0:0:
475,192,27713,1,0,0:0:0:0:
182,192,27713,1,0,0:0:0:0:
109,192,27713,1,0,0:0:0:0:
256,192,27811,1,0,0:0:0:0:
329,192,27811,1,0,0:0:0:0:
36,192,27909,1,0,0:0:0:0:
402,192,27909,1,0,0:0:0:0:
109,192,27909,1,0,0:0:0:0:
182,192,28007,1,0,0:0:0:0:
475,192,28007,1,0,0:0:0:0:
256,192,28105,1,0,0:0:0:0:
36,192,28105,1,0,0:0:0:0:
329,192,28105,1,0,0:0:0:0:
109,192,28105,1,0,0:0:0:0:
402,192,28204,1,0,0:0:0:0:
475,192,28204,1,0,0:0:0:0:
329,192,28302,1,0,0:0:0:0:
36,192,28302,1,0,0:0:0:0:
182,192,28302,1,0,0:0:0:0:
256,192,28400,1,0,0:0:0:0:
402,192,28400,1,0,0:0:0:0:
475,192,28498,1,0,0:0:0:0:
329,192,28498,1,0,0:0:0:0:
109,192,28498,1,0,0:0:0:0:
36,192,28498,1,0,0:0:0:0:
182,192,28596,1,0,0:0:0:0:
256,192,28596,1,0,0:0:0:0:
402,192,28694,1,0,0:0:0:0:
329,192,28694,1,0,0:0:0:0:
109,192,28694,1,0,0:0:0:0:
36,192,28792,1,0,0:0:0:0:
256,192,28792,1,0,0:0:0:0:
182,192,28890,1,0,0:0:0:0:
475,192,28890,1,0,0:0:0:0:
402,192,28890,1,0,0:0:0:0:
109,192,28890,1,0,0:0:0:0:
329,192,28988,1,0,0:0:0:0:
36,192,28988,1,0,0:0:0:0:
256,192,29086,1,0,0:0:0:0:
182,192,29086,1,0,0:0:0:0:
402,192,29086,1,0,0:0:0:0:
109,192,29184,1,0,0:0:0:0:
475,192,29184,1,0,0:0:0:0:
36,192,29282,1,0,0:0:0:0:
182,192,29282,1,0,0:0:0:0:
402,192,29282,1,0,0:0:0:0:
329,192,29282,1,0,0:0:0:0:
256,192,29380,1,0,0:0:0:0:
475,192,29380,1,0,0:0:0:0:
329,192,29478,1,0,0:0:0:0:
109,192,29478,1,0,0:0:0:0:
36,192,29478,1,0,0:0:0:0:
182,192,29576,1,0,0:0:0:0:
402,192,29576,1,0,0:0:0:0:
256,192,29674,1,0,0:0:0:0:
475,192,29674,1,0,0:0:0:0:
329,192,29674,1,0,0:0:0:0:
36,192,29674,1,0,0:0:0:0:
109,192,29772,1,0,0:0:0:0:
402,192,29772,1,0,0:0:0:0:
182,192,29870,1,0,0:0:0:0:
329,192,29870,1,0,0:0:0:0:
475,192,29870,1,0,0:0:0:0:
256,192,29968,1,0,0:0:0:0:
36,192,29968,1,0,0:0:0:0:
109,192,30066,1,0,0:0:0:0:
182,192,30066,1,0,0:0:0:0:
475,192,30066,1,0,0:0:0:0:
402,192,30066,1,0,0:0:0:0:
329,192,30164,1,0,0:0:0:0:
36,192,30164,1,0,0:0:0:0:
256,192,30262,1,0,0:0:0:0:
402,192,30262,1,0,0:0:0:0:
109,192,30262,1,0,0:0:0:0:
182,192,30360,1,0,0:0:0:0:
475,192,30360,1,0,0:0:0:0:
256,192,30458,1,0,0:0:0:0:
109,192,30458,1,0,0:0:0:0:
36,192,30458,1,0,0:0:0:0:
329,192,30458,1,0,0:0:0:0:
109,192,30851,1,0,0:0:0:0:
36,192,30851,1,0,0:0:0:0:
36,192,31243,1,0,0:0:0:0:
109,192,31243,1,0,0:0:0:0:
475,192,31439,128,0,31635:0:0:0:0:
402,192,31439,128,0,31635:0:0:0:0:
329,192,31439,128,0,31635:0:0:0:0:
475,192,32027,1,0,0:0:0:0:
402,192,32027,1,0,0:0:0:0:
329,192,32027,1,0,0:0:0:0:
109,192,32027,1,0,0:0:0:0:
36,192,32027,1,0,0:0:0:0:
256,192,32125,1,0,0:0:0:0:
182,192,32223,1,0,0:0:0:0:
402,192,32223,1,0,0:0:0:0:
36,192,32223,1,0,0:0:0:0:
109,192,32321,1,0,0:0:0:0:
329,192,32321,1,0,0:0:0:0:
475,192,32419,1,0,0:0:0:0:
36,192,32419,1,0,0:0:0:0:
402,192,32419,1,0,0:0:0:0:
182,192,32419,1,0,0:0:0:0:
329,192,32517,1,0,0:0:0:0:
256,192,32615,1,0,0:0:0:0:
109,192,32615,1,0,0:0:0:0:
475,192,32615,1,0,0:0:0:0:
182,192,32713,1,0,0:0:0:0:
402,192,32713,1,0,0:0:0:0:
36,192,32811,1,0,0:0:0:0:
109,192,32811,1,0,0:0:0:0:
329,192,32811,1,0,0:0:0:0:
475,192,32811,1,0,0:0:0:0:
256,192,32909,1,0,0:0:0:0:
182,192,32909,1,0,0:0:0:0:
329,192,33007,1,0,0:0:0:0:
402,192,33007,1,0,0:0:0:0:
36,192,33007,1,0,0:0:0:0:
182,192,33105,1,0,0:0:0:0:
109,192,33105,1,0,0:0:0:0:
36,192,33204,1,0,0:0:0:0:
256,192,33204,1,0,0:0:0:0:
475,192,33204,1,0,0:0:0:0:
402,192,33204,1,0,0:0:0:0:
329,192,33302,1,0,0:0:0:0:
182,192,33302,1,0,0:0:0:0:
256,192,33400,1,0,0:0:0:0:
109,192,33400,1,0,0:0:0:0:
475,192,33400,1,0,0:0:0:0:
402,192,33400,1,0,0:0:0:0:
182,192,33498,1,0,0:0:0:0:
36,192,33498,1,0,0:0:0:0:
109,192,33596,1,0,0:0:0:0:
475,192,33596,1,0,0:0:0:0:
402,192,33596,1,0,0:0:0:0:
329,192,33596,1,0,0:0:0:0:
256,192,33694,1,0,0:0:0:0:
182,192,33694,1,0,0:0:0:0:
36,192,33792,1,0,0:0:0:0:
329,192,33792,1,0,0:0:0:0:
475,192,33792,1,0,0:0:0:0:
109,192,33890,1,0,0:0:0:0:
256,192,33890,1,0,0:0:0:0:
182,192,33988,1,0,0:0:0:0:
475,192,33988,1,0,0:0:0:0:
402,192,33988,1,0,0:0:0:0:
36,192,33988,1,0,0:0:0:0:
256,192,34086,1,0,0:0:0:0:
329,192,34086,1,0,0:0:0:0:
109,192,34184,1,0,0:0:0:0:
402,192,34184,1,0,0:0:0:0:
36,192,34184,1,0,0:0:0:0:
329,192,34282,1,0,0:0:0:0:
182,192,34282,1,0,0:0:0:0:
256,192,34380,1,0,0:0:0:0:
475,192,34380,1,0,0:0:0:0:
402,192,34380,1,0,0:0:0:0:
36,192,34380,1,0,0:0:0:0:
109,192,34478,1,0,0:0:0:0:
329,192,34478,1,0,0:0:0:0:
182,192,34576,1,0,0:0:0:0:
402,192,34576,1,0,0:0:0:0:
36,192,34576,1,0,0:0:0:0:
256,192,34674,1,0,0:0:0:0:
475,192,34674,1,0,0:0:0:0:
329,192,34772,1,0,0:0:0:0:
109,192,34772,1,0,0:0:0:0:
36,192,34772,1,0,0:0:0:0:
402,192,34772,1,0,0:0:0:0:
256,192,34870,1,0,0:0:0:0:
182,192,34870,1,0,0:0:0:0:
109,192,34968,1,0,0:0:0:0:
402,192,34968,1,0,0:0:0:0:
475,192,34968,1,0,0:0:0:0:
36,192,35066,1,0,0:0:0:0:
329,192,35066,1,0,0:0:0:0:
256,192,35164,1,0,0:0:0:0:
402,192,35164,1,0,0:0:0:0:
182,192,35164,1,0,0:0:0:0:
109,192,35164,1,0,0:0:0:0:
475,192,35262,1,0,0:0:0:0:
329,192,35262,1,0,0:0:0:0:
402,192,35360,1,0,0:0:0:0:
36,192,35360,1,0,0:0:0:0:
109,192,35360,1,0,0:0:0:0:
182,192,35458,1,0,0:0:0:0:
329,192,35458,1,0,0:0:0:0:
256,192,35556,1,0,0:0:0:0:
475,192,35556,1,0,0:0:0:0:
402,192,35556,1,0,0:0:0:0:
36,192,35556,1,0,0:0:0:0:
109,192,35655,1,0,0:0:0:0:
182,192,35655,1,0,0:0:0:0:
475,192,35753,1,0,0:0:0:0:
256,192,35753,1,0,0:0:0:0:
329,192,35753,1,0,0:0:0:0:
402,192,35851,1,0,0:0:0:0:
182,192,35851,1,0,0:0:0:0:
109,192,35949,1,0,0:0:0:0:
36,192,35949,1,0,0:0:0:0:
329,192,35949,1,0,0:0:0:0:
475,192,35949,1,0,0:0:0:0:
256,192,36047,1,0,0:0:0:0:
182,192,36047,1,0,0:0:0:0:
329,192,36145,1,0,0:0:0:0:
402,192,36145,1,0,0:0:0:0:
109,192,36145,1,0,0:0:0:0:
36,192,36243,1,0,0:0:0:0:
256,192,36243,1,0,0:0:0:0:
182,192,36341,1,0,0:0:0:0:
475,192,36341,1,0,0:0:0:0:
402,192,36341,1,0,0:0:0:0:
109,192,36341,1,0,0:0:0:0:
329,192,36439,1,0,0:0:0:0:
256,192,36439,1,0,0:0:0:0:
182,192,36537,1,0,0:0:0:0:
36,192,36537,1,0,0:0:0:0:
475,192,36537,1,0,0:0:0:0:
402,192,36635,1,0,0:0:0:0:
256,192,36635,1,0,0:0:0:0:
329,192,36733,1,0,0:0:0:0:
475,192,36733,1,0,0:0:0:0:
109,192,36733,1,0,0:0:0:0:
36,192,36733,1,0,0:0:0:0:
182,192,36831,1,0,0:0:0:0:
402,192,36831,1,0,0:0:0:0:
256,192,36929,1,0,0:0:0:0:
329,192,36929,1,0,0:0:0:0:
109,192,36929,1,0,0:0:0:0:
36,192,37027,1,0,0:0:0:0:
182,192,37027,1,0,0:0:0:0:
402,192,37125,1,0,0:0:0:0:
109,192,37125,1,0,0:0:0:0:
475,192,37125,1,0,0:0:0:0:
329,192,37125,1,0,0:0:0:0:
256,192,37223,1,0,0:0:0:0:
182,192,37223,1,0,0:0:0:0:
109,192,37321,1,0,0:0:0:0:
475,192,37321,1,0,0:0:0:0:
402,192,37321,1,0,0:0:0:0:
36,192,37419,1,0,0:0:0:0:
329,192,37419,1,0,0:0:0:0:
256,192,37517,1,0,0:0:0:0:
475,192,37517,1,0,0:0:0:0:
182,192,37517,1,0,0:0:0:0:
109,192,37517,1,0,0:0:0:0:
402,192,37615,1,0,0:0:0:0:
329,192,37615,1,0,0:0:0:0:
182,192,37713,1,0,0:0:0:0:
36,192,37713,1,0,0:0:0:0:
475,192,37713,1,0,0:0:0:0:
256,192,37811,1,0,0:0:0:0:
402,192,37811,1,0,0:0:0:0:
329,192,37909,1,0,0:0:0:0:
475,192,37909,1,0,0:0:0:0:
109,192,37909,1,0,0:0:0:0:
36,192,37909,1,0,0:0:0:0:
182,192,38007,1,0,0:0:0:0:
256,192,38007,1,0,0:0:0:0:
109,192,38105,1,0,0:0:0:0:
402,192,38105,1,0,0:0:0:0:
475,192,38105,1,0,0:0:0:0:
36,192,38105,1,0,0:0:0:0:
256,192,38204,1,0,0:0:0:0:
329,192,38204,1,0,0:0:0:0:
475,192,38302,1,0,0:0:0:0:
402,192,38302,1,0,0:0:0:0:
109,192,38302,1,0,0:0:0:0:
36,192,38302,1,0,0:0:0:0:
182,192,38400,1,0,0:0:0:0:
329,192,38400,1,0,0:0:0:0:
256,192,38498,1,0,0:0:0:0:
402,192,38498,1,0,0:0:0:0:
36,192,38498,1,0,0:0:0:0:
329,192,38596,1,0,0:0:0:0:
109,192,38596,1,0,0:0:0:0:
256,192,38694,1,0,0:0:0:0:
182,192,38694,1,0,0:0:0:0:
475,192,38694,1,0,0:0:0:0:
402,192,38694,1,0,0:0:0:0:
109,192,38792,1,0,0:0:0:0:
36,192,38792,1,0,0:0:0:0:
256,192,38890,1,0,0:0:0:0:
402,192,38890,1,0,0:0:0:0:
329,192,38890,1,0,0:0:0:0:
182,192,38988,1,0,0:0:0:0:
109,192,38988,1,0,0:0:0:0:
36,192,39086,1,0,0:0:0:0:
475,192,39086,1,0,0:0:0:0:
329,192,39086,1,0,0:0:0:0:
402,192,39086,1,0,0:0:0:0:
256,192,39184,1,0,0:0:0:0:
182,192,39184,1,0,0:0:0:0:
109,192,39282,1,0,0:0:0:0:
329,192,39282,1,0,0:0:0:0:
36,192,39282,1,0,0:0:0:0:
402,192,39380,1,0,0:0:0:0:
256,192,39380,1,0,0:0:0:0:
475,192,39478,1,0,0:0:0:0:
182,192,39478,1,0,0:0:0:0:
109,192,39478,1,0,0:0:0:0:
36,192,39478,1,0,0:0:0:0:
329,192,39576,1,0,0:0:0:0:
402,192,39576,1,0,0:0:0:0:
256,192,39674,1,0,0:0:0:0:
182,192,39674,1,0,0:0:0:0:
475,192,39674,1,0,0:0:0:0:
109,192,39772,1,0,0:0:0:0:
329,192,39772,1,0,0:0:0:0:
402,192,39870,1,0,0:0:0:0:
475,192,39870,1,0,0:0:0:0:
36,192,39870,1,0,0:0:0:0:
182,192,39870,1,0,0:0:0:0:
256,192,39968,1,0,0:0:0:0:
329,192,39968,1,0,0:0:0:0:
109,192,40066,1,0,0:0:0:0:
402,192,40066,1,0,0:0:0:0:
36,192,40066,1,0,0:0:0:0:
182,192,40164,1,0,0:0:0:0:
475,192,40164,1,0,0:0:0:0:
256,192,40262,1,0,0:0:0:0:
329,192,40262,1,0,0:0:0:0:
36,192,40262,1,0,0:0:0:0:
402,192,40262,1,0,0:0:0:0:
182,192,40360,1,0,0:0:0:0:
109,192,40360,1,0,0:0:0:0:
36,192,40458,1,0,0:0:0:0:
329,192,40458,1,0,0:0:0:0:
475,192,40458,1,0,0:0:0:0:
402,192,40556,1,0,0:0:0:0:
182,192,40556,1,0,0:0:0:0:
329,192,40655,1,0,0:0:0:0:
475,192,40655,1,0,0:0:0:0:
109,192,40655,1,0,0:0:0:0:
36,192,40655,1,0,0:0:0:0:
256,192,40753,1,0,0:0:0:0:
402,192,40753,1,0,0:0:0:0:
182,192,40851,1,0,0:0:0:0:
329,192,40851,1,0,0:0:0:0:
109,192,40851,1,0,0:0:0:0:
475,192,40949,1,0,0:0:0:0:
402,192,40949,1,0,0:0:0:0:
256,192,41047,1,0,0:0:0:0:
109,192,41047,1,0,0:0:0:0:
36,192,41047,1,0,0:0:0:0:
329,192,41047,1,0,0:0:0:0:
182,192,41145,1,0,0:0:0:0:
402,192,41145,1,0,0:0:0:0:
256,192,41243,1,0,0:0:0:0:
475,192,41243,1,0,0:0:0:0:
109,192,41243,1,0,0:0:0:0:
36,192,41341,1,0,0:0:0:0:
329,192,41341,1,0,0:0:0:0:
402,192,41439,1,0,0:0:0:0:
475,192,41439,1,0,0:0:0:0:
182,192,41439,1,0,0:0:0:0:
256,192,41439,1,0,0:0:0:0:
109,192,41537,1,0,0:0:0:0:
36,192,41537,1,0,0:0:0:0:
329,192,41635,1,0,0:0:0:0:
475,192,41635,1,0,0:0:0:0:
182,192,41635,1,0,0:0:0:0:
256,192,41733,1,0,0:0:0:0:
402,192,41733,1,0,0:0:0:0:
329,192,41831,1,0,0:0:0:0:
475,192,41831,1,0,0:0:0:0:
109,192,41831,1,0,0:0:0:0:
36,192,41831,1,0,0:0:0:0:
182,192,41929,1,0,0:0:0:0:
256,192,41929,1,0,0:0:0:0:
402,192,42027,1,0,0:0:0:0:
475,192,42027,1,0,0:0:0:0:
109,192,42027,1,0,0:0:0:0:
36,192,42125,1,0,0:0:0:0:
329,192,42125,1,0,0:0:0:0:
256,192,42223,1,0,0:0:0:0:
475,192,42223,1,0,0:0:0:0:
182,192,42223,1,0,0:0:0:0:
109,192,42223,1,0,0:0:0:0:
329,192,42321,1,0,0:0:0:0:
402,192,42321,1,0,0:0:0:0:
109,192,42419,1,0,0:0:0:0:
36,192,42419,1,0,0:0:0:0:
256,192,42419,1,0,0:0:0:0:
182,192,42517,1,0,0:0:0:0:
329,192,42517,1,0,0:0:0:0:
402,192,42615,1,0,0:0:0:0:
475,192,42615,1,0,0:0:0:0:
36,192,42615,1,0,0:0:0:0:
256,192,42615,1,0,0:0:0:0:
182,192,42713,1,0,0:0:0:0:
329,192,42713,1,0,0:0:0:0:
36,192,42811,1,0,0:0:0:0:
109,192,42811,1,0,0:0:0:0:
256,192,42811,1,0,0:0:0:0:
475,192,42811,1,0,0:0:0:0:
402,192,42909,1,0,0:0:0:0:
182,192,42909,1,0,0:0:0:0:
109,192,43007,1,0,0:0:0:0:
475,192,43007,1,0,0:0:0:0:
329,192,43007,1,0,0:0:0:0:
36,192,43007,1,0,0:0:0:0:
36,192,43204,1,0,0:0:0:0:
475,192,43204,1,0,0:0:0:0:
329,192,43204,1,0,0:0:0:0:
182,192,43204,1,0,0:0:0:0:
256,192,43302,1,0,0:0:0:0:
402,192,43302,1,0,0:0:0:0:
109,192,43302,1,0,0:0:0:0:
36,192,43400,1,0,0:0:0:0:
475,192,43400,1,0,0:0:0:0:
329,192,43400,1,0,0:0:0:0:
182,192,43400,1,0,0:0:0:0:
475,192,43596,1,0,0:0:0:0:
109,192,43596,1,0,0:0:0:0:
36,192,43596,1,0,0:0:0:0:
329,192,43596,1,0,0:0:0:0:
402,192,43694,1,0,0:0:0:0:
182,192,43694,1,0,0:0:0:0:
256,192,43792,1,0,0:0:0:0:
329,192,43792,1,0,0:0:0:0:
475,192,43792,1,0,0:0:0:0:
36,192,43792,1,0,0:0:0:0:
109,192,43890,1,0,0:0:0:0:
182,192,43890,1,0,0:0:0:0:
329,192,43988,1,0,0:0:0:0:
402,192,43988,1,0,0:0:0:0:
36,192,43988,1,0,0:0:0:0:
256,192,44086,1,0,0:0:0:0:
182,192,44086,1,0,0:0:0:0:
36,192,44184,1,0,0:0:0:0:
109,192,44184,1,0,0:0:0:0:
329,192,44184,1,0,0:0:0:0:
402,192,44282,1,0,0:0:0:0:
475,192,44282,1,0,0:0:0:0:
182,192,44282,1,0,0:0:0:0:
256,192,44380,1,0,0:0:0:0:
109,192,44380,1,0,0:0:0:0:
36,192,44380,1,0,0:0:0:0:
329,192,44478,1,0,0:0:0:0:
402,192,44478,1,0,0:0:0:0:
475,192,44478,1,0,0:0:0:0:
256,192,44576,1,0,0:0:0:0:
182,192,44576,1,0,0:0:0:0:
36,192,44576,1,0,0:0:0:0:
109,192,44576,1,0,0:0:0:0:
329,192,44674,1,0,0:0:0:0:
402,192,44674,1,0,0:0:0:0:
475,192,44772,1,0,0:0:0:0:
256,192,44772,1,0,0:0:0:0:
182,192,44772,1,0,0:0:0:0:
109,192,44870,1,0,0:0:0:0:
329,192,44870,1,0,0:0:0:0:
36,192,44968,1,0,0:0:0:0:
475,192,44968,1,0,0:0:0:0:
402,192,44968,1,0,0:0:0:0:
256,192,44968,1,0,0:0:0:0:
182,192,45066,1,0,0:0:0:0:
329,192,45066,1,0,0:0:0:0:
256,192,45164,1,0,0:0:0:0:
109,192,45164,1,0,0:0:0:0:
475,192,45164,1,0,0:0:0:0:
182,192,45262,1,0,0:0:0:0:
36,192,45262,1,0,0:0:0:0:
109,192,45360,1,0,0:0:0:0:
329,192,45360,1,0,0:0:0:0:
402,192,45360,1,0,0:0:0:0:
475,192,45360,1,0,0:0:0:0:
256,192,45458,1,0,0:0:0:0:
36,192,45458,1,0,0:0:0:0:
182,192,45556,1,0,0:0:0:0:
402,192,45556,1,0,0:0:0:0:
475,192,45556,1,0,0:0:0:0:
109,192,45655,1,0,0:0:0:0:
329,192,45655,1,0,0:0:0:0:
256,192,45753,1,0,0:0:0:0:
36,192,45753,1,0,0:0:0:0:
475,192,45753,1,0,0:0:0:0:
182,192,45753,1,0,0:0:0:0:
402,192,45851,1,0,0:0:0:0:
329,192,45851,1,0,0:0:0:0:
182,192,45949,1,0,0:0:0:0:
109,192,45949,1,0,0:0:0:0:
475,192,45949,1,0,0:0:0:0:
256,192,46047,1,0,0:0:0:0:
36,192,46047,1,0,0:0:0:0:
329,192,46145,1,0,0:0:0:0:
475,192,46145,1,0,0:0:0:0:
402,192,46145,1,0,0:0:0:0:
182,192,46145,1,0,0:0:0:0:
109,192,46243,1,0,0:0:0:0:
256,192,46243,1,0,0:0:0:0:
182,192,46341,1,0,0:0:0:0:
36,192,46341,1,0,0:0:0:0:
402,192,46341,1,0,0:0:0:0:
475,192,46439,1,0,0:0:0:0:
256,192,46439,1,0,0:0:0:0:
329,192,46537,1,0,0:0:0:0:
402,192,46537,1,0,0:0:0:0:
109,192,46537,1,0,0:0:0:0:
36,192,46537,1,0,0:0:0:0:
182,192,46635,1,0,0:0:0:0:
256,192,46635,1,0,0:0:0:0:
475,192,46733,1,0,0:0:0:0:
402,192,46733,1,0,0:0:0:0:
109,192,46733,1,0,0:0:0:0:
36,192,46831,1,0,0:0:0:0:
329,192,46831,1,0,0:0:0:0:
256,192,46929,1,0,0:0:0:0:
475,192,46929,1,0,0:0:0:0:
182,192,46929,1,0,0:0:0:0:
109,192,46929,1,0,0:0:0:0:
402,192,47027,1,0,0:0:0:0:
329,192,47027,1,0,0:0:0:0:
182,192,47125,1,0,0:0:0:0:
109,192,47125,1,0,0:0:0:0:
36,192,47125,1,0,0:0:0:0:
256,192,47223,1,0,0:0:0:0:
329,192,47223,1,0,0:0:0:0:
402,192,47321,1,0,0:0:0:0:
475,192,47321,1,0,0:0:0:0:
109,192,47321,1,0,0:0:0:0:
36,192,47321,1,0,0:0:0:0:
182,192,47419,1,0,0:0:0:0:
256,192,47419,1,0,0:0:0:0:
329,192,47517,1,0,0:0:0:0:
402,192,47517,1,0,0:0:0:0:
36,192,47517,1,0,0:0:0:0:
109,192,47615,1,0,0:0:0:0:
182,192,47615,1,0,0:0:0:0:
256,192,47713,1,0,0:0:0:0:
475,192,47713,1,0,0:0:0:0:
402,192,47713,1,0,0:0:0:0:
329,192,47713,1,0,0:0:0:0:
109,192,47811,1,0,0:0:0:0:
36,192,47811,1,0,0:0:0:0:
182,192,47909,1,0,0:0:0:0:
256,192,47909,1,0,0:0:0:0:
475,192,47909,1,0,0:0:0:0:
402,192,48007,1,0,0:0:0:0:
329,192,48007,1,0,0:0:0:0:
475,192,48105,1,0,0:0:0:0:
182,192,48105,1,0,0:0:0:0:
109,192,48105,1,0,0:0:0:0:
36,192,48105,1,0,0:0:0:0:
256,192,48204,1,0,0:0:0:0:
329,192,48204,1,0,0:0:0:0:
402,192,48302,1,0,0:0:0:0:
475,192,48302,1,0,0:0:0:0:
182,192,48302,1,0,0:0:0:0:
109,192,48400,1,0,0:0:0:0:
329,192,48400,1,0,0:0:0:0:
256,192,48498,1,0,0:0:0:0:
36,192,48498,1,0,0:0:0:0:
475,192,48498,1,0,0:0:0:0:
402,192,48498,1,0,0:0:0:0:
329,192,48596,1,0,0:0:0:0:
109,192,48596,1,0,0:0:0:0:
182,192,48694,1,0,0:0:0:0:
402,192,48694,1,0,0:0:0:0:
36,192,48694,1,0,0:0:0:0:
256,192,48792,1,0,0:0:0:0:
475,192,48792,1,0,0:0:0:0:
329,192,48890,1,0,0:0:0:0:
109,192,48890,1,0,0:0:0:0:
36,192,48890,1,0,0:0:0:0:
402,192,48890,1,0,0:0:0:0:
256,192,48988,1,0,0:0:0:0:
475,192,48988,1,0,0:0:0:0:
182,192,49086,1,0,0:0:0:0:
329,192,49086,1,0,0:0:0:0:
36,192,49086,1,0,0:0:0:0:
109,192,49184,1,0,0:0:0:0:
402,192,49184,1,0,0:0:0:0:
475,192,49282,1,0,0:0:0:0:
182,192,49282,1,0,0:0:0:0:
256,192,49282,1,0,0:0:0:0:
36,192,49282,1,0,0:0:0:0:
329,192,49331,1,0,0:0:0:0:
402,192,49380,1,0,0:0:0:0:
109,192,49380,1,0,0:0:0:0:
182,192,49429,1,0,0:0:0:0:
256,192,49478,1,0,0:0:0:0:
475,192,49478,1,0,0:0:0:0:
329,192,49527,1,0,0:0:0:0:
182,192,49576,1,0,0:0:0:0:
402,192,49576,1,0,0:0:0:0:
109,192,49625,1,0,0:0:0:0:
36,192,49674,1,0,0:0:0:0:
475,192,49674,1,0,0:0:0:0:
256,192,49674,1,0,0:0:0:0:
402,192,49723,1,0,0:0:0:0:
329,192,49772,1,0,0:0:0:0:
182,192,49772,1,0,0:0:0:0:
109,192,49821,1,0,0:0:0:0:
36,192,49870,1,0,0:0:0:0:
402,192,49870,1,0,0:0:0:0:
475,192,49919,1,0,0:0:0:0:
109,192,49968,1,0,0:0:0:0:
256,192,49968,1,0,0:0:0:0:
329,192,50017,1,0,0:0:0:0:
182,192,50066,1,0,0:0:0:0:
475,192,50066,1,0,0:0:0:0:
402,192,50066,1,0,0:0:0:0:
109,192,50115,1,0,0:0:0:0:
36,192,50164,1,0,0:0:0:0:
329,192,50164,1,0,0:0:0:0:
256,192,50213,1,0,0:0:0:0:
182,192,50262,1,0,0:0:0:0:
402,192,50262,1,0,0:0:0:0:
475,192,50311,1,0,0:0:0:0:
329,192,50360,1,0,0:0:0:0:
109,192,50360,1,0,0:0:0:0:
402,192,50409,1,0,0:0:0:0:
182,192,50458,1,0,0:0:0:0:
36,192,50458,1,0,0:0:0:0:
475,192,50458,1,0,0:0:0:0:
256,192,50507,1,0,0:0:0:0:
329,192,50556,1,0,0:0:0:0:
109,192,50556,1,0,0:0:0:0:
36,192,50605,1,0,0:0:0:0:
402,192,50655,1,0,0:0:0:0:
475,192,50655,1,0,0:0:0:0:
182,192,50655,1,0,0:0:0:0:
109,192,50704,1,0,0:0:0:0:
36,192,50753,1,0,0:0:0:0:
256,192,50753,1,0,0:0:0:0:
329,192,50802,1,0,0:0:0:0:
402,192,50851,1,0,0:0:0:0:
475,192,50851,1,0,0:0:0:0:
182,192,50851,1,0,0:0:0:0:
109,192,50851,1,0,0:0:0:0:
256,192,50949,1,0,0:0:0:0:
36,192,50949,1,0,0:0:0:0:
329,192,51047,1,0,0:0:0:0:
182,192,51047,1,0,0:0:0:0:
402,192,51047,1,0,0:0:0:0:
109,192,51145,1,0,0:0:0:0:
256,192,51145,1,0,0:0:0:0:
182,192,51243,1,0,0:0:0:0:
36,192,51243,1,0,0:0:0:0:
475,192,51243,1,0,0:0:0:0:
402,192,51243,1,0,0:0:0:0:
329,192,51341,1,0,0:0:0:0:
256,192,51341,1,0,0:0:0:0:
182,192,51439,1,0,0:0:0:0:
109,192,51439,1,0,0:0:0:0:
402,192,51439,1,0,0:0:0:0:
36,192,51537,1,0,0:0:0:0:
475,192,51537,1,0,0:0:0:0:
402,192,51635,1,0,0:0:0:0:
329,192,51635,1,0,0:0:0:0:
256,192,51635,1,0,0:0:0:0:
109,192,51635,1,0,0:0:0:0:
182,192,51733,1,0,0:0:0:0:
475,192,51733,1,0,0:0:0:0:
256,192,51831,1,0,0:0:0:0:
36,192,51831,1,0,0:0:0:0:
402,192,51831,1,0,0:0:0:0:
329,192,51929,1,0,0:0:0:0:
182,192,51929,1,0,0:0:0:0:
109,192,52027,1,0,0:0:0:0:
36,192,52027,1,0,0:0:0:0:
475,192,52027,1,0,0:0:0:0:
256,192,52027,1,0,0:0:0:0:
182,192,52125,1,0,0:0:0:0:
402,192,52125,1,0,0:0:0:0:
109,192,52223,1,0,0:0:0:0:
329,192,52223,1,0,0:0:0:0:
475,192,52223,1,0,0:0:0:0:
256,192,52321,1,0,0:0:0:0:
36,192,52321,1,0,0:0:0:0:
182,192,52419,1,0,0:0:0:0:
402,192,52419,1,0,0:0:0:0:
475,192,52419,1,0,0:0:0:0:
109,192,52419,1,0,0:0:0:0:
329,192,52517,1,0,0:0:0:0:
256,192,52517,1,0,0:0:0:0:
182,192,52615,1,0,0:0:0:0:
36,192,52615,1,0,0:0:0:0:
402,192,52615,1,0,0:0:0:0:
475,192,52713,1,0,0:0:0:0:
256,192,52713,1,0,0:0:0:0:
36,192,52811,1,0,0:0:0:0:
329,192,52811,1,0,0:0:0:0:
109,192,52811,1,0,0:0:0:0:
402,192,52811,1,0,0:0:0:0:
182,192,52909,1,0,0:0:0:0:
475,192,52909,1,0,0:0:0:0:
256,192,53007,1,0,0:0:0:0:
329,192,53007,1,0,0:0:0:0:
36,192,53007,1,0,0:0:0:0:
109,192,53105,1,0,0:0:0:0:
402,192,53105,1,0,0:0:0:0:
475,192,53204,1,0,0:0:0:0:
256,192,53204,1,0,0:0:0:0:
182,192,53204,1,0,0:0:0:0:
36,192,53204,1,0,0:0:0:0:
329,192,53302,1,0,0:0:0:0:
402,192,53302,1,0,0:0:0:0:
475,192,53400,1,0,0:0:0:0:
109,192,53400,1,0,0:0:0:0:
182,192,53400,1,0,0:0:0:0:
256,192,53498,1,0,0:0:0:0:
36,192,53498,1,0,0:0:0:0:
402,192,53596,1,0,0:0:0:0:
475,192,53596,1,0,0:0:0:0:
329,192,53596,1,0,0:0:0:0:
182,192,53596,1,0,0:0:0:0:
109,192,53694,1,0,0:0:0:0:
256,192,53694,1,0,0:0:0:0:
182,192,53792,1,0,0:0:0:0:
36,192,53792,1,0,0:0:0:0:
402,192,53792,1,0,0:0:0:0:
475,192,53890,1,0,0:0:0:0:
256,192,53890,1,0,0:0:0:0:
36,192,53988,1,0,0:0:0:0:
109,192,53988,1,0,0:0:0:0:
329,192,53988,1,0,0:0:0:0:
182,192,53988,1,0,0:0:0:0:
256,192,54086,1,0,0:0:0:0:
402,192,54086,1,0,0:0:0:0:
475,192,54184,1,0,0:0:0:0:
329,192,54184,1,0,0:0:0:0:
109,192,54184,1,0,0:0:0:0:
36,192,54282,1,0,0:0:0:0:
256,192,54282,1,0,0:0:0:0:
182,192,54380,1,0,0:0:0:0:
402,192,54380,1,0,0:0:0:0:
475,192,54380,1,0,0:0:0:0:
109,192,54380,1,0,0:0:0:0:
36,192,54478,1,0,0:0:0:0:
329,192,54478,1,0,0:0:0:0:
256,192,54576,1,0,0:0:0:0:
475,192,54576,1,0,0:0:0:0:
182,192,54576,1,0,0:0:0:0:
109,192,54674,1,0,0:0:0:0:
402,192,54674,1,0,0:0:0:0:
329,192,54772,1,0,0:0:0:0:
36,192,54772,1,0,0:0:0:0:
256,192,54772,1,0,0:0:0:0:
475,192,54772,1,0,0:0:0:0:
182,192,54870,1,0,0:0:0:0:
109,192,54870,1,0,0:0:0:0:
329,192,54968,1,0,0:0:0:0:
402,192,54968,1,0,0:0:0:0:
36,192,54968,1,0,0:0:0:0:
256,192,55066,1,0,0:0:0:0:
475,192,55066,1,0,0:0:0:0:
182,192,55164,1,0,0:0:0:0:
402,192,55164,1,0,0:0:0:0:
109,192,55164,1,0,0:0:0:0:
36,192,55164,1,0,0:0:0:0:
329,192,55262,1,0,0:0:0:0:
475,192,55262,1,0,0:0:0:0:
256,192,55360,1,0,0:0:0:0:
402,192,55360,1,0,0:0:0:0:
36,192,55360,1,0,0:0:0:0:
182,192,55458,1,0,0:0:0:0:
109,192,55458,1,0,0:0:0:0:
36,192,55556,1,0,0:0:0:0:
475,192,55556,1,0,0:0:0:0:
402,192,55556,1,0,0:0:0:0:
329,192,55556,1,0,0:0:0:0:
256,192,55654,1,0,0:0:0:0:
182,192,55654,1,0,0:0:0:0:
109,192,55753,1,0,0:0:0:0:
36,192,55753,1,0,0:0:0:0:
475,192,55753,1,0,0:0:0:0:
402,192,55851,1,0,0:0:0:0:
182,192,55851,1,0,0:0:0:0:
36,192,55949,1,0,0:0:0:0:
256,192,55949,1,0,0:0:0:0:
329,192,55949,1,0,0:0:0:0:
109,192,55949,1,0,0:0:0:0:
475,192,56047,1,0,0:0:0:0:
182,192,56047,1,0,0:0:0:0:
402,192,56145,1,0,0:0:0:0:
36,192,56145,1,0,0:0:0:0:
109,192,56145,1,0,0:0:0:0:
256,192,56243,1,0,0:0:0:0:
329,192,56243,1,0,0:0:0:0:
182,192,56341,1,0,0:0:0:0:
402,192,56341,1,0,0:0:0:0:
475,192,56341,1,0,0:0:0:0:
36,192,56341,1,0,0:0:0:0:
329,192,56439,1,0,0:0:0:0:
109,192,56439,1,0,0:0:0:0:
36,192,56537,1,0,0:0:0:0:
475,192,56537,1,0,0:0:0:0:
402,192,56537,1,0,0:0:0:0:
256,192,56537,1,0,0:0:0:0:
182,192,56635,1,0,0:0:0:0:
329,192,56635,1,0,0:0:0:0:
475,192,56733,1,0,0:0:0:0:
402,192,56733,1,0,0:0:0:0:
109,192,56733,1,0,0:0:0:0:
36,192,56733,1,0,0:0:0:0:
329,192,56831,1,0,0:0:0:0:
256,192,56831,1,0,0:0:0:0:
182,192,56831,1,0,0:0:0:0:
402,192,56929,1,0,0:0:0:0:
475,192,56929,1,0,0:0:0:0:
109,192,56929,1,0,0:0:0:0:
36,192,56929,1,0,0:0:0:0:
182,192,57027,1,0,0:0:0:0:
256,192,57027,1,0,0:0:0:0:
329,192,57027,1,0,0:0:0:0:
475,192,57125,1,0,0:0:0:0:
402,192,57125,1,0,0:0:0:0:
36,192,57125,1,0,0:0:0:0:
109,192,57125,1,0,0:0:0:0:
329,192,57223,1,0,0:0:0:0:
182,192,57223,1,0,0:0:0:0:
256,192,57321,1,0,0:0:0:0:
475,192,57321,1,0,0:0:0:0:
109,192,57321,1,0,0:0:0:0:
36,192,57419,1,0,0:0:0:0:
182,192,57419,1,0,0:0:0:0:
109,192,57517,1,0,0:0:0:0:
329,192,57517,1,0,0:0:0:0:
475,192,57517,1,0,0:0:0:0:
256,192,57517,1,0,0:0:0:0:
402,192,57615,1,0,0:0:0:0:
182,192,57615,1,0,0:0:0:0:
256,192,57713,1,0,0:0:0:0:
36,192,57713,1,0,0:0:0:0:
109,192,57713,1,0,0:0:0:0:
329,192,57811,1,0,0:0:0:0:
475,192,57811,1,0,0:0:0:0:
402,192,57811,1,0,0:0:0:0:
475,192,57909,1,0,0:0:0:0:
402,192,57909,1,0,0:0:0:0:
329,192,57909,1,0,0:0:0:0:
182,192,57909,1,0,0:0:0:0:
109,192,58007,1,0,0:0:0:0:
256,192,58007,1,0,0:0:0:0:
36,192,58105,1,0,0:0:0:0:
182,192,58105,1,0,0:0:0:0:
402,192,58105,1,0,0:0:0:0:
475,192,58204,1,0,0:0:0:0:
256,192,58204,1,0,0:0:0:0:
329,192,58302,1,0,0:0:0:0:
36,192,58302,1,0,0:0:0:0:
109,192,58302,1,0,0:0:0:0:
182,192,58302,1,0,0:0:0:0:
256,192,58400,1,0,0:0:0:0:
402,192,58400,1,0,0:0:0:0:
329,192,58498,1,0,0:0:0:0:
475,192,58498,1,0,0:0:0:0:
109,192,58498,1,0,0:0:0:0:
36,192,58596,1,0,0:0:0:0:
182,192,58596,1,0,0:0:0:0:
256,192,58694,1,0,0:0:0:0:
475,192,58694,1,0,0:0:0:0:
402,192,58694,1,0,0:0:0:0:
109,192,58694,1,0,0:0:0:0:
182,192,58792,1,0,0:0:0:0:
329,192,58792,1,0,0:0:0:0:
256,192,58890,1,0,0:0:0:0:
475,192,58890,1,0,0:0:0:0:
36,192,58890,1,0,0:0:0:0:
402,192,58988,1,0,0:0:0:0:
182,192,58988,1,0,0:0:0:0:
109,192,59086,1,0,0:0:0:0:
329,192,59086,1,0,0:0:0:0:
475,192,59086,1,0,0:0:0:0:
36,192,59086,1,0,0:0:0:0:
256,192,59184,1,0,0:0:0:0:
182,192,59184,1,0,0:0:0:0:
329,192,59282,1,0,0:0:0:0:
402,192,59282,1,0,0:0:0:0:
109,192,59282,1,0,0:0:0:0:
36,192,59380,1,0,0:0:0:0:
256,192,59478,1,0,0:0:0:0:
475,192,59478,1,0,0:0:0:0:
402,192,59478,1,0,0:0:0:0:
182,192,59478,1,0,0:0:0:0:
109,192,59576,1,0,0:0:0:0:
329,192,59576,1,0,0:0:0:0:
36,192,59674,1,0,0:0:0:0:
256,192,59674,1,0,0:0:0:0:
402,192,59674,1,0,0:0:0:0:
182,192,59772,1,0,0:0:0:0:
475,192,59772,1,0,0:0:0:0:
109,192,59870,1,0,0:0:0:0:
36,192,59870,1,0,0:0:0:0:
329,192,59870,1,0,0:0:0:0:
402,192,59870,1,0,0:0:0:0:
256,192,59968,1,0,0:0:0:0:
475,192,59968,1,0,0:0:0:0:
182,192,60066,1,0,0:0:0:0:
109,192,60066,1,0,0:0:0:0:
329,192,60066,1,0,0:0:0:0:
402,192,60164,1,0,0:0:0:0:
256,192,60164,1,0,0:0:0:0:
475,192,60262,1,0,0:0:0:0:
329,192,60262,1,0,0:0:0:0:
109,192,60262,1,0,0:0:0:0:
36,192,60262,1,0,0:0:0:0:
182,192,60360,1,0,0:0:0:0:
256,192,60360,1,0,0:0:0:0:
329,192,60458,1,0,0:0:0:0:
402,192,60458,1,0,0:0:0:0:
109,192,60458,1,0,0:0:0:0:
36,192,60556,1,0,0:0:0:0:
256,192,60556,1,0,0:0:0:0:
182,192,60654,1,0,0:0:0:0:
475,192,60654,1,0,0:0:0:0:
402,192,60654,1,0,0:0:0:0:
109,192,60654,1,0,0:0:0:0:
329,192,60753,1,0,0:0:0:0:
256,192,60753,1,0,0:0:0:0:
182,192,60851,5,0,0:0:0:0:
36,192,60851,1,0,0:0:0:0:
402,192,60851,1,0,0:0:0:0:
475,192,60949,1,0,0:0:0:0:
329,192,60949,1,0,0:0:0:0:
36,192,61047,1,0,0:0:0:0:
256,192,61047,1,0,0:0:0:0:
402,192,61047,1,0,0:0:0:0:
109,192,61047,1,0,0:0:0:0:
182,192,61145,1,0,0:0:0:0:
329,192,61145,1,0,0:0:0:0:
256,192,61243,1,0,0:0:0:0:
109,192,61243,1,0,0:0:0:0:
475,192,61243,1,0,0:0:0:0:
402,192,61243,1,0,0:0:0:0:
182,192,61341,1,0,0:0:0:0:
36,192,61341,1,0,0:0:0:0:
109,192,61439,1,0,0:0:0:0:
475,192,61439,1,0,0:0:0:0:
402,192,61439,1,0,0:0:0:0:
329,192,61439,1,0,0:0:0:0:
256,192,61537,1,0,0:0:0:0:
182,192,61537,1,0,0:0:0:0:
109,192,61635,1,0,0:0:0:0:
36,192,61635,1,0,0:0:0:0:
402,192,61635,1,0,0:0:0:0:
475,192,61635,1,0,0:0:0:0:
329,192,61733,1,0,0:0:0:0:
256,192,61733,1,0,0:0:0:0:
402,192,61831,1,0,0:0:0:0:
475,192,61831,1,0,0:0:0:0:
182,192,61831,1,0,0:0:0:0:
109,192,61831,1,0,0:0:0:0:
36,192,61831,1,0,0:0:0:0:
109,192,62027,128,0,62321:0:0:0:0:
402,192,62027,128,0,62321:0:0:0:0:
109,192,62419,128,0,62713:0:0:0:0:
402,192,62419,128,0,62713:0:0:0:0:
402,192,62811,128,0,63105:0:0:0:0:
109,192,62811,128,0,63105:0:0:0:0:
109,192,63204,128,0,63400:0:0:0:0:
402,192,63204,128,0,63400:0:0:0:0:
475,192,63400,1,0,0:0:0:0:
36,192,63400,1,0,0:0:0:0:
256,192,63400,1,0,0:0:0:0:
182,192,63498,1,0,0:0:0:0:
329,192,63498,1,0,0:0:0:0:
109,192,63596,1,0,0:0:0:0:
402,192,63596,1,0,0:0:0:0:
475,192,63596,1,0,0:0:0:0:
256,192,63694,1,0,0:0:0:0:
36,192,63694,1,0,0:0:0:0:
182,192,63792,1,0,0:0:0:0:
475,192,63792,1,0,0:0:0:0:
329,192,63792,1,0,0:0:0:0:
402,192,63792,1,0,0:0:0:0:
109,192,63890,1,0,0:0:0:0:
256,192,63890,1,0,0:0:0:0:
182,192,63988,1,0,0:0:0:0:
36,192,63988,1,0,0:0:0:0:
329,192,63988,1,0,0:0:0:0:
402,192,64086,1,0,0:0:0:0:
256,192,64086,1,0,0:0:0:0:
475,192,64184,1,0,0:0:0:0:
182,192,64184,1,0,0:0:0:0:
36,192,64184,1,0,0:0:0:0:
402,192,64233,1,0,0:0:0:0:
329,192,64282,1,0,0:0:0:0:
109,192,64282,1,0,0:0:0:0:
256,192,64331,1,0,0:0:0:0:
182,192,64380,1,0,0:0:0:0:
36,192,64380,1,0,0:0:0:0:
402,192,64380,1,0,0:0:0:0:
475,192,64478,1,0,0:0:0:0:
329,192,64478,1,0,0:0:0:0:
256,192,64576,1,0,0:0:0:0:
109,192,64576,1,0,0:0:0:0:
36,192,64576,1,0,0:0:0:0:
402,192,64576,1,0,0:0:0:0:
329,192,64674,1,0,0:0:0:0:
182,192,64674,1,0,0:0:0:0:
256,192,64772,1,0,0:0:0:0:
475,192,64772,1,0,0:0:0:0:
402,192,64772,1,0,0:0:0:0:
329,192,64870,1,0,0:0:0:0:
109,192,64870,1,0,0:0:0:0:
182,192,64968,1,0,0:0:0:0:
402,192,64968,1,0,0:0:0:0:
36,192,64968,1,0,0:0:0:0:
475,192,64968,1,0,0:0:0:0:
256,192,65066,1,0,0:0:0:0:
109,192,65066,1,0,0:0:0:0:
182,192,65164,1,0,0:0:0:0:
329,192,65164,1,0,0:0:0:0:
402,192,65164,1,0,0:0:0:0:
256,192,65262,1,0,0:0:0:0:
36,192,65262,1,0,0:0:0:0:
182,192,65360,1,0,0:0:0:0:
475,192,65360,1,0,0:0:0:0:
402,192,65360,1,0,0:0:0:0:
109,192,65360,1,0,0:0:0:0:
329,192,65458,1,0,0:0:0:0:
36,192,65458,1,0,0:0:0:0:
256,192,65556,1,0,0:0:0:0:
109,192,65556,1,0,0:0:0:0:
475,192,65556,1,0,0:0:0:0:
182,192,65655,1,0,0:0:0:0:
402,192,65655,1,0,0:0:0:0:
36,192,65753,1,0,0:0:0:0:
329,192,65753,1,0,0:0:0:0:
475,192,65753,1,0,0:0:0:0:
109,192,65802,1,0,0:0:0:0:
182,192,65851,1,0,0:0:0:0:
402,192,65851,1,0,0:0:0:0:
256,192,65900,1,0,0:0:0:0:
329,192,65949,1,0,0:0:0:0:
475,192,65949,1,0,0:0:0:0:
36,192,65949,1,0,0:0:0:0:
109,192,66047,1,0,0:0:0:0:
256,192,66047,1,0,0:0:0:0:
475,192,66145,1,0,0:0:0:0:
36,192,66145,1,0,0:0:0:0:
182,192,66145,1,0,0:0:0:0:
402,192,66194,1,0,0:0:0:0:
329,192,66243,1,0,0:0:0:0:
109,192,66243,1,0,0:0:0:0:
256,192,66292,1,0,0:0:0:0:
182,192,66341,1,0,0:0:0:0:
475,192,66341,1,0,0:0:0:0:
402,192,66341,1,0,0:0:0:0:
109,192,66390,1,0,0:0:0:0:
36,192,66439,1,0,0:0:0:0:
256,192,66439,1,0,0:0:0:0:
329,192,66488,1,0,0:0:0:0:
402,192,66537,1,0,0:0:0:0:
475,192,66537,1,0,0:0:0:0:
182,192,66537,1,0,0:0:0:0:
109,192,66537,1,0,0:0:0:0:
256,192,66635,1,0,0:0:0:0:
36,192,66635,1,0,0:0:0:0:
329,192,66733,1,0,0:0:0:0:
182,192,66733,1,0,0:0:0:0:
402,192,66733,1,0,0:0:0:0:
109,192,66831,1,0,0:0:0:0:
256,192,66831,1,0,0:0:0:0:
475,192,66929,1,0,0:0:0:0:
36,192,66929,1,0,0:0:0:0:
182,192,66929,1,0,0:0:0:0:
402,192,66929,1,0,0:0:0:0:
329,192,67027,1,0,0:0:0:0:
256,192,67027,1,0,0:0:0:0:
182,192,67125,1,0,0:0:0:0:
109,192,67125,1,0,0:0:0:0:
402,192,67125,1,0,0:0:0:0:
475,192,67223,1,0,0:0:0:0:
256,192,67223,1,0,0:0:0:0:
329,192,67321,1,0,0:0:0:0:
36,192,67321,1,0,0:0:0:0:
402,192,67321,1,0,0:0:0:0:
109,192,67370,1,0,0:0:0:0:
475,192,67419,1,0,0:0:0:0:
182,192,67419,1,0,0:0:0:0:
256,192,67468,1,0,0:0:0:0:
329,192,67517,1,0,0:0:0:0:
36,192,67517,1,0,0:0:0:0:
402,192,67566,1,0,0:0:0:0:
109,192,67615,1,0,0:0:0:0:
475,192,67615,1,0,0:0:0:0:
182,192,67664,1,0,0:0:0:0:
256,192,67713,1,0,0:0:0:0:
329,192,67713,1,0,0:0:0:0:
36,192,67713,1,0,0:0:0:0:
402,192,67713,1,0,0:0:0:0:
109,192,67811,1,0,0:0:0:0:
475,192,67811,1,0,0:0:0:0:
402,192,67909,1,0,0:0:0:0:
182,192,67909,1,0,0:0:0:0:
329,192,67909,1,0,0:0:0:0:
256,192,68007,1,0,0:0:0:0:
36,192,68007,1,0,0:0:0:0:
182,192,68105,1,0,0:0:0:0:
475,192,68105,1,0,0:0:0:0:
402,192,68105,1,0,0:0:0:0:
109,192,68105,1,0,0:0:0:0:
329,192,68204,1,0,0:0:0:0:
256,192,68204,1,0,0:0:0:0:
182,192,68302,1,0,0:0:0:0:
36,192,68302,1,0,0:0:0:0:
402,192,68302,1,0,0:0:0:0:
109,192,68400,1,0,0:0:0:0:
475,192,68400,1,0,0:0:0:0:
402,192,68498,1,0,0:0:0:0:
36,192,68498,1,0,0:0:0:0:
329,192,68498,1,0,0:0:0:0:
182,192,68498,1,0,0:0:0:0:
256,192,68596,1,0,0:0:0:0:
475,192,68596,1,0,0:0:0:0:
329,192,68694,1,0,0:0:0:0:
109,192,68694,1,0,0:0:0:0:
36,192,68694,1,0,0:0:0:0:
402,192,68792,1,0,0:0:0:0:
256,192,68792,1,0,0:0:0:0:
475,192,68890,1,0,0:0:0:0:
182,192,68890,1,0,0:0:0:0:
36,192,68890,1,0,0:0:0:0:
402,192,68939,1,0,0:0:0:0:
329,192,68988,1,0,0:0:0:0:
256,192,69037,1,0,0:0:0:0:
182,192,69086,1,0,0:0:0:0:
36,192,69086,1,0,0:0:0:0:
475,192,69086,1,0,0:0:0:0:
109,192,69184,1,0,0:0:0:0:
402,192,69184,1,0,0:0:0:0:
36,192,69282,1,0,0:0:0:0:
475,192,69282,1,0,0:0:0:0:
329,192,69282,1,0,0:0:0:0:
109,192,69331,1,0,0:0:0:0:
182,192,69380,1,0,0:0:0:0:
402,192,69380,1,0,0:0:0:0:
256,192,69429,1,0,0:0:0:0:
329,192,69478,1,0,0:0:0:0:
475,192,69478,1,0,0:0:0:0:
36,192,69478,1,0,0:0:0:0:
402,192,69576,1,0,0:0:0:0:
109,192,69576,1,0,0:0:0:0:
182,192,69576,1,0,0:0:0:0:
475,192,69674,1,0,0:0:0:0:
36,192,69674,1,0,0:0:0:0:
329,192,69674,1,0,0:0:0:0:
256,192,69674,1,0,0:0:0:0:
402,192,69772,1,0,0:0:0:0:
109,192,69772,1,0,0:0:0:0:
329,192,69870,1,0,0:0:0:0:
182,192,69870,1,0,0:0:0:0:
475,192,69870,1,0,0:0:0:0:
256,192,69968,1,0,0:0:0:0:
36,192,69968,1,0,0:0:0:0:
109,192,70066,1,0,0:0:0:0:
329,192,70066,1,0,0:0:0:0:
475,192,70066,1,0,0:0:0:0:
182,192,70066,1,0,0:0:0:0:
402,192,70164,1,0,0:0:0:0:
256,192,70164,1,0,0:0:0:0:
329,192,70262,1,0,0:0:0:0:
36,192,70262,1,0,0:0:0:0:
109,192,70262,1,0,0:0:0:0:
182,192,70360,1,0,0:0:0:0:
402,192,70360,1,0,0:0:0:0:
475,192,70458,1,0,0:0:0:0:
256,192,70458,1,0,0:0:0:0:
36,192,70458,1,0,0:0:0:0:
109,192,70507,1,0,0:0:0:0:
182,192,70556,1,0,0:0:0:0:
402,192,70556,1,0,0:0:0:0:
256,192,70605,1,0,0:0:0:0:
329,192,70655,1,0,0:0:0:0:
475,192,70655,1,0,0:0:0:0:
36,192,70655,1,0,0:0:0:0:
109,192,70753,1,0,0:0:0:0:
256,192,70753,1,0,0:0:0:0:
182,192,70851,1,0,0:0:0:0:
402,192,70851,1,0,0:0:0:0:
475,192,70851,1,0,0:0:0:0:
36,192,70851,1,0,0:0:0:0:
109,192,70949,1,0,0:0:0:0:
329,192,70949,1,0,0:0:0:0:
256,192,71047,1,0,0:0:0:0:
36,192,71047,1,0,0:0:0:0:
402,192,71047,1,0,0:0:0:0:
475,192,71145,1,0,0:0:0:0:
182,192,71145,1,0,0:0:0:0:
109,192,71243,1,0,0:0:0:0:
36,192,71243,1,0,0:0:0:0:
329,192,71243,1,0,0:0:0:0:
402,192,71243,1,0,0:0:0:0:
256,192,71341,1,0,0:0:0:0:
182,192,71341,1,0,0:0:0:0:
109,192,71439,1,0,0:0:0:0:
402,192,71439,1,0,0:0:0:0:
475,192,71439,1,0,0:0:0:0:
36,192,71537,1,0,0:0:0:0:
329,192,71537,1,0,0:0:0:0:
256,192,71635,1,0,0:0:0:0:
182,192,71635,1,0,0:0:0:0:
475,192,71635,1,0,0:0:0:0:
109,192,71635,1,0,0:0:0:0:
402,192,71733,1,0,0:0:0:0:
329,192,71733,1,0,0:0:0:0:
256,192,71831,1,0,0:0:0:0:
36,192,71831,1,0,0:0:0:0:
109,192,71831,1,0,0:0:0:0:
182,192,71929,1,0,0:0:0:0:
329,192,71929,1,0,0:0:0:0:
256,192,72027,1,0,0:0:0:0:
475,192,72027,1,0,0:0:0:0:
36,192,72027,1,0,0:0:0:0:
109,192,72076,1,0,0:0:0:0:
182,192,72125,1,0,0:0:0:0:
402,192,72125,1,0,0:0:0:0:
256,192,72174,1,0,0:0:0:0:
329,192,72223,1,0,0:0:0:0:
475,192,72223,1,0,0:0:0:0:
36,192,72223,1,0,0:0:0:0:
182,192,72321,1,0,0:0:0:0:
109,192,72321,1,0,0:0:0:0:
36,192,72419,1,0,0:0:0:0:
256,192,72419,1,0,0:0:0:0:
475,192,72419,1,0,0:0:0:0:
402,192,72468,1,0,0:0:0:0:
329,192,72517,1,0,0:0:0:0:
109,192,72517,1,0,0:0:0:0:
256,192,72566,1,0,0:0:0:0:
182,192,72615,1,0,0:0:0:0:
402,192,72615,1,0,0:0:0:0:
475,192,72615,1,0,0:0:0:0:
109,192,72664,1,0,0:0:0:0:
36,192,72713,1,0,0:0:0:0:
329,192,72713,1,0,0:0:0:0:
256,192,72762,1,0,0:0:0:0:
182,192,72811,1,0,0:0:0:0:
475,192,72811,1,0,0:0:0:0:
402,192,72811,1,0,0:0:0:0:
109,192,72811,1,0,0:0:0:0:
36,192,72909,1,0,0:0:0:0:
329,192,72909,1,0,0:0:0:0:
256,192,73007,1,0,0:0:0:0:
182,192,73007,1,0,0:0:0:0:
402,192,73007,1,0,0:0:0:0:
475,192,73105,1,0,0:0:0:0:
109,192,73105,1,0,0:0:0:0:
36,192,73204,1,0,0:0:0:0:
329,192,73204,1,0,0:0:0:0:
256,192,73204,1,0,0:0:0:0:
182,192,73302,1,0,0:0:0:0:
402,192,73302,1,0,0:0:0:0:
109,192,73400,1,0,0:0:0:0:
475,192,73400,1,0,0:0:0:0:
256,192,73400,1,0,0:0:0:0:
329,192,73498,1,0,0:0:0:0:
36,192,73498,1,0,0:0:0:0:
402,192,73596,1,0,0:0:0:0:
475,192,73596,1,0,0:0:0:0:
182,192,73596,1,0,0:0:0:0:
109,192,73596,1,0,0:0:0:0:
256,192,73694,1,0,0:0:0:0:
329,192,73694,1,0,0:0:0:0:
109,192,73792,1,0,0:0:0:0:
36,192,73792,1,0,0:0:0:0:
402,192,73792,1,0,0:0:0:0:
475,192,73792,1,0,0:0:0:0:
182,192,73890,1,0,0:0:0:0:
256,192,73890,1,0,0:0:0:0:
329,192,73988,1,0,0:0:0:0:
402,192,73988,1,0,0:0:0:0:
36,192,73988,1,0,0:0:0:0:
475,192,73988,1,0,0:0:0:0:
182,192,74086,1,0,0:0:0:0:
109,192,74086,1,0,0:0:0:0:
256,192,74184,1,0,0:0:0:0:
329,192,74184,1,0,0:0:0:0:
402,192,74184,1,0,0:0:0:0:
475,192,74184,1,0,0:0:0:0:
109,192,74282,1,0,0:0:0:0:
36,192,74282,1,0,0:0:0:0:
182,192,74380,1,0,0:0:0:0:
256,192,74380,1,0,0:0:0:0:
329,192,74380,1,0,0:0:0:0:
402,192,74380,1,0,0:0:0:0:
475,192,74380,1,0,0:0:0:0:
475,192,74576,1,0,0:0:0:0:
36,192,74576,1,0,0:0:0:0:
182,192,74576,1,0,0:0:0:0:
329,192,74576,1,0,0:0:0:0:
109,192,74674,1,0,0:0:0:0:
402,192,74674,1,0,0:0:0:0:
256,192,74674,1,0,0:0:0:0:
475,192,74772,1,0,0:0:0:0:
36,192,74772,1,0,0:0:0:0:
329,192,74772,1,0,0:0:0:0:
182,192,74772,1,0,0:0:0:0:
256,192,74968,1,0,0:0:0:0:
109,192,74968,1,0,0:0:0:0:
36,192,74968,1,0,0:0:0:0:
402,192,74968,1,0,0:0:0:0:
329,192,75164,1,0,0:0:0:0:
475,192,75164,1,0,0:0:0:0:
182,192,75262,1,0,0:0:0:0:
36,192,75262,1,0,0:0:0:0:
329,192,75360,1,0,0:0:0:0:
475,192,75360,1,0,0:0:0:0:
182,192,75458,1,0,0:0:0:0:
36,192,75458,1,0,0:0:0:0:
475,192,75556,1,0,0:0:0:0:
402,192,75556,1,0,0:0:0:0:
329,192,75556,1,0,0:0:0:0:
109,192,75655,1,0,0:0:0:0:
36,192,75655,1,0,0:0:0:0:
256,192,75655,1,0,0:0:0:0:
402,192,75753,1,0,0:0:0:0:
475,192,75753,1,0,0:0:0:0:
182,192,75753,1,0,0:0:0:0:
329,192,75851,1,0,0:0:0:0:
256,192,75851,1,0,0:0:0:0:
109,192,75851,1,0,0:0:0:0:
402,192,75949,1,0,0:0:0:0:
475,192,75949,1,0,0:0:0:0:
182,192,75949,1,0,0:0:0:0:
36,192,75949,1,0,0:0:0:0:
329,192,76047,1,0,0:0:0:0:
109,192,76047,1,0,0:0:0:0:
256,192,76145,1,0,0:0:0:0:
182,192,76145,1,0,0:0:0:0:
402,192,76145,1,0,0:0:0:0:
475,192,76243,1,0,0:0:0:0:
329,192,76243,1,0,0:0:0:0:
109,192,76243,1,0,0:0:0:0:
36,192,76341,1,0,0:0:0:0:
182,192,76341,1,0,0:0:0:0:
402,192,76341,1,0,0:0:0:0:
256,192,76439,1,0,0:0:0:0:
475,192,76439,1,0,0:0:0:0:
329,192,76537,1,0,0:0:0:0:
109,192,76537,1,0,0:0:0:0:
182,192,76635,1,0,0:0:0:0:
402,192,76635,1,0,0:0:0:0:
256,192,76733,1,0,0:0:0:0:
475,192,76733,1,0,0:0:0:0:
36,192,76733,1,0,0:0:0:0:
109,192,76782,1,0,0:0:0:0:
182,192,76831,1,0,0:0:0:0:
329,192,76831,1,0,0:0:0:0:
402,192,76880,1,0,0:0:0:0:
475,192,76929,1,0,0:0:0:0:
256,192,76929,1,0,0:0:0:0:
109,192,76929,1,0,0:0:0:0:
36,192,77027,1,0,0:0:0:0:
329,192,77027,1,0,0:0:0:0:
402,192,77125,1,0,0:0:0:0:
475,192,77125,1,0,0:0:0:0:
182,192,77125,1,0,0:0:0:0:
109,192,77223,1,0,0:0:0:0:
36,192,77223,1,0,0:0:0:0:
329,192,77223,1,0,0:0:0:0:
256,192,77321,1,0,0:0:0:0:
475,192,77321,1,0,0:0:0:0:
182,192,77419,1,0,0:0:0:0:
402,192,77419,1,0,0:0:0:0:
329,192,77517,1,0,0:0:0:0:
109,192,77517,1,0,0:0:0:0:
475,192,77517,1,0,0:0:0:0:
256,192,77615,1,0,0:0:0:0:
36,192,77615,1,0,0:0:0:0:
182,192,77713,1,0,0:0:0:0:
402,192,77713,1,0,0:0:0:0:
475,192,77713,1,0,0:0:0:0:
329,192,77811,1,0,0:0:0:0:
109,192,77811,1,0,0:0:0:0:
36,192,77811,1,0,0:0:0:0:
256,192,77909,1,0,0:0:0:0:
402,192,77909,1,0,0:0:0:0:
475,192,77909,1,0,0:0:0:0:
182,192,78007,1,0,0:0:0:0:
109,192,78007,1,0,0:0:0:0:
36,192,78105,1,0,0:0:0:0:
256,192,78105,1,0,0:0:0:0:
329,192,78204,1,0,0:0:0:0:
475,192,78204,1,0,0:0:0:0:
402,192,78302,1,0,0:0:0:0:
109,192,78302,1,0,0:0:0:0:
36,192,78302,1,0,0:0:0:0:
182,192,78351,1,0,0:0:0:0:
256,192,78400,1,0,0:0:0:0:
475,192,78400,1,0,0:0:0:0:
329,192,78449,1,0,0:0:0:0:
402,192,78498,1,0,0:0:0:0:
182,192,78498,1,0,0:0:0:0:
109,192,78547,1,0,0:0:0:0:
36,192,78596,1,0,0:0:0:0:
256,192,78596,1,0,0:0:0:0:
329,192,78645,1,0,0:0:0:0:
402,192,78694,1,0,0:0:0:0:
475,192,78694,1,0,0:0:0:0:
109,192,78694,1,0,0:0:0:0:
182,192,78743,1,0,0:0:0:0:
256,192,78792,1,0,0:0:0:0:
36,192,78792,1,0,0:0:0:0:
329,192,78841,1,0,0:0:0:0:
402,192,78890,1,0,0:0:0:0:
475,192,78890,1,0,0:0:0:0:
182,192,78939,1,0,0:0:0:0:
109,192,78988,1,0,0:0:0:0:
329,192,78988,1,0,0:0:0:0:
36,192,79037,1,0,0:0:0:0:
256,192,79086,1,0,0:0:0:0:
475,192,79086,1,0,0:0:0:0:
402,192,79086,1,0,0:0:0:0:
182,192,79184,1,0,0:0:0:0:
329,192,79184,1,0,0:0:0:0:
109,192,79282,1,0,0:0:0:0:
256,192,79282,1,0,0:0:0:0:
475,192,79282,1,0,0:0:0:0:
36,192,79380,1,0,0:0:0:0:
329,192,79380,1,0,0:0:0:0:
182,192,79380,1,0,0:0:0:0:
402,192,79478,1,0,0:0:0:0:
475,192,79478,1,0,0:0:0:0:
256,192,79478,1,0,0:0:0:0:
182,192,79576,1,0,0:0:0:0:
36,192,79576,1,0,0:0:0:0:
109,192,79674,1,0,0:0:0:0:
329,192,79674,1,0,0:0:0:0:
256,192,79772,1,0,0:0:0:0:
475,192,79772,1,0,0:0:0:0:
36,192,79870,1,0,0:0:0:0:
182,192,79870,1,0,0:0:0:0:
402,192,79870,1,0,0:0:0:0:
329,192,79919,1,0,0:0:0:0:
256,192,79968,1,0,0:0:0:0:
109,192,79968,1,0,0:0:0:0:
402,192,80017,1,0,0:0:0:0:
475,192,80066,1,0,0:0:0:0:
182,192,80066,1,0,0:0:0:0:
256,192,80115,1,0,0:0:0:0:
329,192,80164,1,0,0:0:0:0:
109,192,80164,1,0,0:0:0:0:
36,192,80213,1,0,0:0:0:0:
256,192,80262,1,0,0:0:0:0:
475,192,80262,1,0,0:0:0:0:
402,192,80262,1,0,0:0:0:0:
182,192,80311,1,0,0:0:0:0:
109,192,80360,1,0,0:0:0:0:
329,192,80360,1,0,0:0:0:0:
36,192,80409,1,0,0:0:0:0:
475,192,80458,1,0,0:0:0:0:
256,192,80458,1,0,0:0:0:0:
329,192,80507,1,0,0:0:0:0:
402,192,80556,1,0,0:0:0:0:
182,192,80556,1,0,0:0:0:0:
109,192,80605,1,0,0:0:0:0:
36,192,80655,1,0,0:0:0:0:
256,192,80655,1,0,0:0:0:0:
475,192,80655,1,0,0:0:0:0:
182,192,80753,1,0,0:0:0:0:
402,192,80753,1,0,0:0:0:0:
329,192,80851,1,0,0:0:0:0:
109,192,80851,1,0,0:0:0:0:
36,192,80949,1,0,0:0:0:0:
256,192,80949,1,0,0:0:0:0:
402,192,80949,1,0,0:0:0:0:
182,192,81047,1,0,0:0:0:0:
475,192,81047,1,0,0:0:0:0:
109,192,81047,1,0,0:0:0:0:
329,192,81145,1,0,0:0:0:0:
36,192,81145,1,0,0:0:0:0:
256,192,81243,1,0,0:0:0:0:
402,192,81243,1,0,0:0:0:0:
182,192,81341,1,0,0:0:0:0:
109,192,81341,1,0,0:0:0:0:
475,192,81439,1,0,0:0:0:0:
329,192,81439,1,0,0:0:0:0:
36,192,81439,1,0,0:0:0:0:
256,192,81488,1,0,0:0:0:0:
182,192,81537,1,0,0:0:0:0:
402,192,81537,1,0,0:0:0:0:
109,192,81586,1,0,0:0:0:0:
36,192,81635,1,0,0:0:0:0:
329,192,81635,1,0,0:0:0:0:
256,192,81733,1,0,0:0:0:0:
475,192,81733,1,0,0:0:0:0:
182,192,81831,1,0,0:0:0:0:
109,192,81831,1,0,0:0:0:0:
329,192,81831,1,0,0:0:0:0:
402,192,81929,1,0,0:0:0:0:
256,192,81929,1,0,0:0:0:0:
329,192,82027,1,0,0:0:0:0:
475,192,82027,1,0,0:0:0:0:
36,192,82027,1,0,0:0:0:0:
109,192,82125,1,0,0:0:0:0:
256,192,82125,1,0,0:0:0:0:
182,192,82223,1,0,0:0:0:0:
402,192,82223,1,0,0:0:0:0:
475,192,82223,1,0,0:0:0:0:
36,192,82223,1,0,0:0:0:0:
329,192,82321,1,0,0:0:0:0:
256,192,82321,1,0,0:0:0:0:
182,192,82419,1,0,0:0:0:0:
109,192,82419,1,0,0:0:0:0:
36,192,82419,1,0,0:0:0:0:
329,192,82517,1,0,0:0:0:0:
402,192,82517,1,0,0:0:0:0:
475,192,82517,1,0,0:0:0:0:
256,192,82615,1,0,0:0:0:0:
36,192,82615,1,0,0:0:0:0:
109,192,82615,1,0,0:0:0:0:
182,192,82713,1,0,0:0:0:0:
329,192,82713,1,0,0:0:0:0:
256,192,82811,1,0,0:0:0:0:
402,192,82811,1,0,0:0:0:0:
329,192,82909,1,0,0:0:0:0:
475,192,82909,1,0,0:0:0:0:
182,192,83007,1,0,0:0:0:0:
36,192,83007,1,0,0:0:0:0:
402,192,83007,1,0,0:0:0:0:
256,192,83056,1,0,0:0:0:0:
329,192,83105,1,0,0:0:0:0:
109,192,83105,1,0,0:0:0:0:
402,192,83155,1,0,0:0:0:0:
475,192,83204,1,0,0:0:0:0:
182,192,83204,1,0,0:0:0:0:
256,192,83302,1,0,0:0:0:0:
109,192,83302,1,0,0:0:0:0:
36,192,83400,1,0,0:0:0:0:
329,192,83400,1,0,0:0:0:0:
475,192,83400,1,0,0:0:0:0:
402,192,83400,1,0,0:0:0:0:
256,192,83498,1,0,0:0:0:0:
182,192,83498,1,0,0:0:0:0:
109,192,83596,1,0,0:0:0:0:
402,192,83596,1,0,0:0:0:0:
475,192,83596,1,0,0:0:0:0:
36,192,83596,1,0,0:0:0:0:
329,192,83694,1,0,0:0:0:0:
256,192,83694,1,0,0:0:0:0:
182,192,83792,1,0,0:0:0:0:
109,192,83792,1,0,0:0:0:0:
36,192,83792,1,0,0:0:0:0:
475,192,83792,1,0,0:0:0:0:
402,192,83890,1,0,0:0:0:0:
329,192,83890,1,0,0:0:0:0:
256,192,83988,1,0,0:0:0:0:
109,192,83988,1,0,0:0:0:0:
182,192,83988,1,0,0:0:0:0:
329,192,84086,1,0,0:0:0:0:
402,192,84086,1,0,0:0:0:0:
475,192,84086,1,0,0:0:0:0:
182,192,84184,1,0,0:0:0:0:
109,192,84184,1,0,0:0:0:0:
36,192,84184,1,0,0:0:0:0:
256,192,84282,1,0,0:0:0:0:
329,192,84282,1,0,0:0:0:0:
402,192,84380,1,0,0:0:0:0:
475,192,84380,1,0,0:0:0:0:
182,192,84380,1,0,0:0:0:0:
109,192,84478,1,0,0:0:0:0:
256,192,84478,1,0,0:0:0:0:
36,192,84576,1,0,0:0:0:0:
329,192,84576,1,0,0:0:0:0:
475,192,84576,1,0,0:0:0:0:
256,192,84625,1,0,0:0:0:0:
182,192,84674,1,0,0:0:0:0:
402,192,84674,1,0,0:0:0:0:
475,192,84723,1,0,0:0:0:0:
36,192,84772,1,0,0:0:0:0:
256,192,84772,1,0,0:0:0:0:
109,192,84772,1,0,0:0:0:0:
329,192,84821,1,0,0:0:0:0:
402,192,84870,1,0,0:0:0:0:
182,192,84870,1,0,0:0:0:0:
109,192,84919,1,0,0:0:0:0:
36,192,84968,1,0,0:0:0:0:
256,192,84968,1,0,0:0:0:0:
475,192,84968,1,0,0:0:0:0:
402,192,85017,1,0,0:0:0:0:
329,192,85066,1,0,0:0:0:0:
109,192,85066,1,0,0:0:0:0:
182,192,85115,1,0,0:0:0:0:
36,192,85164,1,0,0:0:0:0:
475,192,85164,1,0,0:0:0:0:
256,192,85164,1,0,0:0:0:0:
329,192,85213,1,0,0:0:0:0:
182,192,85262,1,0,0:0:0:0:
402,192,85262,1,0,0:0:0:0:
109,192,85311,1,0,0:0:0:0:
36,192,85360,1,0,0:0:0:0:
256,192,85360,1,0,0:0:0:0:
475,192,85360,1,0,0:0:0:0:
182,192,85458,1,0,0:0:0:0:
402,192,85458,1,0,0:0:0:0:
109,192,85556,1,0,0:0:0:0:
329,192,85556,1,0,0:0:0:0:
36,192,85556,1,0,0:0:0:0:
256,192,85655,1,0,0:0:0:0:
402,192,85655,1,0,0:0:0:0:
475,192,85655,1,0,0:0:0:0:
182,192,85753,1,0,0:0:0:0:
109,192,85753,1,0,0:0:0:0:
36,192,85753,1,0,0:0:0:0:
329,192,85851,1,0,0:0:0:0:
475,192,85851,1,0,0:0:0:0:
109,192,85949,1,0,0:0:0:0:
36,192,85949,1,0,0:0:0:0:
256,192,85949,1,0,0:0:0:0:
182,192,86047,1,0,0:0:0:0:
402,192,86047,1,0,0:0:0:0:
475,192,86047,1,0,0:0:0:0:
256,192,86145,1,0,0:0:0:0:
329,192,86145,1,0,0:0:0:0:
109,192,86145,1,0,0:0:0:0:
36,192,86243,1,0,0:0:0:0:
182,192,86243,1,0,0:0:0:0:
475,192,86341,1,0,0:0:0:0:
402,192,86341,1,0,0:0:0:0:
256,192,86341,1,0,0:0:0:0:
329,192,86439,1,0,0:0:0:0:
36,192,86439,1,0,0:0:0:0:
109,192,86439,1,0,0:0:0:0:
182,192,86537,1,0,0:0:0:0:
402,192,86537,1,0,0:0:0:0:
475,192,86537,1,0,0:0:0:0:
256,192,86635,1,0,0:0:0:0:
329,192,86635,1,0,0:0:0:0:
182,192,86733,1,0,0:0:0:0:
109,192,86733,1,0,0:0:0:0:
36,192,86733,1,0,0:0:0:0:
329,192,86831,1,0,0:0:0:0:
402,192,86831,1,0,0:0:0:0:
475,192,86831,1,0,0:0:0:0:
256,192,86929,1,0,0:0:0:0:
182,192,86929,1,0,0:0:0:0:
109,192,86929,1,0,0:0:0:0:
36,192,86929,1,0,0:0:0:0:
36,192,87125,1,0,0:0:0:0:
109,192,87125,1,0,0:0:0:0:
402,192,87125,1,0,0:0:0:0:
475,192,87125,1,0,0:0:0:0:
256,192,87223,1,0,0:0:0:0:
182,192,87223,1,0,0:0:0:0:
329,192,87223,1,0,0:0:0:0:
109,192,87321,1,0,0:0:0:0:
36,192,87321,1,0,0:0:0:0:
402,192,87321,1,0,0:0:0:0:
475,192,87321,1,0,0:0:0:0:
182,192,87517,1,0,0:0:0:0:
36,192,87517,1,0,0:0:0:0:
329,192,87517,1,0,0:0:0:0:
475,192,87517,1,0,0:0:0:0:
109,192,87615,1,0,0:0:0:0:
256,192,87615,1,0,0:0:0:0:
402,192,87615,1,0,0:0:0:0:
475,192,87713,1,0,0:0:0:0:
329,192,87713,1,0,0:0:0:0:
182,192,87713,1,0,0:0:0:0:
36,192,87713,1,0,0:0:0:0:
109,192,87909,1,0,0:0:0:0:
36,192,87909,1,0,0:0:0:0:
182,192,87909,1,0,0:0:0:0:
329,192,87909,1,0,0:0:0:0:
402,192,87909,1,0,0:0:0:0:
475,192,87909,1,0,0:0:0:0:
256,192,88105,1,0,0:0:0:0:
36,192,88105,1,0,0:0:0:0:
475,192,88105,1,0,0:0:0:0:
402,192,88105,1,0,0:0:0:0:
109,192,88105,1,0,0:0:0:0:
182,192,88204,1,0,0:0:0:0:
329,192,88204,1,0,0:0:0:0:
402,192,88302,1,0,0:0:0:0:
475,192,88302,1,0,0:0:0:0:
256,192,88302,1,0,0:0:0:0:
109,192,88302,1,0,0:0:0:0:
36,192,88302,1,0,0:0:0:0:
182,192,88400,1,0,0:0:0:0:
329,192,88400,1,0,0:0:0:0:
36,192,88498,1,0,0:0:0:0:
109,192,88498,1,0,0:0:0:0:
402,192,88498,1,0,0:0:0:0:
475,192,88498,1,0,0:0:0:0:
256,192,88498,1,0,0:0:0:0:
182,192,88694,1,0,0:0:0:0:
402,192,88694,1,0,0:0:0:0:
109,192,88792,1,0,0:0:0:0:
329,192,88792,1,0,0:0:0:0:
36,192,88890,1,0,0:0:0:0:
256,192,88890,1,0,0:0:0:0:
475,192,88890,1,0,0:0:0:0:
109,192,89086,1,0,0:0:0:0:
329,192,89086,1,0,0:0:0:0:
182,192,89184,1,0,0:0:0:0:
402,192,89184,1,0,0:0:0:0:
256,192,89282,1,0,0:0:0:0:
475,192,89282,1,0,0:0:0:0:
36,192,89282,1,0,0:0:0:0:
182,192,89478,1,0,0:0:0:0:
329,192,89478,1,0,0:0:0:0:
109,192,89576,1,0,0:0:0:0:
256,192,89576,1,0,0:0:0:0:
36,192,89674,1,0,0:0:0:0:
182,192,89674,1,0,0:0:0:0:
402,192,89674,1,0,0:0:0:0:
329,192,89772,1,0,0:0:0:0:
475,192,89772,1,0,0:0:0:0:
256,192,89870,1,0,0:0:0:0:
109,192,89870,1,0,0:0:0:0:
182,192,89968,1,0,0:0:0:0:
329,192,89968,1,0,0:0:0:0:
256,192,90066,1,0,0:0:0:0:
402,192,90066,1,0,0:0:0:0:
36,192,90066,1,0,0:0:0:0:
329,192,90164,1,0,0:0:0:0:
475,192,90164,1,0,0:0:0:0:
256,192,90262,1,0,0:0:0:0:
109,192,90262,1,0,0:0:0:0:
182,192,90360,1,0,0:0:0:0:
402,192,90360,1,0,0:0:0:0:
329,192,90458,1,0,0:0:0:0:
475,192,90458,1,0,0:0:0:0:
109,192,90458,1,0,0:0:0:0:
36,192,90458,1,0,0:0:0:0:
256,192,90655,1,0,0:0:0:0:
402,192,90655,1,0,0:0:0:0:
329,192,90753,1,0,0:0:0:0:
182,192,90753,1,0,0:0:0:0:
256,192,90851,1,0,0:0:0:0:
109,192,90851,1,0,0:0:0:0:
475,192,90851,1,0,0:0:0:0:
402,192,90949,1,0,0:0:0:0:
36,192,90949,1,0,0:0:0:0:
329,192,91047,1,0,0:0:0:0:
182,192,91047,1,0,0:0:0:0:
109,192,91145,1,0,0:0:0:0:
402,192,91145,1,0,0:0:0:0:
475,192,91243,1,0,0:0:0:0:
36,192,91243,1,0,0:0:0:0:
256,192,91243,1,0,0:0:0:0:
182,192,91341,1,0,0:0:0:0:
329,192,91341,1,0,0:0:0:0:
109,192,91439,1,0,0:0:0:0:
256,192,91439,1,0,0:0:0:0:
182,192,91537,1,0,0:0:0:0:
36,192,91537,1,0,0:0:0:0:
475,192,91635,1,0,0:0:0:0:
402,192,91635,1,0,0:0:0:0:
109,192,91635,1,0,0:0:0:0:
329,192,91733,1,0,0:0:0:0:
256,192,91733,1,0,0:0:0:0:
182,192,91831,1,0,0:0:0:0:
36,192,91831,1,0,0:0:0:0:
329,192,91929,1,0,0:0:0:0:
402,192,91929,1,0,0:0:0:0:
475,192,92027,1,0,0:0:0:0:
256,192,92027,1,0,0:0:0:0:
109,192,92027,1,0,0:0:0:0:
402,192,92125,1,0,0:0:0:0:
36,192,92125,1,0,0:0:0:0:
182,192,92223,1,0,0:0:0:0:
329,192,92223,1,0,0:0:0:0:
475,192,92321,1,0,0:0:0:0:
109,192,92321,1,0,0:0:0:0:
256,192,92419,1,0,0:0:0:0:
402,192,92419,1,0,0:0:0:0:
36,192,92419,1,0,0:0:0:0:
182,192,92517,1,0,0:0:0:0:
329,192,92517,1,0,0:0:0:0:
256,192,92615,1,0,0:0:0:0:
109,192,92615,1,0,0:0:0:0:
475,192,92713,1,0,0:0:0:0:
402,192,92713,1,0,0:0:0:0:
182,192,92811,1,0,0:0:0:0:
36,192,92811,1,0,0:0:0:0:
329,192,92811,1,0,0:0:0:0:
256,192,92909,1,0,0:0:0:0:
402,192,92909,1,0,0:0:0:0:
475,192,93007,1,0,0:0:0:0:
329,192,93007,1,0,0:0:0:0:
182,192,93105,1,0,0:0:0:0:
109,192,93105,1,0,0:0:0:0:
36,192,93204,1,0,0:0:0:0:
256,192,93204,1,0,0:0:0:0:
402,192,93204,1,0,0:0:0:0:
329,192,93302,1,0,0:0:0:0:
475,192,93302,1,0,0:0:0:0:
256,192,93400,1,0,0:0:0:0:
109,192,93400,1,0,0:0:0:0:
182,192,93498,1,0,0:0:0:0:
402,192,93498,1,0,0:0:0:0:
329,192,93596,1,0,0:0:0:0:
475,192,93596,1,0,0:0:0:0:
109,192,93596,1,0,0:0:0:0:
36,192,93694,1,0,0:0:0:0:
256,192,93694,1,0,0:0:0:0:
182,192,93792,1,0,0:0:0:0:
402,192,93792,1,0,0:0:0:0:
109,192,93890,1,0,0:0:0:0:
475,192,93890,1,0,0:0:0:0:
36,192,93988,1,0,0:0:0:0:
329,192,93988,1,0,0:0:0:0:
182,192,93988,1,0,0:0:0:0:
109,192,94282,1,0,0:0:0:0:
256,192,94282,1,0,0:0:0:0:
402,192,94282,1,0,0:0:0:0:
182,192,94576,1,0,0:0:0:0:
329,192,94576,1,0,0:0:0:0:
475,192,94576,1,0,0:0:0:0:
256,192,94772,1,0,0:0:0:0:
109,192,94772,1,0,0:0:0:0:
36,192,94772,1,0,0:0:0:0:
402,192,94870,1,0,0:0:0:0:
475,192,94870,1,0,0:0:0:0:
182,192,94870,1,0,0:0:0:0:
109,192,94968,1,0,0:0:0:0:
36,192,94968,1,0,0:0:0:0:
329,192,94968,1,0,0:0:0:0:
256,192,95066,1,0,0:0:0:0:
402,192,95066,1,0,0:0:0:0:
475,192,95066,1,0,0:0:0:0:
182,192,95164,1,0,0:0:0:0:
109,192,95164,1,0,0:0:0:0:
36,192,95164,1,0,0:0:0:0:
329,192,95262,1,0,0:0:0:0:
475,192,95262,1,0,0:0:0:0:
402,192,95262,1,0,0:0:0:0:
182,192,95360,1,0,0:0:0:0:
256,192,95360,1,0,0:0:0:0:
109,192,95360,1,0,0:0:0:0:
329,192,95458,1,0,0:0:0:0:
402,192,95458,1,0,0:0:0:0:
475,192,95458,1,0,0:0:0:0:
182,192,95556,1,0,0:0:0:0:
109,192,95556,1,0,0:0:0:0:
36,192,95556,1,0,0:0:0:0:
256,192,95655,1,0,0:0:0:0:
402,192,95655,1,0,0:0:0:0:
475,192,95655,1,0,0:0:0:0:
329,192,95753,1,0,0:0:0:0:
109,192,95753,1,0,0:0:0:0:
36,192,95753,1,0,0:0:0:0:
182,192,95851,1,0,0:0:0:0:
402,192,95851,1,0,0:0:0:0:
475,192,95851,1,0,0:0:0:0:
256,192,95949,1,0,0:0:0:0:
109,192,95949,1,0,0:0:0:0:
36,192,95949,1,0,0:0:0:0:
329,192,96047,1,0,0:0:0:0:
475,192,96047,1,0,0:0:0:0:
182,192,96145,1,0,0:0:0:0:
36,192,96145,1,0,0:0:0:0:
475,192,96243,1,0,0:0:0:0:
402,192,96243,1,0,0:0:0:0:
109,192,96341,1,0,0:0:0:0:
36,192,96341,1,0,0:0:0:0:
329,192,96439,1,0,0:0:0:0:
475,192,96439,1,0,0:0:0:0:
182,192,96537,1,0,0:0:0:0:
36,192,96537,1,0,0:0:0:0:
256,192,96635,1,0,0:0:0:0:
402,192,96635,1,0,0:0:0:0:
36,192,96733,1,0,0:0:0:0:
109,192,96733,1,0,0:0:0:0:
329,192,96831,1,0,0:0:0:0:
475,192,96831,1,0,0:0:0:0:
256,192,96929,1,0,0:0:0:0:
109,192,96929,1,0,0:0:0:0:
402,192,97027,1,0,0:0:0:0:
475,192,97027,1,0,0:0:0:0:
182,192,97125,1,0,0:0:0:0:
36,192,97125,1,0,0:0:0:0:
329,192,97223,1,0,0:0:0:0:
475,192,97223,1,0,0:0:0:0:
256,192,97321,1,0,0:0:0:0:
109,192,97321,1,0,0:0:0:0:
402,192,97419,1,0,0:0:0:0:
475,192,97419,1,0,0:0:0:0:
182,192,97517,1,0,0:0:0:0:
329,192,97517,1,0,0:0:0:0:
109,192,97615,1,0,0:0:0:0:
36,192,97615,1,0,0:0:0:0:
256,192,97713,1,0,0:0:0:0:
402,192,97713,1,0,0:0:0:0:
182,192,97811,1,0,0:0:0:0:
36,192,97811,1,0,0:0:0:0:
329,192,97909,1,0,0:0:0:0:
475,192,97909,1,0,0:0:0:0:
256,192,98007,1,0,0:0:0:0:
109,192,98007,1,0,0:0:0:0:
36,192,98007,1,0,0:0:0:0:
402,192,98105,1,0,0:0:0:0:
475,192,98105,1,0,0:0:0:0:
182,192,98105,1,0,0:0:0:0:
329,192,98204,1,0,0:0:0:0:
256,192,98204,1,0,0:0:0:0:
36,192,98204,1,0,0:0:0:0:
182,192,98302,1,0,0:0:0:0:
109,192,98302,1,0,0:0:0:0:
402,192,98302,1,0,0:0:0:0:
475,192,98400,1,0,0:0:0:0:
256,192,98400,1,0,0:0:0:0:
36,192,98400,1,0,0:0:0:0:
329,192,98498,1,0,0:0:0:0:
402,192,98498,1,0,0:0:0:0:
109,192,98498,1,0,0:0:0:0:
256,192,98596,1,0,0:0:0:0:
182,192,98596,1,0,0:0:0:0:
475,192,98596,1,0,0:0:0:0:
109,192,98694,1,0,0:0:0:0:
36,192,98694,1,0,0:0:0:0:
329,192,98694,1,0,0:0:0:0:
402,192,98792,1,0,0:0:0:0:
475,192,98792,1,0,0:0:0:0:
182,192,98792,1,0,0:0:0:0:
256,192,98890,1,0,0:0:0:0:
109,192,98890,1,0,0:0:0:0:
36,192,98890,1,0,0:0:0:0:
329,192,98988,1,0,0:0:0:0:
402,192,98988,1,0,0:0:0:0:
475,192,98988,1,0,0:0:0:0:
182,192,99086,1,0,0:0:0:0:
109,192,99086,1,0,0:0:0:0:
36,192,99086,1,0,0:0:0:0:
329,192,99184,1,0,0:0:0:0:
402,192,99184,1,0,0:0:0:0:
256,192,99184,1,0,0:0:0:0:
182,192,99282,1,0,0:0:0:0:
109,192,99282,1,0,0:0:0:0:
36,192,99282,1,0,0:0:0:0:
329,192,99380,1,0,0:0:0:0:
475,192,99380,1,0,0:0:0:0:
402,192,99380,1,0,0:0:0:0:
256,192,99478,1,0,0:0:0:0:
182,192,99478,1,0,0:0:0:0:
109,192,99478,1,0,0:0:0:0:
36,192,99478,1,0,0:0:0:0:
109,192,99674,1,0,0:0:0:0:
182,192,99674,1,0,0:0:0:0:
329,192,99674,1,0,0:0:0:0:
402,192,99674,1,0,0:0:0:0:
475,192,99870,1,0,0:0:0:0:
402,192,99870,1,0,0:0:0:0:
329,192,99870,1,0,0:0:0:0:
256,192,99870,1,0,0:0:0:0:
182,192,99968,1,0,0:0:0:0:
36,192,99968,1,0,0:0:0:0:
329,192,100066,1,0,0:0:0:0:
475,192,100066,1,0,0:0:0:0:
256,192,100164,1,0,0:0:0:0:
109,192,100164,1,0,0:0:0:0:
36,192,100262,1,0,0:0:0:0:
402,192,100262,1,0,0:0:0:0:
475,192,100262,1,0,0:0:0:0:
329,192,100360,1,0,0:0:0:0:
182,192,100360,1,0,0:0:0:0:
256,192,100458,1,0,0:0:0:0:
109,192,100458,1,0,0:0:0:0:
182,192,100556,1,0,0:0:0:0:
36,192,100556,1,0,0:0:0:0:
475,192,100655,1,0,0:0:0:0:
402,192,100655,1,0,0:0:0:0:
256,192,100655,1,0,0:0:0:0:
182,192,100753,1,0,0:0:0:0:
109,192,100753,1,0,0:0:0:0:
36,192,100753,1,0,0:0:0:0:
329,192,100851,1,0,0:0:0:0:
402,192,100851,1,0,0:0:0:0:
475,192,100851,1,0,0:0:0:0:
256,192,100949,1,0,0:0:0:0:
109,192,100949,1,0,0:0:0:0:
36,192,100949,1,0,0:0:0:0:
182,192,101047,1,0,0:0:0:0:
475,192,101047,1,0,0:0:0:0:
402,192,101047,1,0,0:0:0:0:
329,192,101047,1,0,0:0:0:0:
256,192,101145,1,0,0:0:0:0:
109,192,101145,1,0,0:0:0:0:
182,192,101243,1,0,0:0:0:0:
36,192,101243,1,0,0:0:0:0:
329,192,101243,1,0,0:0:0:0:
256,192,101341,1,0,0:0:0:0:
402,192,101341,1,0,0:0:0:0:
109,192,101341,1,0,0:0:0:0:
182,192,101439,1,0,0:0:0:0:
329,192,101439,1,0,0:0:0:0:
475,192,101439,1,0,0:0:0:0:
256,192,101537,1,0,0:0:0:0:
109,192,101537,1,0,0:0:0:0:
475,192,101635,1,0,0:0:0:0:
36,192,101635,1,0,0:0:0:0:
182,192,101635,1,0,0:0:0:0:
109,192,101733,1,0,0:0:0:0:
402,192,101733,1,0,0:0:0:0:
329,192,101733,1,0,0:0:0:0:
256,192,101831,1,0,0:0:0:0:
36,192,101831,1,0,0:0:0:0:
475,192,101831,1,0,0:0:0:0:
182,192,101929,1,0,0:0:0:0:
402,192,101929,1,0,0:0:0:0:
109,192,102027,1,0,0:0:0:0:
36,192,102027,1,0,0:0:0:0:
329,192,102027,1,0,0:0:0:0:
256,192,102125,1,0,0:0:0:0:
402,192,102125,1,0,0:0:0:0:
475,192,102125,1,0,0:0:0:0:
182,192,102223,1,0,0:0:0:0:
109,192,102223,1,0,0:0:0:0:
36,192,102223,1,0,0:0:0:0:
329,192,102321,1,0,0:0:0:0:
402,192,102321,1,0,0:0:0:0:
475,192,102321,1,0,0:0:0:0:
256,192,102419,1,0,0:0:0:0:
109,192,102419,1,0,0:0:0:0:
36,192,102419,1,0,0:0:0:0:
182,192,102517,1,0,0:0:0:0:
402,192,102517,1,0,0:0:0:0:
475,192,102517,1,0,0:0:0:0:
329,192,102615,1,0,0:0:0:0:
109,192,102615,1,0,0:0:0:0:
36,192,102615,1,0,0:0:0:0:
402,192,102713,1,0,0:0:0:0:
182,192,102713,1,0,0:0:0:0:
256,192,102713,1,0,0:0:0:0:
109,192,102811,1,0,0:0:0:0:
475,192,102811,1,0,0:0:0:0:
329,192,102811,1,0,0:0:0:0:
256,192,102909,1,0,0:0:0:0:
36,192,102909,1,0,0:0:0:0:
402,192,102909,1,0,0:0:0:0:
182,192,103007,1,0,0:0:0:0:
329,192,103007,1,0,0:0:0:0:
475,192,103007,1,0,0:0:0:0:
256,192,103105,1,0,0:0:0:0:
109,192,103105,1,0,0:0:0:0:
182,192,103204,1,0,0:0:0:0:
36,192,103204,1,0,0:0:0:0:
402,192,103204,1,0,0:0:0:0:
256,192,103302,1,0,0:0:0:0:
475,192,103302,1,0,0:0:0:0:
329,192,103302,1,0,0:0:0:0:
182,192,103400,1,0,0:0:0:0:
109,192,103400,1,0,0:0:0:0:
36,192,103400,1,0,0:0:0:0:
475,192,103498,1,0,0:0:0:0:
256,192,103498,1,0,0:0:0:0:
402,192,103498,1,0,0:0:0:0:
329,192,103596,1,0,0:0:0:0:
109,192,103596,1,0,0:0:0:0:
36,192,103596,1,0,0:0:0:0:
182,192,103694,1,0,0:0:0:0:
256,192,103694,1,0,0:0:0:0:
402,192,103694,1,0,0:0:0:0:
329,192,103792,1,0,0:0:0:0:
475,192,103792,1,0,0:0:0:0:
109,192,103792,1,0,0:0:0:0:
36,192,103890,1,0,0:0:0:0:
256,192,103890,1,0,0:0:0:0:
402,192,103890,1,0,0:0:0:0:
182,192,103988,1,0,0:0:0:0:
329,192,103988,1,0,0:0:0:0:
109,192,104086,1,0,0:0:0:0:
256,192,104086,1,0,0:0:0:0:
475,192,104086,1,0,0:0:0:0:
402,192,104184,1,0,0:0:0:0:
182,192,104184,1,0,0:0:0:0:
36,192,104184,1,0,0:0:0:0:
329,192,104282,1,0,0:0:0:0:
256,192,104282,1,0,0:0:0:0:
182,192,104380,1,0,0:0:0:0:
109,192,104380,1,0,0:0:0:0:
402,192,104380,1,0,0:0:0:0:
475,192,104478,1,0,0:0:0:0:
36,192,104478,1,0,0:0:0:0:
256,192,104478,1,0,0:0:0:0:
329,192,104576,1,0,0:0:0:0:
402,192,104576,1,0,0:0:0:0:
182,192,104576,1,0,0:0:0:0:
109,192,104674,1,0,0:0:0:0:
256,192,104674,1,0,0:0:0:0:
36,192,104772,1,0,0:0:0:0:
182,192,104772,1,0,0:0:0:0:
402,192,104772,1,0,0:0:0:0:
329,192,104870,1,0,0:0:0:0:
475,192,104870,1,0,0:0:0:0:
109,192,104870,1,0,0:0:0:0:
256,192,104968,1,0,0:0:0:0:
402,192,104968,1,0,0:0:0:0:
36,192,104968,1,0,0:0:0:0:
182,192,105066,1,0,0:0:0:0:
329,192,105066,1,0,0:0:0:0:
109,192,105164,1,0,0:0:0:0:
256,192,105164,1,0,0:0:0:0:
36,192,105164,1,0,0:0:0:0:
182,192,105262,1,0,0:0:0:0:
402,192,105262,1,0,0:0:0:0:
475,192,105262,1,0,0:0:0:0:
329,192,105360,1,0,0:0:0:0:
109,192,105360,1,0,0:0:0:0:
256,192,105360,1,0,0:0:0:0:
36,192,105458,1,0,0:0:0:0:
182,192,105458,1,0,0:0:0:0:
475,192,105458,1,0,0:0:0:0:
402,192,105556,1,0,0:0:0:0:
329,192,105556,1,0,0:0:0:0:
256,192,105556,1,0,0:0:0:0:
109,192,105654,1,0,0:0:0:0:
36,192,105654,1,0,0:0:0:0:
182,192,105654,1,0,0:0:0:0:
329,192,105753,1,0,0:0:0:0:
402,192,105753,1,0,0:0:0:0:
475,192,105753,1,0,0:0:0:0:
256,192,105851,1,0,0:0:0:0:
182,192,105851,1,0,0:0:0:0:
109,192,105851,1,0,0:0:0:0:
36,192,105949,1,0,0:0:0:0:
329,192,105949,1,0,0:0:0:0:
475,192,105949,1,0,0:0:0:0:
402,192,106047,1,0,0:0:0:0:
256,192,106047,1,0,0:0:0:0:
109,192,106047,1,0,0:0:0:0:
475,192,106145,1,0,0:0:0:0:
182,192,106145,1,0,0:0:0:0:
36,192,106145,1,0,0:0:0:0:
402,192,106243,1,0,0:0:0:0:
329,192,106243,1,0,0:0:0:0:
109,192,106243,1,0,0:0:0:0:
256,192,106341,1,0,0:0:0:0:
182,192,106341,1,0,0:0:0:0:
475,192,106341,1,0,0:0:0:0:
109,192,106439,1,0,0:0:0:0:
329,192,106439,1,0,0:0:0:0:
36,192,106537,1,0,0:0:0:0:
402,192,106537,1,0,0:0:0:0:
256,192,106537,1,0,0:0:0:0:
182,192,106635,1,0,0:0:0:0:
475,192,106635,1,0,0:0:0:0:
109,192,106733,1,0,0:0:0:0:
256,192,106733,1,0,0:0:0:0:
402,192,106733,1,0,0:0:0:0:
36,192,106831,1,0,0:0:0:0:
329,192,106831,1,0,0:0:0:0:
402,192,106929,1,0,0:0:0:0:
475,192,106929,1,0,0:0:0:0:
182,192,106929,1,0,0:0:0:0:
109,192,107027,1,0,0:0:0:0:
256,192,107027,1,0,0:0:0:0:
36,192,107125,1,0,0:0:0:0:
329,192,107125,1,0,0:0:0:0:
402,192,107125,1,0,0:0:0:0:
182,192,107223,1,0,0:0:0:0:
256,192,107321,1,0,0:0:0:0:
329,192,107321,1,0,0:0:0:0:
475,192,107321,1,0,0:0:0:0:
109,192,107321,1,0,0:0:0:0:
36,192,107419,1,0,0:0:0:0:
402,192,107419,1,0,0:0:0:0:
329,192,107517,1,0,0:0:0:0:
182,192,107517,1,0,0:0:0:0:
256,192,107615,1,0,0:0:0:0:
109,192,107615,1,0,0:0:0:0:
36,192,107713,1,0,0:0:0:0:
182,192,107713,1,0,0:0:0:0:
475,192,107713,1,0,0:0:0:0:
402,192,107811,1,0,0:0:0:0:
329,192,107811,1,0,0:0:0:0:
109,192,107811,1,0,0:0:0:0:
256,192,107909,1,0,0:0:0:0:
182,192,107909,1,0,0:0:0:0:
475,192,107909,1,0,0:0:0:0:
329,192,108007,1,0,0:0:0:0:
109,192,108007,1,0,0:0:0:0:
36,192,108007,1,0,0:0:0:0:
402,192,108105,1,0,0:0:0:0:
475,192,108105,1,0,0:0:0:0:
256,192,108105,1,0,0:0:0:0:
182,192,108204,1,0,0:0:0:0:
109,192,108204,1,0,0:0:0:0:
36,192,108204,1,0,0:0:0:0:
329,192,108302,1,0,0:0:0:0:
475,192,108302,1,0,0:0:0:0:
402,192,108302,1,0,0:0:0:0:
256,192,108400,1,0,0:0:0:0:
109,192,108400,1,0,0:0:0:0:
36,192,108400,1,0,0:0:0:0:
182,192,108498,1,0,0:0:0:0:
475,192,108498,1,0,0:0:0:0:
402,192,108498,1,0,0:0:0:0:
329,192,108596,1,0,0:0:0:0:
109,192,108596,1,0,0:0:0:0:
256,192,108694,1,0,0:0:0:0:
36,192,108694,1,0,0:0:0:0:
402,192,108694,1,0,0:0:0:0:
475,192,108792,1,0,0:0:0:0:
182,192,108792,1,0,0:0:0:0:
329,192,108890,1,0,0:0:0:0:
109,192,108890,1,0,0:0:0:0:
36,192,108890,1,0,0:0:0:0:
256,192,108988,1,0,0:0:0:0:
402,192,108988,1,0,0:0:0:0:
475,192,108988,1,0,0:0:0:0:
182,192,109086,1,0,0:0:0:0:
329,192,109086,1,0,0:0:0:0:
109,192,109086,1,0,0:0:0:0:
256,192,109184,1,0,0:0:0:0:
36,192,109184,1,0,0:0:0:0:
402,192,109184,1,0,0:0:0:0:
329,192,109282,1,0,0:0:0:0:
475,192,109282,1,0,0:0:0:0:
109,192,109282,1,0,0:0:0:0:
182,192,109380,1,0,0:0:0:0:
402,192,109380,1,0,0:0:0:0:
256,192,109380,1,0,0:0:0:0:
329,192,109478,1,0,0:0:0:0:
475,192,109478,1,0,0:0:0:0:
36,192,109478,1,0,0:0:0:0:
109,192,109576,1,0,0:0:0:0:
402,192,109576,1,0,0:0:0:0:
256,192,109576,1,0,0:0:0:0:
182,192,109674,1,0,0:0:0:0:
329,192,109674,1,0,0:0:0:0:
36,192,109674,1,0,0:0:0:0:
256,192,109772,1,0,0:0:0:0:
475,192,109772,1,0,0:0:0:0:
402,192,109772,1,0,0:0:0:0:
329,192,109870,1,0,0:0:0:0:
182,192,109870,1,0,0:0:0:0:
109,192,109870,1,0,0:0:0:0:
36,192,109968,1,0,0:0:0:0:
256,192,109968,1,0,0:0:0:0:
402,192,109968,1,0,0:0:0:0:
329,192,110066,1,0,0:0:0:0:
475,192,110066,1,0,0:0:0:0:
109,192,110066,1,0,0:0:0:0:
182,192,110164,1,0,0:0:0:0:
256,192,110164,1,0,0:0:0:0:
402,192,110164,1,0,0:0:0:0:
109,192,110262,1,0,0:0:0:0:
36,192,110262,1,0,0:0:0:0:
329,192,110262,1,0,0:0:0:0:
256,192,110360,1,0,0:0:0:0:
402,192,110360,1,0,0:0:0:0:
475,192,110360,1,0,0:0:0:0:
182,192,110458,1,0,0:0:0:0:
109,192,110458,1,0,0:0:0:0:
36,192,110458,1,0,0:0:0:0:
475,192,110556,1,0,0:0:0:0:
256,192,110556,1,0,0:0:0:0:
329,192,110654,1,0,0:0:0:0:
182,192,110654,1,0,0:0:0:0:
36,192,110654,1,0,0:0:0:0:
109,192,110753,1,0,0:0:0:0:
402,192,110753,1,0,0:0:0:0:
475,192,110851,1,0,0:0:0:0:
329,192,110851,1,0,0:0:0:0:
36,192,110851,1,0,0:0:0:0:
182,192,110851,1,0,0:0:0:0:
256,192,110949,1,0,0:0:0:0:
402,192,110949,1,0,0:0:0:0:
329,192,111047,1,0,0:0:0:0:
475,192,111047,1,0,0:0:0:0:
109,192,111047,1,0,0:0:0:0:
182,192,111145,1,0,0:0:0:0:
402,192,111145,1,0,0:0:0:0:
36,192,111145,1,0,0:0:0:0:
256,192,111243,1,0,0:0:0:0:
475,192,111243,1,0,0:0:0:0:
109,192,111243,1,0,0:0:0:0:
182,192,111341,1,0,0:0:0:0:
329,192,111341,1,0,0:0:0:0:
256,192,111439,1,0,0:0:0:0:
402,192,111439,1,0,0:0:0:0:
36,192,111439,1,0,0:0:0:0:
109,192,111537,1,0,0:0:0:0:
182,192,111537,1,0,0:0:0:0:
475,192,111537,1,0,0:0:0:0:
402,192,111635,1,0,0:0:0:0:
329,192,111635,1,0,0:0:0:0:
36,192,111635,1,0,0:0:0:0:
256,192,111733,1,0,0:0:0:0:
182,192,111733,1,0,0:0:0:0:
109,192,111831,1,0,0:0:0:0:
329,192,111831,1,0,0:0:0:0:
36,192,111831,1,0,0:0:0:0:
402,192,111929,1,0,0:0:0:0:
256,192,111929,1,0,0:0:0:0:
475,192,112027,1,0,0:0:0:0:
182,192,112027,1,0,0:0:0:0:
109,192,112027,1,0,0:0:0:0:
402,192,112125,1,0,0:0:0:0:
329,192,112125,1,0,0:0:0:0:
36,192,112125,1,0,0:0:0:0:
256,192,112223,1,0,0:0:0:0:
475,192,112223,1,0,0:0:0:0:
109,192,112223,1,0,0:0:0:0:
182,192,112321,1,0,0:0:0:0:
329,192,112321,1,0,0:0:0:0:
256,192,112419,5,0,0:0:0:0:
402,192,112419,1,0,0:0:0:0:
475,192,112419,1,0,0:0:0:0:
36,192,112419,1,0,0:0:0:0:
109,192,112517,1,0,0:0:0:0:
329,192,112517,1,0,0:0:0:0:
182,192,112615,1,0,0:0:0:0:
402,192,112615,1,0,0:0:0:0:
475,192,112615,1,0,0:0:0:0:
256,192,112713,1,0,0:0:0:0:
109,192,112713,1,0,0:0:0:0:
36,192,112713,1,0,0:0:0:0:
329,192,112811,1,0,0:0:0:0:
475,192,112811,1,0,0:0:0:0:
402,192,112811,1,0,0:0:0:0:
182,192,112909,1,0,0:0:0:0:
109,192,112909,1,0,0:0:0:0:
36,192,112909,1,0,0:0:0:0:
256,192,113007,1,0,0:0:0:0:
475,192,113007,1,0,0:0:0:0:
402,192,113007,1,0,0:0:0:0:
329,192,113105,1,0,0:0:0:0:
36,192,113105,1,0,0:0:0:0:
109,192,113105,1,0,0:0:0:0:
182,192,113204,1,0,0:0:0:0:
402,192,113204,1,0,0:0:0:0:
475,192,113204,1,0,0:0:0:0:
256,192,113302,1,0,0:0:0:0:
329,192,113302,1,0,0:0:0:0:
109,192,113302,1,0,0:0:0:0:
36,192,113400,1,0,0:0:0:0:
182,192,113400,1,0,0:0:0:0:
402,192,113400,1,0,0:0:0:0:
475,192,113498,1,0,0:0:0:0:
256,192,113498,1,0,0:0:0:0:
402,192,113596,1,0,0:0:0:0:
329,192,113596,1,0,0:0:0:0:
182,192,113596,1,0,0:0:0:0:
109,192,113596,1,0,0:0:0:0:
36,192,113596,1,0,0:0:0:0:
256,192,113694,1,0,0:0:0:0:
475,192,113792,1,0,0:0:0:0:
402,192,113792,1,0,0:0:0:0:
182,192,113792,1,0,0:0:0:0:
109,192,113792,1,0,0:0:0:0:
36,192,113792,1,0,0:0:0:0:
329,192,113890,1,0,0:0:0:0:
256,192,113988,1,0,0:0:0:0:
402,192,113988,1,0,0:0:0:0:
182,192,114086,1,0,0:0:0:0:
475,192,114086,1,0,0:0:0:0:
109,192,114184,1,0,0:0:0:0:
329,192,114184,1,0,0:0:0:0:
256,192,114282,1,0,0:0:0:0:
36,192,114282,1,0,0:0:0:0:
475,192,114380,1,0,0:0:0:0:
109,192,114380,1,0,0:0:0:0:
182,192,114380,1,0,0:0:0:0:
402,192,114380,1,0,0:0:0:0:
329,192,114380,1,0,0:0:0:0:
256,192,114478,1,0,0:0:0:0:
109,192,114576,1,0,0:0:0:0:
36,192,114576,1,0,0:0:0:0:
329,192,114576,1,0,0:0:0:0:
402,192,114576,1,0,0:0:0:0:
475,192,114576,1,0,0:0:0:0:
182,192,114674,1,0,0:0:0:0:
256,192,114772,1,0,0:0:0:0:
109,192,114772,1,0,0:0:0:0:
36,192,114870,1,0,0:0:0:0:
329,192,114870,1,0,0:0:0:0:
402,192,114968,1,0,0:0:0:0:
182,192,114968,1,0,0:0:0:0:
475,192,115066,1,0,0:0:0:0:
256,192,115066,1,0,0:0:0:0:
329,192,115164,1,0,0:0:0:0:
402,192,115164,1,0,0:0:0:0:
36,192,115164,1,0,0:0:0:0:
182,192,115164,1,0,0:0:0:0:
109,192,115164,1,0,0:0:0:0:
256,192,115262,1,0,0:0:0:0:
402,192,115360,1,0,0:0:0:0:
475,192,115360,1,0,0:0:0:0:
36,192,115360,1,0,0:0:0:0:
182,192,115360,1,0,0:0:0:0:
109,192,115360,1,0,0:0:0:0:
329,192,115458,1,0,0:0:0:0:
256,192,115556,1,0,0:0:0:0:
402,192,115556,1,0,0:0:0:0:
182,192,115654,1,0,0:0:0:0:
475,192,115654,1,0,0:0:0:0:
36,192,115654,1,0,0:0:0:0:
329,192,115753,1,0,0:0:0:0:
109,192,115753,1,0,0:0:0:0:
402,192,115851,1,0,0:0:0:0:
182,192,115949,1,0,0:0:0:0:
475,192,115949,1,0,0:0:0:0:
109,192,115949,1,0,0:0:0:0:
36,192,115949,1,0,0:0:0:0:
256,192,115949,1,0,0:0:0:0:
329,192,116047,1,0,0:0:0:0:
402,192,116145,1,0,0:0:0:0:
475,192,116145,1,0,0:0:0:0:
182,192,116145,1,0,0:0:0:0:
109,192,116145,1,0,0:0:0:0:
36,192,116145,1,0,0:0:0:0:
256,192,116243,1,0,0:0:0:0:
329,192,116341,1,0,0:0:0:0:
402,192,116341,1,0,0:0:0:0:
109,192,116439,1,0,0:0:0:0:
475,192,116439,1,0,0:0:0:0:
36,192,116439,1,0,0:0:0:0:
182,192,116537,1,0,0:0:0:0:
256,192,116537,1,0,0:0:0:0:
109,192,116635,1,0,0:0:0:0:
475,192,116733,1,0,0:0:0:0:
402,192,116733,1,0,0:0:0:0:
329,192,116733,1,0,0:0:0:0:
256,192,116733,1,0,0:0:0:0:
36,192,116733,1,0,0:0:0:0:
182,192,116831,1,0,0:0:0:0:
36,192,116929,1,0,0:0:0:0:
109,192,116929,1,0,0:0:0:0:
329,192,116929,1,0,0:0:0:0:
402,192,116929,1,0,0:0:0:0:
475,192,116929,1,0,0:0:0:0:
256,192,117027,1,0,0:0:0:0:
182,192,117125,1,0,0:0:0:0:
109,192,117125,1,0,0:0:0:0:
475,192,117223,1,0,0:0:0:0:
402,192,117223,1,0,0:0:0:0:
36,192,117223,1,0,0:0:0:0:
329,192,117321,1,0,0:0:0:0:
256,192,117321,1,0,0:0:0:0:
182,192,117419,1,0,0:0:0:0:
109,192,117517,1,0,0:0:0:0:
36,192,117517,1,0,0:0:0:0:
475,192,117517,1,0,0:0:0:0:
402,192,117517,1,0,0:0:0:0:
256,192,117517,1,0,0:0:0:0:
329,192,117615,1,0,0:0:0:0:
402,192,117713,1,0,0:0:0:0:
475,192,117713,1,0,0:0:0:0:
182,192,117713,1,0,0:0:0:0:
36,192,117713,1,0,0:0:0:0:
109,192,117713,1,0,0:0:0:0:
256,192,117811,1,0,0:0:0:0:
329,192,117909,1,0,0:0:0:0:
402,192,117909,1,0,0:0:0:0:
475,192,117909,1,0,0:0:0:0:
109,192,117909,1,0,0:0:0:0:
36,192,117909,1,0,0:0:0:0:
182,192,118007,1,0,0:0:0:0:
256,192,118007,1,0,0:0:0:0:
36,192,118105,1,0,0:0:0:0:
109,192,118105,1,0,0:0:0:0:
402,192,118105,1,0,0:0:0:0:
475,192,118105,1,0,0:0:0:0:
329,192,118204,1,0,0:0:0:0:
256,192,118204,1,0,0:0:0:0:
402,192,118302,1,0,0:0:0:0:
475,192,118302,1,0,0:0:0:0:
182,192,118302,1,0,0:0:0:0:
109,192,118302,1,0,0:0:0:0:
36,192,118302,1,0,0:0:0:0:
