osu file format v14

[General]
AudioFilename: audio.mp3
AudioLeadIn: 0
PreviewTime: -1
Countdown: 1
SampleSet: Soft
StackLeniency: 0.7
Mode: 1
LetterboxInBreaks: 0
WidescreenStoryboard: 0

[Editor]
DistanceSpacing: 0.8
BeatDivisor: 4
GridSize: 4
TimelineZoom: 1.5

[Metadata]
Title:Die for You (ShockOne Remix)
TitleUnicode:Die for You (ShockOne Remix)
Artist:Cutline
ArtistUnicode:Cutline
Creator:Jorkseljund
Version:Inner Oni
Source:
Tags:
BeatmapID:1737877
BeatmapSetID:829504

[Difficulty]
HPDrainRate:6
CircleSize:2
OverallDifficulty:6
ApproachRate:5
SliderMultiplier:1.39599989318848
SliderTickRate:1

[Events]
//Background and Video events
0,0,"angel-statue-wallpapers-28384-9396942.jpg",0,0
//Break Periods
//Storyboard Layer 0 (Background)
//Storyboard Layer 1 (Fail)
//Storyboard Layer 2 (Pass)
//Storyboard Layer 3 (Foreground)
//Storyboard Sound Samples

[TimingPoints]
376,342.857142857143,4,2,0,100,1,0
66204,-83.3333333333333,4,2,0,100,0,1
107348,-100,4,2,0,100,0,0
110089,-83.3333333333333,4,2,0,100,0,1
132034,-100,4,2,0,100,0,0

[HitObjects]
102,92,22318,5,8,0:0:0:0:
261,145,23004,1,8,0:0:0:0:
363,98,23347,1,0,0:0:0:0:
418,107,23518,1,8,0:0:0:0:
348,194,23861,1,0,0:0:0:0:
313,238,24033,1,8,0:0:0:0:
213,187,24376,1,0,0:0:0:0:
163,162,24547,1,8,0:0:0:0:
113,137,24718,1,0,0:0:0:0:
163,162,24890,1,0,0:0:0:0:
113,137,25061,1,8,0:0:0:0:
332,118,25747,1,8,0:0:0:0:
251,40,26090,1,0,0:0:0:0:
284,84,26261,1,0,0:0:0:0:
284,84,26433,1,8,0:0:0:0:
321,189,26776,1,0,0:0:0:0:
212,161,27118,1,8,0:0:0:0:
157,147,27290,1,8,0:0:0:0:
102,134,27461,1,0,0:0:0:0:
213,122,27804,1,8,0:0:0:0:
232,151,28490,1,8,0:0:0:0:
241,39,28833,1,0,0:0:0:0:
266,88,29004,1,8,0:0:0:0:
165,137,29347,1,0,0:0:0:0:
115,162,29518,1,8,0:0:0:0:
115,162,29861,1,8,0:0:0:0:
115,162,30033,1,0,0:0:0:0:
280,136,30547,1,8,0:0:0:0:
168,144,30890,1,0,0:0:0:0:
168,144,31233,1,0,0:0:0:0:
168,144,31576,1,8,0:0:0:0:
168,144,31747,1,8,0:0:0:0:
168,144,31918,1,0,0:0:0:0:
279,133,32261,1,0,0:0:0:0:
390,123,32604,1,0,0:0:0:0:
390,123,32947,1,8,0:0:0:0:
278,118,33290,1,8,0:0:0:0:
67,193,33976,1,8,0:0:0:0:
177,178,34318,1,0,0:0:0:0:
232,170,34490,1,8,0:0:0:0:
308,87,34833,1,0,0:0:0:0:
270,128,35004,1,8,0:0:0:0:
160,105,35347,1,0,0:0:0:0:
205,72,35518,1,8,0:0:0:0:
204,72,35861,1,8,0:0:0:0:
160,107,36033,1,8,0:0:0:0:
375,48,36718,1,8,0:0:0:0:
271,91,37061,1,0,0:0:0:0:
219,112,37233,1,8,0:0:0:0:
325,146,37576,1,8,0:0:0:0:
377,163,37747,1,0,0:0:0:0:
268,134,38090,1,0,0:0:0:0:
214,119,38261,1,8,0:0:0:0:
157,119,38433,1,0,0:0:0:0:
101,119,38604,1,0,0:0:0:0:
101,119,38776,1,8,0:0:0:0:
306,29,39461,1,8,0:0:0:0:
229,110,39804,1,0,0:0:0:0:
154,102,39976,1,8,0:0:0:0:
304,177,40490,1,8,0:0:0:0:
197,142,40833,1,0,0:0:0:0:
143,124,41004,1,8,0:0:0:0:
143,124,41176,1,0,0:0:0:0:
143,124,41518,1,8,0:0:0:0:
367,124,42204,1,8,0:0:0:0:
255,128,42547,1,0,0:0:0:0:
270,181,42718,1,8,0:0:0:0:
143,135,42890,1,0,0:0:0:0:
254,128,43233,1,8,0:0:0:0:
142,135,43576,1,0,0:0:0:0:
141,135,44261,1,6,0:0:0:0:
241,183,44604,1,0,0:0:0:0:
294,65,44947,1,8,0:0:0:0:
244,90,45118,1,0,0:0:0:0:
338,150,45461,1,8,0:0:0:0:
432,210,45804,1,0,0:0:0:0:
324,179,46147,1,8,0:0:0:0:
215,147,46490,1,0,0:0:0:0:
161,132,46661,1,0,0:0:0:0:
161,132,46833,1,8,0:0:0:0:
161,132,47004,1,0,0:0:0:0:
258,75,47347,1,0,0:0:0:0:
162,133,47690,1,8,0:0:0:0:
209,104,47861,1,0,0:0:0:0:
376,85,48204,1,8,0:0:0:0:
283,147,48547,1,0,0:0:0:0:
171,138,48890,1,8,0:0:0:0:
59,129,49233,1,0,0:0:0:0:
170,120,49576,1,8,0:0:0:0:
225,116,49747,1,0,0:0:0:0:
123,68,50090,1,0,0:0:0:0:
123,68,50433,1,8,0:0:0:0:
123,68,50604,1,0,0:0:0:0:
230,100,50947,1,0,0:0:0:0:
336,133,51290,1,0,0:0:0:0:
252,207,51633,1,8,0:0:0:0:
252,207,51976,1,0,0:0:0:0:
304,170,52147,1,0,0:0:0:0:
155,150,52318,1,8,0:0:0:0:
106,122,52490,1,8,0:0:0:0:
217,115,52833,1,0,0:0:0:0:
328,109,53176,1,8,0:0:0:0:
272,112,53347,1,0,0:0:0:0:
348,193,53690,1,0,0:0:0:0:
425,273,54033,1,0,0:0:0:0:
272,112,54376,1,0,0:0:0:0:
272,112,54547,1,8,0:0:0:0:
272,112,54718,1,8,0:0:0:0:
272,112,54890,1,0,0:0:0:0:
272,112,55061,1,0,0:0:0:0:
216,120,55233,1,6,0:0:0:0:
103,123,55576,1,0,0:0:0:0:
206,81,55918,1,8,0:0:0:0:
206,81,56090,1,0,0:0:0:0:
317,84,56433,1,0,0:0:0:0:
372,86,56776,1,0,0:0:0:0:
273,138,57118,1,8,0:0:0:0:
163,112,57461,1,0,0:0:0:0:
163,112,57804,1,8,0:0:0:0:
163,112,57976,1,0,0:0:0:0:
274,102,58318,1,0,0:0:0:0:
274,102,58661,1,8,0:0:0:0:
274,102,58833,1,0,0:0:0:0:
167,136,59176,1,0,0:0:0:0:
167,136,59518,1,0,0:0:0:0:
334,124,59861,1,8,0:0:0:0:
233,173,60204,1,0,0:0:0:0:
134,225,60547,1,8,0:0:0:0:
183,199,60719,1,0,0:0:0:0:
166,145,60890,1,8,0:0:0:0:
154,90,61061,1,0,0:0:0:0:
210,94,61233,1,0,0:0:0:0:
265,98,61404,1,0,0:0:0:0:
265,98,61490,1,8,0:0:0:0:
265,98,61576,1,8,0:0:0:0:
265,98,61747,1,0,0:0:0:0:
233,144,61918,1,0,0:0:0:0:
286,127,62090,1,8,0:0:0:0:
313,119,62176,1,8,0:0:0:0:
313,119,62261,1,0,0:0:0:0:
268,84,62433,1,0,0:0:0:0:
224,49,62604,1,0,0:0:0:0:
279,57,62776,1,8,0:0:0:0:
306,61,62861,1,8,0:0:0:0:
333,65,62947,1,8,0:0:0:0:
306,73,63033,1,0,0:0:0:0:
360,69,63118,1,0,0:0:0:0:
334,79,63204,1,8,0:0:0:0:
387,72,63290,1,8,0:0:0:0:
360,81,63376,1,0,0:0:0:0:
333,89,63461,1,8,0:0:0:0:
256,192,63633,12,0,66033,0:0:0:0:
75,61,66204,5,6,0:0:0:0:
176,108,66547,1,4,0:0:0:0:
75,158,66891,1,8,0:0:0:0:
75,158,66977,1,0,0:0:0:0:
75,158,67062,1,8,0:0:0:0:
101,149,67148,1,0,0:0:0:0:
132,154,67234,1,0,0:0:0:0:
181,124,67405,1,0,0:0:0:0:
226,91,67577,1,8,0:0:0:0:
212,122,67661,1,8,0:0:0:0:
251,149,67748,1,0,0:0:0:0:
263,178,67834,1,0,0:0:0:0:
336,108,67919,1,8,0:0:0:0:
336,108,68091,1,0,0:0:0:0:
272,102,68262,1,0,0:0:0:0:
240,99,68348,1,0,0:0:0:0:
336,108,68434,1,8,0:0:0:0:
336,108,68605,1,0,0:0:0:0:
224,103,68948,1,0,0:0:0:0:
246,130,69033,1,0,0:0:0:0:
112,99,69119,1,8,0:0:0:0:
83,98,69205,1,0,0:0:0:0:
55,97,69290,1,8,0:0:0:0:
85,107,69377,1,0,0:0:0:0:
109,83,69462,1,0,0:0:0:0:
109,83,69548,1,0,0:0:0:0:
82,89,69634,1,8,0:0:0:0:
96,120,69718,1,0,0:0:0:0:
135,106,69805,1,8,0:0:0:0:
160,125,69891,1,0,0:0:0:0:
161,114,69977,1,8,0:0:0:0:
155,148,70061,1,0,0:0:0:0:
179,177,70148,1,8,0:0:0:0:
160,206,70233,1,0,0:0:0:0:
220,139,70319,1,8,0:0:0:0:
245,158,70405,1,0,0:0:0:0:
241,120,70491,1,8,0:0:0:0:
262,101,70577,1,0,0:0:0:0:
285,116,70662,1,8,0:0:0:0:
315,83,70747,1,8,0:0:0:0:
341,74,70834,1,0,0:0:0:0:
350,104,70919,1,0,0:0:0:0:
359,134,71005,1,8,0:0:0:0:
324,129,71090,1,0,0:0:0:0:
303,71,71177,1,0,0:0:0:0:
305,102,71262,1,0,0:0:0:0:
239,78,71348,1,8,0:0:0:0:
253,140,71519,1,8,0:0:0:0:
171,186,71691,1,0,0:0:0:0:
230,207,71862,1,0,0:0:0:0:
290,229,72034,1,8,0:0:0:0:
349,251,72205,1,0,0:0:0:0:
370,124,72548,1,0,0:0:0:0:
375,92,72634,1,0,0:0:0:0:
375,92,72719,1,8,0:0:0:0:
312,106,72891,1,0,0:0:0:0:
249,120,73062,1,0,0:0:0:0:
218,129,73405,1,8,0:0:0:0:
218,129,73577,1,0,0:0:0:0:
218,129,73748,1,0,0:0:0:0:
237,154,73834,1,0,0:0:0:0:
186,127,73919,1,0,0:0:0:0:
151,121,74004,1,0,0:0:0:0:
249,114,74091,1,8,0:0:0:0:
280,108,74177,1,0,0:0:0:0:
311,102,74262,1,8,0:0:0:0:
310,166,74434,1,0,0:0:0:0:
278,162,74519,1,0,0:0:0:0:
309,229,74605,1,8,0:0:0:0:
309,261,74691,1,0,0:0:0:0:
309,293,74777,1,8,0:0:0:0:
280,272,74861,1,0,0:0:0:0:
309,293,74948,1,0,0:0:0:0:
309,293,75034,1,0,0:0:0:0:
280,278,75119,1,8,0:0:0:0:
270,247,75204,1,8,0:0:0:0:
235,231,75291,1,8,0:0:0:0:
213,207,75377,1,0,0:0:0:0:
187,188,75462,1,8,0:0:0:0:
152,180,75547,1,0,0:0:0:0:
134,151,75634,1,8,0:0:0:0:
100,159,75718,1,0,0:0:0:0:
191,124,75804,1,8,0:0:0:0:
220,110,75891,1,0,0:0:0:0:
249,96,75977,1,8,0:0:0:0:
270,247,76061,1,8,0:0:0:0:
269,35,76148,1,0,0:0:0:0:
270,247,76233,1,0,0:0:0:0:
250,96,76319,1,8,0:0:0:0:
284,93,76404,1,0,0:0:0:0:
269,34,76491,1,0,0:0:0:0:
290,41,76547,1,0,0:0:0:0:
312,48,76604,1,0,0:0:0:0:
308,84,76662,1,8,0:0:0:0:
347,134,76834,1,8,0:0:0:0:
218,132,77177,1,6,0:0:0:0:
176,108,77519,1,4,0:0:0:0:
75,158,77862,1,8,0:0:0:0:
75,158,77948,1,8,0:0:0:0:
75,158,78034,1,0,0:0:0:0:
132,154,78205,1,0,0:0:0:0:
181,124,78376,1,0,0:0:0:0:
226,91,78548,1,0,0:0:0:0:
251,149,78719,1,8,0:0:0:0:
263,178,78805,1,8,0:0:0:0:
336,108,78890,1,0,0:0:0:0:
336,108,79062,1,0,0:0:0:0:
272,102,79233,1,0,0:0:0:0:
240,99,79318,1,0,0:0:0:0:
336,108,79404,1,8,0:0:0:0:
303,121,79490,1,8,0:0:0:0:
270,133,79576,1,0,0:0:0:0:
224,103,79919,1,0,0:0:0:0:
195,83,80004,1,0,0:0:0:0:
112,99,80090,1,8,0:0:0:0:
83,98,80176,1,8,0:0:0:0:
55,97,80261,1,0,0:0:0:0:
85,107,80348,1,0,0:0:0:0:
109,83,80433,1,8,0:0:0:0:
109,83,80519,1,0,0:0:0:0:
82,89,80605,1,8,0:0:0:0:
56,112,80690,1,0,0:0:0:0:
135,106,80776,1,0,0:0:0:0:
160,125,80862,1,8,0:0:0:0:
161,114,80948,1,8,0:0:0:0:
179,143,81033,1,0,0:0:0:0:
179,177,81119,1,8,0:0:0:0:
204,200,81204,1,8,0:0:0:0:
220,139,81291,1,0,0:0:0:0:
245,158,81376,1,0,0:0:0:0:
241,120,81462,1,8,0:0:0:0:
262,101,81548,1,8,0:0:0:0:
285,116,81633,1,0,0:0:0:0:
315,83,81718,1,0,0:0:0:0:
341,74,81805,1,8,0:0:0:0:
350,104,81890,1,0,0:0:0:0:
359,134,81976,1,8,0:0:0:0:
324,128,82061,1,0,0:0:0:0:
303,71,82148,1,8,0:0:0:0:
305,102,82233,1,0,0:0:0:0:
239,78,82319,1,8,0:0:0:0:
253,140,82490,1,0,0:0:0:0:
171,186,82662,1,8,0:0:0:0:
230,207,82833,1,0,0:0:0:0:
290,229,83005,1,8,0:0:0:0:
349,251,83176,1,0,0:0:0:0:
370,124,83519,1,8,0:0:0:0:
375,92,83605,1,0,0:0:0:0:
375,92,83690,1,8,0:0:0:0:
341,101,83776,1,0,0:0:0:0:
312,106,83862,1,0,0:0:0:0:
249,120,84034,1,8,0:0:0:0:
218,129,84377,1,0,0:0:0:0:
218,129,84548,1,0,0:0:0:0:
218,129,84719,1,8,0:0:0:0:
237,154,84805,1,0,0:0:0:0:
186,127,84890,1,8,0:0:0:0:
249,114,85062,1,8,0:0:0:0:
280,108,85148,1,0,0:0:0:0:
311,102,85233,1,8,0:0:0:0:
280,118,85318,1,8,0:0:0:0:
310,166,85405,1,0,0:0:0:0:
278,162,85490,1,0,0:0:0:0:
309,229,85576,1,8,0:0:0:0:
309,261,85662,1,0,0:0:0:0:
309,293,85748,1,8,0:0:0:0:
274,287,85833,1,0,0:0:0:0:
309,293,85919,1,0,0:0:0:0:
309,293,86005,1,0,0:0:0:0:
280,278,86090,1,8,0:0:0:0:
270,247,86176,1,8,0:0:0:0:
235,231,86262,1,8,0:0:0:0:
213,207,86348,1,0,0:0:0:0:
187,188,86433,1,8,0:0:0:0:
153,196,86518,1,0,0:0:0:0:
134,151,86605,1,8,0:0:0:0:
115,180,86690,1,8,0:0:0:0:
191,124,86776,1,0,0:0:0:0:
220,110,86862,1,0,0:0:0:0:
249,96,86948,1,8,0:0:0:0:
264,127,87033,1,0,0:0:0:0:
269,35,87118,1,0,0:0:0:0:
278,68,87204,1,0,0:0:0:0:
250,96,87290,1,8,0:0:0:0:
214,94,87376,1,0,0:0:0:0:
269,34,87462,1,0,0:0:0:0:
115,180,87518,1,0,0:0:0:0:
115,180,87576,1,0,0:0:0:0:
97,163,87633,1,8,0:0:0:0:
347,134,87804,1,8,0:0:0:0:
219,127,88147,1,6,0:0:0:0:
290,63,88490,1,4,0:0:0:0:
75,158,88833,1,8,0:0:0:0:
75,158,88919,1,0,0:0:0:0:
75,158,89004,1,8,0:0:0:0:
101,149,89090,1,0,0:0:0:0:
132,154,89176,1,0,0:0:0:0:
181,124,89347,1,0,0:0:0:0:
226,91,89519,1,8,0:0:0:0:
253,113,89604,1,8,0:0:0:0:
251,149,89690,1,0,0:0:0:0:
263,178,89776,1,0,0:0:0:0:
336,108,89861,1,8,0:0:0:0:
308,123,89947,1,0,0:0:0:0:
336,108,90033,1,0,0:0:0:0:
305,125,90118,1,0,0:0:0:0:
272,102,90204,1,8,0:0:0:0:
240,99,90290,1,8,0:0:0:0:
336,108,90376,1,0,0:0:0:0:
302,116,90461,1,0,0:0:0:0:
336,108,90547,1,8,0:0:0:0:
224,103,90890,1,0,0:0:0:0:
242,133,90976,1,0,0:0:0:0:
112,99,91061,1,8,0:0:0:0:
83,98,91147,1,0,0:0:0:0:
55,97,91232,1,8,0:0:0:0:
85,107,91319,1,0,0:0:0:0:
109,83,91404,1,0,0:0:0:0:
109,83,91490,1,0,0:0:0:0:
82,89,91576,1,8,0:0:0:0:
96,120,91661,1,0,0:0:0:0:
135,106,91747,1,8,0:0:0:0:
160,125,91833,1,0,0:0:0:0:
161,114,91919,1,8,0:0:0:0:
161,148,92004,1,8,0:0:0:0:
179,177,92090,1,8,0:0:0:0:
190,210,92176,1,0,0:0:0:0:
220,139,92261,1,8,0:0:0:0:
245,158,92347,1,0,0:0:0:0:
241,120,92433,1,8,0:0:0:0:
262,101,92519,1,8,0:0:0:0:
285,116,92604,1,0,0:0:0:0:
315,83,92689,1,0,0:0:0:0:
341,74,92776,1,8,0:0:0:0:
350,104,92861,1,8,0:0:0:0:
359,134,92947,1,0,0:0:0:0:
324,125,93033,1,0,0:0:0:0:
303,71,93119,1,0,0:0:0:0:
305,102,93204,1,0,0:0:0:0:
239,78,93290,1,8,0:0:0:0:
253,140,93461,1,8,0:0:0:0:
171,186,93633,1,0,0:0:0:0:
230,207,93804,1,0,0:0:0:0:
290,229,93976,1,8,0:0:0:0:
349,251,94147,1,0,0:0:0:0:
370,124,94490,1,0,0:0:0:0:
375,92,94576,1,0,0:0:0:0:
375,92,94661,1,8,0:0:0:0:
312,106,94833,1,0,0:0:0:0:
249,120,95004,1,0,0:0:0:0:
218,129,95347,1,8,0:0:0:0:
218,129,95519,1,0,0:0:0:0:
218,129,95690,1,0,0:0:0:0:
237,154,95776,1,0,0:0:0:0:
186,127,95861,1,0,0:0:0:0:
249,114,96033,1,8,0:0:0:0:
280,108,96119,1,0,0:0:0:0:
311,102,96204,1,8,0:0:0:0:
310,166,96376,1,0,0:0:0:0:
278,162,96461,1,0,0:0:0:0:
309,229,96547,1,8,0:0:0:0:
309,261,96633,1,0,0:0:0:0:
309,293,96719,1,8,0:0:0:0:
281,271,96804,1,8,0:0:0:0:
309,293,96890,1,0,0:0:0:0:
309,293,96976,1,0,0:0:0:0:
280,278,97061,1,8,0:0:0:0:
270,247,97147,1,0,0:0:0:0:
235,231,97233,1,8,0:0:0:0:
213,207,97319,1,0,0:0:0:0:
187,188,97404,1,8,0:0:0:0:
152,194,97490,1,0,0:0:0:0:
134,151,97576,1,8,0:0:0:0:
103,168,97661,1,0,0:0:0:0:
191,124,97747,1,0,0:0:0:0:
220,110,97833,1,8,0:0:0:0:
249,96,97919,1,8,0:0:0:0:
255,130,98004,1,0,0:0:0:0:
269,35,98090,1,0,0:0:0:0:
234,44,98176,1,0,0:0:0:0:
250,96,98261,1,8,0:0:0:0:
269,34,98433,1,0,0:0:0:0:
308,84,98604,1,0,0:0:0:0:
347,134,98776,1,8,0:0:0:0:
218,132,99119,1,6,0:0:0:0:
176,108,99461,1,4,0:0:0:0:
75,158,99804,1,8,0:0:0:0:
75,158,99890,1,8,0:0:0:0:
75,158,99976,1,0,0:0:0:0:
132,154,100147,1,0,0:0:0:0:
181,124,100318,1,0,0:0:0:0:
226,91,100490,1,0,0:0:0:0:
251,149,100661,1,8,0:0:0:0:
263,178,100747,1,8,0:0:0:0:
336,108,100832,1,0,0:0:0:0:
301,117,100918,1,0,0:0:0:0:
336,108,101004,1,8,0:0:0:0:
272,102,101175,1,8,0:0:0:0:
240,99,101261,1,8,0:0:0:0:
336,108,101347,1,0,0:0:0:0:
336,108,101518,1,8,0:0:0:0:
224,103,101861,1,0,0:0:0:0:
246,130,101946,1,0,0:0:0:0:
112,99,102032,1,8,0:0:0:0:
83,98,102118,1,0,0:0:0:0:
55,97,102203,1,8,0:0:0:0:
85,107,102290,1,0,0:0:0:0:
109,83,102375,1,0,0:0:0:0:
109,83,102461,1,0,0:0:0:0:
82,89,102547,1,8,0:0:0:0:
96,120,102633,1,0,0:0:0:0:
135,106,102718,1,8,0:0:0:0:
160,125,102804,1,0,0:0:0:0:
161,114,102890,1,8,0:0:0:0:
155,148,102976,1,0,0:0:0:0:
179,177,103061,1,8,0:0:0:0:
160,206,103146,1,0,0:0:0:0:
220,139,103232,1,8,0:0:0:0:
245,158,103318,1,0,0:0:0:0:
241,120,103404,1,8,0:0:0:0:
262,101,103490,1,0,0:0:0:0:
285,116,103575,1,8,0:0:0:0:
315,83,103660,1,8,0:0:0:0:
341,74,103747,1,0,0:0:0:0:
350,104,103832,1,0,0:0:0:0:
359,134,103918,1,8,0:0:0:0:
324,129,104003,1,0,0:0:0:0:
303,71,104090,1,0,0:0:0:0:
305,102,104175,1,0,0:0:0:0:
239,78,104261,1,8,0:0:0:0:
253,140,104432,1,8,0:0:0:0:
171,186,104604,1,0,0:0:0:0:
230,207,104775,1,0,0:0:0:0:
290,229,104947,1,8,0:0:0:0:
349,251,105118,1,0,0:0:0:0:
370,124,105461,1,0,0:0:0:0:
375,92,105547,1,0,0:0:0:0:
375,92,105632,1,8,0:0:0:0:
342,105,105718,1,8,0:0:0:0:
312,106,105804,1,0,0:0:0:0:
249,120,105976,1,8,0:0:0:0:
218,129,106319,1,0,0:0:0:0:
218,129,106490,1,0,0:0:0:0:
218,129,106661,1,8,0:0:0:0:
237,154,106747,1,0,0:0:0:0:
186,127,106832,1,8,0:0:0:0:
151,135,106918,1,0,0:0:0:0:
249,114,107004,1,0,0:0:0:0:
280,108,107090,1,0,0:0:0:0:
311,102,107175,1,8,0:0:0:0:
310,166,107347,1,4,0:0:0:0:
256,192,108033,12,0,109918,0:0:0:0:
35,78,110090,5,6,0:0:0:0:
83,119,110261,1,0,0:0:0:0:
107,139,110347,1,0,0:0:0:0:
131,160,110433,1,0,0:0:0:0:
158,113,110604,1,0,0:0:0:0:
219,130,110776,1,8,0:0:0:0:
201,156,110861,1,8,0:0:0:0:
183,182,110947,1,8,0:0:0:0:
200,212,111033,1,0,0:0:0:0:
340,89,111118,1,0,0:0:0:0:
321,119,111204,1,8,0:0:0:0:
279,110,111290,1,8,0:0:0:0:
285,141,111376,1,8,0:0:0:0:
279,110,111461,1,0,0:0:0:0:
279,110,111547,1,8,0:0:0:0:
270,140,111633,1,8,0:0:0:0:
215,115,111804,1,0,0:0:0:0:
162,159,111976,1,0,0:0:0:0:
137,179,112061,1,0,0:0:0:0:
112,200,112147,1,8,0:0:0:0:
139,222,112233,1,8,0:0:0:0:
160,158,112318,1,0,0:0:0:0:
171,175,112490,1,8,0:0:0:0:
200,162,112576,1,8,0:0:0:0:
229,150,112662,1,0,0:0:0:0:
287,127,112833,1,0,0:0:0:0:
232,93,113004,1,0,0:0:0:0:
204,75,113090,1,0,0:0:0:0:
176,58,113176,1,8,0:0:0:0:
191,89,113261,1,0,0:0:0:0:
121,90,113347,1,8,0:0:0:0:
66,123,113518,1,0,0:0:0:0:
123,152,113690,1,8,0:0:0:0:
151,166,113861,1,0,0:0:0:0:
221,131,114033,1,0,0:0:0:0:
247,72,114204,1,8,0:0:0:0:
261,43,114290,1,8,0:0:0:0:
261,43,114376,1,8,0:0:0:0:
228,56,114461,1,0,0:0:0:0:
229,41,114547,1,0,0:0:0:0:
197,56,114633,1,8,0:0:0:0:
277,82,114718,1,8,0:0:0:0:
301,102,114804,1,0,0:0:0:0:
325,123,114890,1,8,0:0:0:0:
293,128,114976,1,0,0:0:0:0:
261,134,115061,1,8,0:0:0:0:
230,125,115147,1,0,0:0:0:0:
197,146,115233,1,8,0:0:0:0:
140,116,115576,1,0,0:0:0:0:
170,126,115661,1,0,0:0:0:0:
200,136,115747,1,0,0:0:0:0:
210,9,115918,1,8,0:0:0:0:
297,102,116261,1,8,0:0:0:0:
297,102,116347,1,8,0:0:0:0:
297,102,116433,1,8,0:0:0:0:
263,92,116518,1,0,0:0:0:0:
264,103,116604,1,0,0:0:0:0:
293,123,116690,1,0,0:0:0:0:
199,108,116776,1,8,0:0:0:0:
164,161,116947,1,0,0:0:0:0:
188,181,117033,1,0,0:0:0:0:
211,201,117118,1,0,0:0:0:0:
235,222,117204,1,8,0:0:0:0:
95,269,117290,1,8,0:0:0:0:
95,204,117461,1,0,0:0:0:0:
96,171,117547,1,0,0:0:0:0:
97,138,117633,1,8,0:0:0:0:
158,153,117804,1,0,0:0:0:0:
191,164,117890,1,0,0:0:0:0:
138,17,117976,1,8,0:0:0:0:
224,103,118318,1,0,0:0:0:0:
254,119,118404,1,0,0:0:0:0:
112,99,118489,1,8,0:0:0:0:
83,98,118575,1,8,0:0:0:0:
55,97,118660,1,8,0:0:0:0:
85,107,118747,1,0,0:0:0:0:
109,83,118832,1,0,0:0:0:0:
109,83,118918,1,0,0:0:0:0:
82,89,119004,1,8,0:0:0:0:
115,100,119090,1,0,0:0:0:0:
135,106,119175,1,8,0:0:0:0:
160,125,119261,1,0,0:0:0:0:
161,114,119347,1,8,0:0:0:0:
194,126,119433,1,0,0:0:0:0:
220,139,119518,1,8,0:0:0:0:
245,158,119604,1,8,0:0:0:0:
241,120,119690,1,8,0:0:0:0:
272,135,119776,1,0,0:0:0:0:
181,142,119861,1,0,0:0:0:0:
215,151,119947,1,8,0:0:0:0:
315,83,120033,1,8,0:0:0:0:
336,110,120118,1,0,0:0:0:0:
341,74,120204,1,8,0:0:0:0:
350,104,120289,1,0,0:0:0:0:
359,134,120375,1,8,0:0:0:0:
379,162,120461,1,8,0:0:0:0:
303,71,120547,1,0,0:0:0:0:
305,102,120632,1,0,0:0:0:0:
239,78,120718,1,8,0:0:0:0:
203,78,120804,1,0,0:0:0:0:
253,140,120889,1,0,0:0:0:0:
171,186,121061,1,6,0:0:0:0:
233,199,121233,1,0,0:0:0:0:
295,212,121404,1,0,0:0:0:0:
305,102,121576,1,0,0:0:0:0:
305,102,121661,1,0,0:0:0:0:
305,102,121747,1,8,0:0:0:0:
269,97,121833,1,8,0:0:0:0:
242,87,121918,1,0,0:0:0:0:
210,80,122004,1,0,0:0:0:0:
178,73,122090,1,8,0:0:0:0:
132,117,122261,1,8,0:0:0:0:
86,162,122433,1,0,0:0:0:0:
212,139,122776,1,8,0:0:0:0:
243,134,122861,1,0,0:0:0:0:
243,134,122947,1,8,0:0:0:0:
189,99,123118,1,8,0:0:0:0:
220,114,123204,1,8,0:0:0:0:
131,69,123290,1,8,0:0:0:0:
164,80,123376,1,0,0:0:0:0:
137,132,123461,1,0,0:0:0:0:
171,138,123547,1,0,0:0:0:0:
206,144,123633,1,0,0:0:0:0:
240,149,123718,1,0,0:0:0:0:
256,192,123804,12,0,124490,0:0:0:0:
187,110,124661,5,8,0:0:0:0:
216,97,124747,1,0,0:0:0:0:
190,121,124833,1,8,0:0:0:0:
307,121,125004,1,8,0:0:0:0:
275,136,125090,1,0,0:0:0:0:
236,122,125176,1,8,0:0:0:0:
207,141,125261,1,8,0:0:0:0:
329,180,125347,1,8,0:0:0:0:
339,210,125433,1,0,0:0:0:0:
339,210,125518,1,8,0:0:0:0:
339,210,125604,1,8,0:0:0:0:
339,210,125690,1,0,0:0:0:0:
276,196,125861,1,8,0:0:0:0:
212,182,126033,1,0,0:0:0:0:
151,160,126204,1,0,0:0:0:0:
158,32,126547,1,0,0:0:0:0:
223,72,126718,1,0,0:0:0:0:
255,92,126804,1,0,0:0:0:0:
287,112,126890,1,8,0:0:0:0:
214,135,127061,1,0,0:0:0:0:
137,131,127233,1,8,0:0:0:0:
98,129,127318,1,8,0:0:0:0:
98,129,127404,1,0,0:0:0:0:
98,129,127490,1,0,0:0:0:0:
98,129,127576,1,8,0:0:0:0:
145,189,127747,1,8,0:0:0:0:
209,147,127918,1,0,0:0:0:0:
207,145,128090,1,8,0:0:0:0:
147,96,128261,1,0,0:0:0:0:
147,96,128433,1,0,0:0:0:0:
102,158,128604,1,0,0:0:0:0:
140,162,128690,1,0,0:0:0:0:
216,128,128776,1,0,0:0:0:0:
248,108,128861,1,0,0:0:0:0:
147,96,128947,1,8,0:0:0:0:
218,69,129118,1,0,0:0:0:0:
224,103,129290,1,0,0:0:0:0:
205,132,129376,1,0,0:0:0:0:
112,99,129461,1,8,0:0:0:0:
83,98,129547,1,0,0:0:0:0:
55,97,129632,1,8,0:0:0:0:
85,107,129719,1,8,0:0:0:0:
109,83,129804,1,0,0:0:0:0:
109,83,129890,1,0,0:0:0:0:
82,89,129976,1,8,0:0:0:0:
96,120,130061,1,0,0:0:0:0:
135,106,130147,1,0,0:0:0:0:
160,125,130233,1,8,0:0:0:0:
161,114,130319,1,8,0:0:0:0:
138,140,130404,1,0,0:0:0:0:
220,139,130490,1,8,0:0:0:0:
208,172,130576,1,0,0:0:0:0:
241,120,130662,1,0,0:0:0:0:
204,109,130747,1,0,0:0:0:0:
181,142,130833,1,8,0:0:0:0:
149,127,130918,1,0,0:0:0:0:
315,83,131005,1,8,0:0:0:0:
280,81,131090,1,8,0:0:0:0:
341,74,131176,1,0,0:0:0:0:
350,104,131261,1,8,0:0:0:0:
359,134,131347,1,8,0:0:0:0:
348,167,131433,1,0,0:0:0:0:
303,71,131519,1,8,0:0:0:0:
305,102,131604,1,0,0:0:0:0:
239,78,131690,1,8,0:0:0:0:
255,112,131776,1,8,0:0:0:0:
253,140,131861,1,0,0:0:0:0:
171,186,132033,1,6,0:0:0:0:
75,100,132376,1,0,0:0:0:0:
135,81,132547,1,0,0:0:0:0:
195,62,132633,1,0,0:0:0:0:
195,62,132718,1,8,0:0:0:0:
253,88,132890,1,0,0:0:0:0:
237,116,132976,1,0,0:0:0:0:
311,113,133061,1,0,0:0:0:0:
311,113,133233,1,8,0:0:0:0:
249,96,133404,1,0,0:0:0:0:
249,115,133576,1,0,0:0:0:0:
216,116,133662,1,0,0:0:0:0:
183,117,133748,1,8,0:0:0:0:
210,174,133918,1,8,0:0:0:0:
157,136,134090,1,0,0:0:0:0:
126,127,134176,1,0,0:0:0:0:
332,210,134261,1,8,0:0:0:0:
301,200,134347,1,0,0:0:0:0:
270,190,134433,1,0,0:0:0:0:
238,193,134518,1,0,0:0:0:0:
270,190,134604,1,8,0:0:0:0:
246,168,134690,1,8,0:0:0:0:
221,146,134776,1,0,0:0:0:0:
109,83,135118,1,0,0:0:0:0:
232,48,135461,1,8,0:0:0:0:
229,112,135633,1,0,0:0:0:0:
197,107,135718,1,0,0:0:0:0:
229,175,135804,1,8,0:0:0:0:
109,83,135890,1,0,0:0:0:0:
229,110,135976,1,8,0:0:0:0:
165,115,136147,1,0,0:0:0:0:
101,121,136318,1,0,0:0:0:0:
92,184,136490,1,0,0:0:0:0:
118,202,136576,1,0,0:0:0:0:
154,172,136661,1,8,0:0:0:0:
149,203,136747,1,0,0:0:0:0:
144,234,136833,1,8,0:0:0:0:
139,265,136918,1,0,0:0:0:0:
215,154,137004,1,8,0:0:0:0:
245,145,137090,1,8,0:0:0:0:
276,136,137175,1,0,0:0:0:0:
307,127,137261,1,0,0:0:0:0:
338,119,137347,1,8,0:0:0:0:
307,112,137432,1,0,0:0:0:0:
275,105,137518,1,0,0:0:0:0:
147,119,137861,1,0,0:0:0:0:
125,142,137947,1,0,0:0:0:0:
125,142,138033,1,0,0:0:0:0:
188,143,138204,1,8,0:0:0:0:
199,98,138375,1,8,0:0:0:0:
167,91,138461,1,0,0:0:0:0:
135,85,138546,1,8,0:0:0:0:
128,116,138633,1,0,0:0:0:0:
262,111,138718,1,0,0:0:0:0:
199,125,138890,1,8,0:0:0:0:
283,171,139061,1,0,0:0:0:0:
264,139,139147,1,0,0:0:0:0:
293,201,139233,1,0,0:0:0:0:
303,230,139404,1,8,0:0:0:0:
252,190,139576,1,0,0:0:0:0:
245,201,139747,1,0,0:0:0:0:
216,187,139832,1,0,0:0:0:0:
187,172,139918,1,8,0:0:0:0:
214,155,140004,1,0,0:0:0:0:
169,110,140089,1,8,0:0:0:0:
198,122,140175,1,8,0:0:0:0:
150,48,140261,1,0,0:0:0:0:
277,64,140604,1,0,0:0:0:0:
277,64,140690,1,0,0:0:0:0:
277,64,140776,1,0,0:0:0:0:
248,77,140861,1,0,0:0:0:0:
267,127,140947,1,8,0:0:0:0:
203,120,141118,1,0,0:0:0:0:
180,142,141204,1,0,0:0:0:0:
171,117,141290,1,0,0:0:0:0:
150,56,141461,1,8,0:0:0:0:
214,57,141633,1,0,0:0:0:0:
244,66,141718,1,0,0:0:0:0:
274,75,141804,1,8,0:0:0:0:
188,187,141890,1,0,0:0:0:0:
281,138,141976,1,0,0:0:0:0:
288,201,142147,1,8,0:0:0:0:
291,232,142233,1,0,0:0:0:0:
295,263,142318,1,8,0:0:0:0:
268,244,142404,1,0,0:0:0:0:
241,225,142490,1,8,0:0:0:0:
214,206,142576,1,8,0:0:0:0:
188,187,142661,1,0,0:0:0:0:
162,168,142747,1,0,0:0:0:0:
136,149,142833,1,8,0:0:0:0:
171,186,143004,1,6,0:0:0:0:
75,100,143347,1,0,0:0:0:0:
135,81,143518,1,0,0:0:0:0:
195,62,143604,1,0,0:0:0:0:
195,62,143689,1,8,0:0:0:0:
253,88,143861,1,0,0:0:0:0:
237,116,143947,1,0,0:0:0:0:
311,113,144032,1,0,0:0:0:0:
311,113,144204,1,8,0:0:0:0:
249,96,144375,1,0,0:0:0:0:
249,115,144547,1,0,0:0:0:0:
216,116,144633,1,0,0:0:0:0:
183,117,144719,1,8,0:0:0:0:
210,174,144889,1,8,0:0:0:0:
157,136,145061,1,0,0:0:0:0:
126,127,145147,1,0,0:0:0:0:
332,210,145232,1,8,0:0:0:0:
301,200,145318,1,0,0:0:0:0:
270,190,145404,1,0,0:0:0:0:
238,193,145489,1,0,0:0:0:0:
270,190,145575,1,8,0:0:0:0:
246,168,145661,1,8,0:0:0:0:
221,146,145747,1,0,0:0:0:0:
109,83,146089,1,0,0:0:0:0:
232,48,146432,1,8,0:0:0:0:
229,112,146604,1,0,0:0:0:0:
197,107,146689,1,0,0:0:0:0:
229,175,146775,1,8,0:0:0:0:
109,83,146861,1,0,0:0:0:0:
229,110,146947,1,8,0:0:0:0:
165,115,147118,1,0,0:0:0:0:
101,121,147289,1,0,0:0:0:0:
92,184,147461,1,0,0:0:0:0:
118,202,147547,1,0,0:0:0:0:
154,172,147632,1,8,0:0:0:0:
149,203,147718,1,0,0:0:0:0:
144,234,147804,1,8,0:0:0:0:
139,265,147889,1,0,0:0:0:0:
215,154,147975,1,8,0:0:0:0:
245,145,148061,1,8,0:0:0:0:
276,136,148146,1,0,0:0:0:0:
307,127,148232,1,0,0:0:0:0:
338,119,148318,1,8,0:0:0:0:
307,112,148403,1,0,0:0:0:0:
275,105,148489,1,0,0:0:0:0:
147,119,148832,1,0,0:0:0:0:
125,142,148918,1,0,0:0:0:0:
125,142,149004,1,0,0:0:0:0:
188,143,149175,1,8,0:0:0:0:
199,98,149346,1,8,0:0:0:0:
167,91,149432,1,0,0:0:0:0:
135,85,149517,1,8,0:0:0:0:
128,116,149604,1,0,0:0:0:0:
262,111,149689,1,0,0:0:0:0:
199,125,149861,1,8,0:0:0:0:
283,171,150032,1,0,0:0:0:0:
264,139,150118,1,0,0:0:0:0:
293,201,150204,1,0,0:0:0:0:
303,230,150375,1,8,0:0:0:0:
252,190,150547,1,0,0:0:0:0:
245,201,150718,1,0,0:0:0:0:
216,187,150803,1,0,0:0:0:0:
187,172,150889,1,8,0:0:0:0:
214,155,150975,1,0,0:0:0:0:
169,110,151060,1,8,0:0:0:0:
198,122,151146,1,8,0:0:0:0:
256,192,151233,12,0,153804,0:0:0:0:
349,100,153976,5,6,0:0:0:0:
