osu file format v14

[General]
AudioFilename: Kai - CustimiZ.mp3
AudioLeadIn: 0
PreviewTime: 52479
Countdown: 0
SampleSet: Soft
StackLeniency: 0.4
Mode: 0
LetterboxInBreaks: 0
WidescreenStoryboard: 0

[Editor]
Bookmarks: 11706
DistanceSpacing: 1.1
BeatDivisor: 4
GridSize: 8
TimelineZoom: 2.999999

[Metadata]
Title:Kai TV Size
TitleUnicode:解 TV Size
Artist:CustomiZ
ArtistUnicode:カスタマイZ
Creator:F D Flourite
Version:Escape
Source:K RETURN OF KINGS
Tags:regraz habiholic flourite GoRA GRP Shun Kusakawa
BeatmapID:807302
BeatmapSetID:368187

[Difficulty]
HPDrainRate:6
CircleSize:4
OverallDifficulty:9
ApproachRate:9.7
SliderMultiplier:2
SliderTickRate:1

[Events]
//Background and Video events
0,0,"Shiro and Neko BG.jpg",0,0
Video,0,"optc.flv"
//Break Periods
//Storyboard Layer 0 (Background)
//Storyboard Layer 1 (Fail)
//Storyboard Layer 2 (Pass)
//Storyboard Layer 3 (Foreground)
//Storyboard Sound Samples

[TimingPoints]
252,272.727272727273,4,2,1,70,1,0
7752,-83.3333333333333,4,2,2,70,0,0
7956,-83.3333333333333,4,2,2,30,0,0
8024,-71.4285714285714,4,2,2,70,0,0
8229,-71.4285714285714,4,2,2,30,0,0
8297,-62.5,4,2,2,70,0,0
8706,-100,4,2,2,70,0,0
8979,-100,4,2,1,60,0,0
15524,-100,4,2,1,70,0,0
17706,-117.647058823529,4,2,1,70,0,0
25206,-80,4,2,2,70,0,0
25411,-80,4,2,2,30,0,0
25479,-71.4285714285714,4,2,2,70,0,0
25683,-71.4285714285714,4,2,2,30,0,0
25752,-64.5161290322581,4,2,2,70,0,0
25956,-64.5161290322581,4,2,2,30,0,0
26024,-100,4,2,2,70,0,0
26433,-100,4,2,1,70,0,0
33933,-83.3333333333333,4,2,2,70,0,0
34138,-83.3333333333333,4,2,2,30,0,0
34206,-71.4285714285714,4,2,2,70,0,0
34411,-71.4285714285714,4,2,2,30,0,0
34479,-62.5,4,2,2,70,0,0
34683,-62.5,4,2,2,30,0,0
34752,-76.9230769230769,4,2,2,70,0,0
35024,-100,4,2,2,70,0,0
35161,-117.647058823529,4,2,1,70,0,0
42797,-166.666666666667,4,2,1,70,0,0
43888,-117.647058823529,4,2,1,70,0,0
50433,-117.647058823529,4,2,1,80,0,0
52615,-90.9090909090909,4,2,1,80,0,1
60115,-83.3333333333333,4,2,1,80,0,1
60320,-83.3333333333333,4,2,1,30,0,1
60388,-71.4285714285714,4,2,1,80,0,1
60592,-71.4285714285714,4,2,1,30,0,1
60661,-62.5,4,2,1,80,0,1
60865,-62.5,4,2,1,30,0,1
60933,-90.9090909090909,4,2,1,60,0,1
61342,-90.9090909090909,4,2,1,80,0,1
68842,-83.3333333333333,4,2,1,80,0,1
69047,-83.3333333333333,4,2,1,30,0,1
69115,-100,4,2,1,80,0,1
69320,-100,4,2,1,30,0,1
69388,-125,4,2,1,80,0,1
69592,-125,4,2,1,30,0,1
69661,-166.666666666667,4,2,2,60,0,1
70070,-200,4,2,1,80,0,0
70342,-90.9090909090909,4,2,1,80,0,1
89161,-100,4,2,2,80,0,0

[Colours]
Combo1 : 41,36,234
Combo2 : 171,33,44
Combo3 : 186,189,201

[HitObjects]
105,166,252,6,0,L|214:155,1,100,12|8,0:1|0:1,0:0:0:0:
399,246,524,1,0,0:0:0:0:
327,316,661,2,0,L|217:301,1,100,8|0,0:1|0:0,0:0:0:0:
291,100,933,2,0,P|309:158|292:205,2,100,0|8|0,0:0|0:1|0:0,0:0:0:0:
98,249,1342,6,0,P|84:307|110:365,1,100,8|8,0:1|0:1,0:0:0:0:
204,155,1615,2,0,P|160:113|97:107,1,100
232,293,1888,2,0,P|289:276|335:135,1,200,8|0,0:1|0:0,0:0:0:0:
204,155,2297,1,0,0:0:0:0:
368,32,2433,6,0,L|491:21,1,100,8|8,0:1|0:1,0:0:0:0:
204,155,2706,2,0,L|104:163,1,100,0|8,0:0|0:1,0:0:0:0:
307,227,2979,1,0,0:0:0:0:
241,33,3115,1,0,0:0:0:0:
408,152,3252,1,8,0:1:0:0:
204,155,3388,1,0,0:0:0:0:
467,23,3524,6,0,L|368:32,1,100,8|8,0:1|0:1,0:0:0:0:
104,145,3797,2,0,L|203:154,1,100
311,287,4070,2,0,P|287:202|357:109,1,200,8|0,0:1|0:0,0:0:0:0:
471,230,4479,2,0,L|417:227,1,50,8|8,0:1|0:1,0:0:0:0:
240,210,4615,6,0,B|202:208|176:230|176:230|132:214|132:214|106:239|79:237|79:237|47:236,1,200,4|0,0:1|0:0,0:0:0:0:
188,33,5024,2,0,L|184:136,1,100,8|0,0:1|0:0,0:0:0:0:
137,311,5297,1,0,0:0:0:0:
343,186,5433,2,0,L|445:188,1,100,8|0,0:1|0:0,0:0:0:0:
377,302,5706,5,8,0:1:0:0:
137,311,5842,1,8,0:1:0:0:
343,186,5979,1,0,0:0:0:0:
184,106,6115,1,0,0:0:0:0:
343,186,6252,2,0,B|300:214|259:210|227:189|227:189|213:242|175:254,1,200,8|0,0:1|0:0,0:0:0:0:
283,105,6661,1,0,0:0:0:0:
269,291,6797,6,0,L|229:382,1,100,8|8,0:1|0:1,0:0:0:0:
342,185,7070,2,0,L|283:105,1,100,0|8,0:0|0:1,0:0:0:0:
396,301,7342,2,0,L|496:290,1,100,0|8,0:0|0:1,0:0:0:0:
269,290,7615,1,0,0:0:0:0:
414,78,7752,6,0,B|340:99|319:53|285:45|252:76|283:105,1,179.999994506836,8|0,0:0|0:0,0:0:0:0:
269,290,8024,6,0,B|323:203|323:203|299:218|251:222|213:185,1,209.999993591309,8|0,0:0|0:0,0:0:0:0:
135,50,8297,6,0,B|93:63|93:63|69:111|69:111|96:144|96:144|152:128|152:128|110:180|141:241,1,320,8|0,0:0|0:0,0:0:0:0:
240,285,8638,1,8,0:0:0:0:
269,290,8706,2,0,L|324:278,1,50,8|0,0:0|0:0,0:0:0:0:
412,203,8842,2,0,L|345:188,1,50,8|0,0:0|0:0,0:0:0:0:
261,69,8979,6,0,L|248:169,1,100,12|0,0:1|0:0,0:0:0:0:
141,241,9252,2,0,P|74:248|27:223,1,100,8|8,0:0|0:1,0:0:0:0:
299,297,9524,2,0,B|360:282|360:282|396:303|396:303|446:268|503:300,1,200,8|8,0:1|0:0,0:0:0:0:
396,206,9933,5,8,0:1:0:0:
451,371,10070,1,8,0:1:0:0:
249,169,10206,2,0,P|276:108|321:80,1,100,0|8,0:0|0:0,0:0:0:0:
396,206,10479,1,8,0:1:0:0:
142,242,10615,2,0,P|75:249|28:224,1,100,8|8,0:1|0:1,0:0:0:0:
258,296,10888,2,0,P|291:334|302:382,1,100,8|8,0:0|0:1,0:0:0:0:
201,77,11161,6,0,L|312:89,1,100,8|0,0:1|0:0,0:0:0:0:
142,242,11433,2,0,L|42:231,1,100,8|8,0:0|0:1,0:0:0:0:
335,220,11706,2,0,L|446:232,1,100,8|0,0:1|0:1,0:0:0:0:
258,296,11979,1,8,0:0:0:0:
201,77,12115,5,8,0:1:0:0:
142,242,12252,2,0,P|125:292|121:352,1,100,0|8,0:1|0:1,0:0:0:0:
27,168,12524,1,8,0:0:0:0:
201,77,12661,1,8,0:1:0:0:
335,220,12797,2,0,P|383:266|409:302,1,100,8|8,0:1|0:1,0:0:0:0:
374,31,13070,2,0,P|442:29|491:37,1,100,8|8,0:0|0:1,0:0:0:0:
255,136,13342,6,0,P|180:153|121:65,1,150,12|0,0:1|0:0,0:0:0:0:
45,70,13615,2,0,P|38:129|16:193,1,100,8|8,0:0|0:1,0:0:0:0:
160,339,13888,2,0,P|146:290|141:241,1,100,8|0,0:1|0:1,0:0:0:0:
255,136,14161,1,8,0:0:0:0:
476,238,14297,6,0,B|423:228|376:240|376:240|335:220|335:220|276:243,1,200,8|8,0:1|0:1,0:0:0:0:
330,46,14706,2,0,P|370:111|369:151,1,100,8|8,0:0|0:1,0:0:0:0:
416,342,14979,2,0,P|339:344|305:323,1,100,8|8,0:1|0:1,0:0:0:0:
116,268,15252,2,0,P|152:200|187:181,1,100,8|8,0:0|0:1,0:0:0:0:
330,46,15524,5,8,0:1:0:0:
372,256,15661,1,8,0:1:0:0:
169,188,15797,1,8,0:0:0:0:
330,46,15933,5,8,0:1:0:0:
252,282,16070,1,0,0:0:0:0:
86,96,16206,1,8,0:1:0:0:
86,96,16479,5,4,0:1:0:0:
252,282,16615,1,8,0:1:0:0:
7,230,16752,1,8,0:1:0:0:
236,129,16888,1,8,0:0:0:0:
111,345,17024,1,8,0:1:0:0:
236,129,17161,2,0,B|245:71|245:71|235:21,1,100,0|8,0:0|0:1,0:0:0:0:
7,230,17433,2,0,B|-2:288|-2:288|8:338,1,100,8|8,0:0|0:1,0:0:0:0:
252,282,17706,6,0,L|344:272,1,85.0000016212464,12|0,0:1|0:0,0:0:0:0:
349,279,17911,1,0,0:0:0:0:
361,285,17979,1,0,0:1:0:0:
139,217,18115,1,8,0:1:0:0:
230,44,18252,2,0,L|235:128,1,85.0000016212464,8|0,0:0|0:0,0:0:0:0:
406,116,18524,2,0,L|396:213,1,85.0000016212464,0|8,0:0|0:1,0:0:0:0:
241,375,18797,6,0,P|170:328|168:242,1,170.000003242493,0|0,0:1|0:0,0:0:0:0:
300,185,19206,1,8,0:1:0:0:
312,194,19274,1,0,0:0:0:0:
324,203,19342,2,0,L|419:210,1,85.0000016212464,8|0,0:0|0:0,0:0:0:0:
233,46,19615,1,0,0:0:0:0:
215,61,19683,1,0,0:0:0:0:
196,76,19752,1,0,0:1:0:0:
178,91,19820,1,0,0:0:0:0:
159,105,19888,6,0,L|166:191,1,85.0000016212464,8|0,0:1|0:0,0:0:0:0:
241,375,20161,2,0,P|257:325|241:276,1,85.0000016212464,0|8,0:0|0:1,0:0:0:0:
122,325,20433,1,8,0:0:0:0:
323,204,20570,1,0,0:0:0:0:
401,331,20706,2,0,L|491:322,1,85.0000016212464,0|8,0:0|0:1,0:0:0:0:
323,204,20979,5,0,0:1:0:0:
240,375,21115,1,8,0:0:0:0:
181,261,21252,1,0,0:0:0:0:
231,144,21388,1,8,0:1:0:0:
123,76,21524,1,8,0:0:0:0:
26,160,21661,1,8,0:1:0:0:
181,261,21797,2,0,L|238:268,1,42.5000008106232
323,204,21933,2,0,L|370:195,1,42.5000008106232
371,97,22070,6,0,P|312:82|225:167,1,170.000003242493,4|0,0:3|0:0,0:0:0:0:
317,322,22479,1,8,0:1:0:0:
464,160,22615,2,0,L|472:56,1,85.0000016212464,8|0,0:0|0:0,0:0:0:0:
323,204,22888,2,0,L|334:298,1,85.0000016212464,0|8,0:0|0:1,0:0:0:0:
181,261,23161,5,0,0:0:0:0:
286,88,23297,2,0,L|371:97,1,85.0000016212464,8|0,0:0|0:0,0:0:0:0:
435,303,23570,1,8,0:1:0:0:
234,174,23706,2,0,L|149:165,1,85.0000016212464,8|8,0:0|0:1,0:0:0:0:
97,345,23979,1,0,0:0:0:0:
118,324,24047,1,0,0:0:0:0:
139,303,24115,1,0,0:0:0:0:
160,282,24183,1,0,0:0:0:0:
181,261,24252,6,0,P|194:320|190:363,1,85.0000016212464,8|0,0:1|0:0,0:0:0:0:
323,204,24524,2,0,P|311:163|310:120,1,85.0000016212464,0|8,0:0|0:1,0:0:0:0:
484,191,24797,2,0,P|431:262|381:251,1,127.50000243187,8|0,0:0|0:0,0:0:0:0:
323,204,25070,1,8,0:0:0:0:
424,29,25206,6,0,B|378:32|354:55|354:55|334:35|334:35|290:47|247:25|247:25,1,187.5
93,155,25479,6,0,P|168:138|200:263,1,209.999993591309,8|0,0:0|0:0,0:0:0:0:
373,375,25752,6,0,B|313:369|313:369|274:354|274:354|223:355|223:355|292:344|329:257,1,232.500001773834,8|0,0:0|0:0,0:0:0:0:
372,278,26024,5,0,0:0:0:0:
143,213,26161,1,8,0:0:0:0:
408,186,26297,1,0,0:0:0:0:
179,121,26433,5,12,0:1:0:0:
291,317,26570,1,0,0:0:0:0:
268,97,26706,5,0,0:0:0:0:
281,338,26842,1,8,0:1:0:0:
357,73,26979,5,8,0:0:0:0:
271,359,27115,1,8,0:0:0:0:
486,235,27252,5,0,0:0:0:0:
268,97,27388,2,0,B|261:66|261:66|264:49|264:49|259:31|259:31|259:-5,1,100,8|0,0:0|0:0,0:0:0:0:
130,212,27661,6,0,B|103:215|103:215|73:223|73:223|23:212,1,100,0|8,0:0|0:1,0:0:0:0:
390,239,27933,2,0,B|430:249|430:249|449:238|449:238|498:233,1,100,0|8,0:0|0:0,0:0:0:0:
357,73,28206,1,0,0:0:0:0:
290,274,28342,1,0,0:0:0:0:
485,234,28479,1,8,0:0:0:0:
204,154,28615,5,12,0:1:0:0:
279,364,28752,1,0,0:0:0:0:
280,113,28888,5,0,0:0:0:0:
262,354,29024,1,8,0:1:0:0:
357,73,29161,5,8,0:0:0:0:
245,344,29297,1,0,0:0:0:0:
485,234,29433,5,0,0:0:0:0:
434,33,29570,2,0,B|459:33|459:33|481:37|481:37|501:33|501:33|537:38,1,100,8|0,0:0|0:0,0:0:0:0:
374,287,29842,6,0,B|365:326|365:326|370:344|370:344|360:385,1,100,0|12,0:0|0:1,0:0:0:0:
125,190,30115,2,0,B|118:153|118:153|122:130|122:130|112:87,1,100,8|8,0:0|0:0,0:0:0:0:
264,9,30388,1,0,0:0:0:0:
374,287,30524,1,8,0:0:0:0:
78,243,30661,1,0,0:0:0:0:
219,104,30797,6,0,B|261:77|303:103|303:103|336:95|336:95|388:117|441:80,1,200,8|0,0:1|0:0,0:0:0:0:
502,182,31206,2,0,P|513:245|497:282,1,100,0|8,0:0|0:0,0:0:0:0:
305,297,31479,2,0,P|294:234|310:197,1,100,0|8,0:0|0:0,0:0:0:0:
411,354,31752,1,8,0:1:0:0:
190,378,31888,6,0,P|122:356|63:373,1,100,0|8,0:0|0:0,0:0:0:0:
0,180,32161,1,0,0:0:0:0:
219,104,32297,2,0,P|227:162|188:204,1,100,8|8,0:1|0:0,0:0:0:0:
119,29,32570,1,8,0:0:0:0:
325,58,32706,2,0,L|426:51,1,100,8|8,0:1|0:0,0:0:0:0:
394,255,32979,6,0,L|411:354,1,100,8|8,0:1|0:0,0:0:0:0:
235,202,33252,2,0,L|218:103,1,100,0|8,0:0|0:1,0:0:0:0:
74,255,33524,2,0,L|90:353,1,100,8|0,0:0|0:1,0:0:0:0:
235,202,33797,1,8,0:1:0:0:
449,317,33933,6,0,P|377:336|312:241,1,179.999994506836,12|0,0:0|0:0,0:0:0:0:
453,116,34206,6,0,B|478:174|478:174|446:164|414:173|414:173|367:163|336:197,1,209.999993591309,12|0,0:0|0:0,0:0:0:0:
174,194,34479,6,0,P|181:120|196:207,1,240,12|0,0:0|0:0,0:0:0:0:
209,162,34752,6,0,B|201:124|201:124|209:95|209:95|199:64|199:64|215:15,1,129.999994049073,12|12,0:0|0:0,0:0:0:0:
217,289,35024,2,0,P|192:292|167:277,1,50
82,340,35161,6,0,B|125:342|147:322|147:322|177:345|214:337|214:337|259:349,1,170.000003242493,4|0,0:1|0:0,0:0:0:0:
349,290,35570,2,0,P|359:236|348:194,1,85.0000016212464,8|0,0:1|0:0,0:0:0:0:
304,98,35842,1,8,0:1:0:0:
418,131,35979,2,0,L|508:127,1,85.0000016212464,0|8,0:0|0:1,0:0:0:0:
304,98,36252,6,0,B|241:93|241:93|201:77|201:77|132:91,1,170.000003242493,8|0,0:0|0:0,0:0:0:0:
24,126,36661,1,8,0:1:0:0:
24,245,36797,1,0,0:0:0:0:
138,282,36933,1,8,0:1:0:0:
207,185,37070,1,0,0:0:0:0:
207,185,37206,1,8,0:1:0:0:
435,230,37342,6,0,P|355:284|278:245,1,170.000003242493,4|0,0:1|0:0,0:0:0:0:
328,115,37752,2,0,P|350:179|351:212,1,85.0000016212464,8|0,0:1|0:0,0:0:0:0:
234,81,38024,2,0,P|167:68|138:52,1,85.0000016212464,8|0,0:1|0:0,0:0:0:0:
310,16,38297,1,8,0:1:0:0:
482,110,38433,6,0,B|467:226|467:226|491:283,1,170.000003242493,8|0,0:0|0:0,0:0:0:0:
385,337,38842,2,0,P|327:351|285:325,1,85.0000016212464,8|0,0:1|0:0,0:0:0:0:
296,184,39115,2,0,P|337:227|335:276,1,85.0000016212464,8|0,0:1|0:0,0:0:0:0:
243,266,39388,1,8,0:1:0:0:
215,93,39524,6,0,L|391:104,1,170.000003242493,4|0,0:1|0:0,0:0:0:0:
144,29,39933,2,0,P|122:65|121:108,1,85.0000016212464,8|0,0:1|0:0,0:0:0:0:
187,177,40206,1,8,0:1:0:0:
384,103,40342,6,0,L|396:191,1,85.0000016212464,0|8,0:0|0:1,0:0:0:0:
270,343,40615,2,0,P|193:334|159:249,1,170.000003242493,8|0,0:0|0:0,0:0:0:0:
215,93,41024,1,8,0:1:0:0:
409,267,41161,2,0,B|381:273|352:261|352:261|327:270|299:260|299:260|268:274|237:264,1,170.000003242493
136,249,41570,1,8,0:1:0:0:
215,93,41706,5,4,0:1:0:0:
242,265,41842,1,0,0:0:0:0:
215,92,41979,1,0,0:0:0:0:
242,265,42115,1,8,0:1:0:0:
119,142,42252,1,0,0:0:0:0:
292,169,42388,1,8,0:1:0:0:
136,249,42524,1,0,0:0:0:0:
292,169,42661,1,8,0:1:0:0:
302,356,42797,5,8,0:0:0:0:
202,181,42933,1,8,0:0:0:0:
409,349,43070,2,0,L|490:343,1,59.9999981689454
400,164,43342,5,8,0:0:0:0:
136,249,43479,1,8,0:0:0:0:
452,257,43615,2,0,L|513:253,1,59.9999981689454
348,71,43888,6,0,B|305:87|262:65|262:65|222:46|173:76,1,170.000003242493,4|0,0:1|0:0,0:0:0:0:
242,265,44297,1,8,0:1:0:0:
156,93,44433,2,0,P|133:137|140:181,1,85.0000016212464,0|8,0:0|0:1,0:0:0:0:
222,342,44706,2,0,P|245:298|238:254,1,85.0000016212464,0|8,0:0|0:1,0:0:0:0:
24,298,44979,6,0,B|157:283|157:283|126:305,1,170.000003242493,8|0,0:0|0:0,0:0:0:0:
355,134,45388,2,0,B|222:149|222:149|253:127,1,170.000003242493,8|8,0:1|0:1,0:0:0:0:
385,314,45797,2,0,L|301:324,1,85.0000016212464,0|8,0:0|0:1,0:0:0:0:
85,145,46070,6,0,P|139:134|193:224,1,170.000003242493,4|0,0:1|0:0,0:0:0:0:
254,348,46479,2,0,P|278:305|388:318,1,170.000003242493,8|8,0:1|0:1,0:0:0:0:
123,292,46888,2,0,P|120:232|127:192,1,85.0000016212464,0|8,0:1|0:1,0:0:0:0:
152,64,47161,5,8,0:0:0:0:
152,64,47433,1,8,0:1:0:0:
221,0,47570,1,0,0:0:0:0:
301,47,47706,1,8,0:1:0:0:
283,138,47842,1,0,0:0:0:0:
349,204,47979,1,8,0:1:0:0:
438,176,48115,1,0,0:0:0:0:
457,84,48252,6,0,L|466:280,1,170.000003242493,4|0,0:1|0:0,0:0:0:0:
359,325,48661,1,0,0:0:0:0:
246,268,48797,2,0,P|178:245|123:261,1,127.50000243187,8|0,0:0|0:0,0:0:0:0:
94,287,49070,1,0,0:0:0:0:
179,371,49206,1,0,0:0:0:0:
149,155,49342,6,0,L|160:60,1,85.0000016212464,8|0,0:0|0:0,0:0:0:0:
246,268,49615,2,0,L|254:363,1,85.0000016212464
323,131,49888,2,0,P|364:109|482:155,1,170.000003242493,8|0,0:0|0:0,0:0:0:0:
388,236,50297,1,0,0:0:0:0:
207,70,50433,6,0,L|109:64,1,85.0000016212464,4|0,0:1|0:0,0:0:0:0:
246,268,50706,1,0,0:0:0:0:
246,268,50842,2,0,L|148:262,1,85.0000016212464,8|0,0:0|0:0,0:0:0:0:
207,70,51115,1,8,0:0:0:0:
207,70,51252,2,0,L|291:75,1,85.0000016212464,0|8,0:0|0:0,0:0:0:0:
388,236,51524,6,0,L|396:326,1,85.0000016212464,0|8,0:0|0:0,0:0:0:0:
124,236,51797,1,0,0:0:0:0:
257,8,51933,1,0,0:0:0:0:
388,236,52070,1,8,0:0:0:0:
89,83,52479,1,0,0:0:0:0:
189,142,52615,6,0,L|366:124,1,165.000005035401,12|0,0:1|0:0,0:0:0:0:
289,321,52888,2,0,L|294:205,1,110.000003356934,8|8,0:0|0:1,0:0:0:0:
443,44,53161,2,0,P|475:109|468:157,1,110.000003356934,8|0,0:1|0:1,0:0:0:0:
119,237,53433,1,8,0:0:0:0:
202,32,53570,1,8,0:1:0:0:
344,250,53706,6,0,P|280:233|218:268,1,110.000003356934,8|0,0:1|0:0,0:0:0:0:
189,142,53911,1,0,0:0:0:0:
189,142,53979,2,0,L|204:22,1,110.000003356934,8|8,0:0|0:1,0:0:0:0:
357,51,54252,1,8,0:1:0:0:
469,251,54388,1,0,0:1:0:0:
240,247,54524,1,8,0:0:0:0:
462,126,54661,1,8,0:1:0:0:
168,60,54797,6,0,L|23:69,1,110.000003356934,4|0,0:1|0:0,0:0:0:0:
74,264,55070,2,0,B|91:217|91:217|75:153,1,110.000003356934,8|8,0:0|0:1,0:0:0:0:
41,353,55342,2,0,L|153:348,1,110.000003356934,0|8,0:0|0:1,0:0:0:0:
298,137,55615,2,0,L|188:141,1,110.000003356934,8|8,0:0|0:1,0:0:0:0:
385,325,55888,6,0,P|399:258|382:208,1,110.000003356934,8|0,0:1|0:0,0:0:0:0:
298,137,56092,1,0,0:0:0:0:
298,137,56161,2,0,L|188:141,1,110.000003356934,8|8,0:0|0:1,0:0:0:0:
54,28,56433,2,0,P|36:102|125:183,1,165.000005035401,8|0,0:1|0:0,0:0:0:0:
171,246,56706,2,0,L|288:250,1,110.000003356934,8|0,0:0|0:1,0:0:0:0:
461,104,56979,6,0,B|421:104|397:133|397:133|354:91|304:103|304:103|285:86|245:84,1,220.000006713867,12|8,0:1|0:0,0:0:0:0:
84,170,57388,1,8,0:1:0:0:
298,137,57524,1,0,0:0:0:0:
123,351,57661,1,8,0:1:0:0:
298,137,57797,1,8,0:0:0:0:
380,324,57933,1,8,0:1:0:0:
171,246,58070,6,0,B|232:231|232:231|261:256|282:260|282:260|314:235|351:233|351:233|396:235,1,220.000006713867,8|8,0:1|0:0,0:0:0:0:
123,351,58479,2,0,P|54:271|84:170,1,220.000006713867,8|8,0:1|0:1,0:0:0:0:
308,27,58888,2,0,L|297:138,1,110.000003356934,8|0,0:0|0:0,0:0:0:0:
380,324,59161,5,12,0:1:0:0:
171,246,59297,1,0,0:0:0:0:
297,136,59433,1,8,0:0:0:0:
123,351,59570,1,8,0:1:0:0:
157,131,59706,5,8,0:1:0:0:
286,327,59842,1,8,0:0:0:0:
61,219,59979,1,8,0:0:0:0:
347,197,60115,6,0,P|377:128|312:59,1,179.999994506836,8|0,0:0|0:0,0:0:0:0:
186,76,60388,6,0,B|157:131|157:131|180:113|206:122|206:122|246:154|299:135,1,209.999993591309,8|0,0:0|0:0,0:0:0:0:
404,258,60661,6,0,P|328:214|290:331,1,240,8|0,0:0|0:0,0:0:0:0:
340,283,60933,5,0,1:0:0:0:
296,135,61070,1,8,0:0:0:0:
190,248,61206,1,0,1:0:0:0:
468,233,61342,6,0,L|476:64,1,165.000005035401,12|0,0:1|0:0,0:0:0:0:
296,135,61615,2,0,P|388:126|413:102,1,110.000003356934,8|8,0:0|0:1,0:0:0:0:
145,21,61888,2,0,L|157:134,1,110.000003356934,8|0,0:1|0:1,0:0:0:0:
123,351,62161,1,8,0:0:0:0:
280,216,62297,1,8,0:1:0:0:
27,158,62433,6,0,L|39:271,1,110.000003356934,8|0,0:1|0:0,0:0:0:0:
123,351,62638,1,0,0:0:0:0:
123,351,62706,2,0,P|194:342|222:306,1,110.000003356934,8|8,0:0|0:1,0:0:0:0:
231,72,62979,2,0,P|203:137|220:180,1,110.000003356934,8|0,0:1|0:0,0:0:0:0:
418,305,63252,2,0,P|374:248|329:241,1,110.000003356934,8|8,0:0|0:1,0:0:0:0:
129,112,63524,6,0,B|176:136|176:136|289:133,1,165.000005035401,12|0,0:1|0:0,0:0:0:0:
108,44,63797,2,0,B|89:45|70:38|70:38|58:85|109:100,1,110.000003356934,8|8,0:0|0:1,0:0:0:0:
355,195,64070,2,0,P|378:128|358:78,1,110.000003356934,8|0,0:1|0:1,0:0:0:0:
176,136,64342,1,8,0:0:0:0:
355,195,64479,1,8,0:1:0:0:
248,384,64615,6,0,L|235:274,1,110.000003356934,8|0,0:1|0:0,0:0:0:0:
176,136,64820,1,0,0:0:0:0:
176,136,64888,2,0,P|110:111|55:124,1,110.000003356934,8|8,0:0|0:1,0:0:0:0:
355,195,65161,2,0,P|421:170|476:183,1,110.000003356934,8|0,0:1|0:0,0:0:0:0:
235,274,65433,1,8,0:0:0:0:
296,42,65570,2,0,L|366:38,1,55.0000016784668
264,164,65706,6,0,B|234:153|202:170|202:170|176:136|176:136|148:165|108:173|55:156,1,220.000006713867,12|8,0:1|0:0,0:0:0:0:
97,30,66115,1,8,0:1:0:0:
246,250,66252,1,0,0:0:0:0:
296,42,66388,1,8,0:1:0:0:
235,274,66524,1,8,0:0:0:0:
71,160,66661,1,8,0:1:0:0:
224,298,66797,5,8,0:1:0:0:
433,73,66933,2,0,P|377:81|339:123,1,110.000003356934,0|8,0:0|0:0,0:0:0:0:
320,253,67206,1,8,0:0:0:0:
458,350,67342,2,0,P|472:286|425:263,1,110.000003356934,8|8,0:1|0:1,0:0:0:0:
213,322,67615,2,0,P|144:317|100:278,1,110.000003356934,8|8,0:0|0:1,0:0:0:0:
170,92,67888,6,0,B|196:83|216:50|216:50|188:218,1,220.000006713867,4|8,0:1|0:0,0:0:0:0:
141,16,68297,1,8,0:1:0:0:
272,238,68433,1,8,0:0:0:0:
35,135,68570,1,8,0:1:0:0:
287,79,68706,1,8,0:0:0:0:
116,272,68842,6,0,B|252:256|252:256|200:288,1,179.999994506836,8|0,0:0|0:0,0:0:0:0:
103,173,69115,6,0,B|0:162|0:162|48:142,1,150,8|0,0:0|0:0,0:0:0:0:
219,124,69388,6,0,P|267:157|326:150,1,120,8|0,0:0|0:0,0:0:0:0:
287,79,69661,1,0,0:0:0:0:
272,238,69797,1,0,0:0:0:0:
139,94,69933,1,0,0:0:0:0:
407,114,70070,6,0,L|402:210,1,75,8|0,0:1|0:0,0:0:0:0:
504,353,70342,6,0,P|527:296|437:263,1,165.000005035401,4|0,1:1|0:0,0:0:0:0:
357,273,70615,2,0,L|362:156,1,110.000003356934,8|8,0:1|0:1,0:0:0:0:
170,352,70888,2,0,P|236:348|268:299,1,110.000003356934,8|8,0:0|0:1,0:0:0:0:
130,118,71161,6,0,B|105:112|87:84|87:84|65:127|99:164,1,110.000003356934,8|0,0:1|0:0,0:0:0:0:
176,40,71365,1,0,0:0:0:0:
175,39,71433,2,0,L|285:46,1,110.000003356934,8|8,0:0|0:1,0:0:0:0:
325,232,71706,2,0,B|350:249|357:274|357:274|407:215|372:155,1,165.000005035401,8|0,0:1|0:0,0:0:0:0:
306,331,71979,2,0,P|367:351|414:325,1,110.000003356934,8|8,0:0|0:1,0:0:0:0:
272,139,72252,5,12,0:1:0:0:
170,352,72388,1,8,0:1:0:0:
406,333,72524,1,8,0:0:0:0:
170,352,72661,1,8,0:1:0:0:
353,170,72797,2,0,P|357:109|317:63,1,110.000003356934,8|0,0:1|0:1,0:0:0:0:
146,253,73070,2,0,P|139:306|169:351,1,110.000003356934,8|8,0:0|0:1,0:0:0:0:
272,139,73342,6,0,L|154:127,1,110.000003356934,8|0,0:1|0:0,0:0:0:0:
225,290,73547,1,0,0:0:0:0:
225,290,73615,2,0,L|343:302,1,110.000003356934,8|8,0:0|0:1,0:0:0:0:
329,71,73888,1,8,0:1:0:0:
146,253,74024,1,0,0:0:0:0:
406,333,74161,2,0,B|452:313|494:342|494:342|486:296,1,110.000003356934,8|0,0:0|0:0,0:0:0:0:
463,118,74433,6,0,B|442:138|442:138|402:106|402:106|427:250,1,220.000006713867,12|8,0:1|0:0,0:0:0:0:
211,320,74842,2,0,P|136:344|52:236,1,220.000006713867,8|8,0:1|0:1,0:0:0:0:
146,145,75252,2,0,P|156:205|144:256,1,110.000003356934,8|8,0:0|0:1,0:0:0:0:
0,360,75524,5,8,0:1:0:0:
283,254,75661,2,0,P|332:238|405:248,1,110.000003356934,0|8,0:0|0:0,0:0:0:0:
211,320,75933,1,8,0:0:0:0:
146,145,76070,2,0,P|136:85|148:34,1,110.000003356934,8|8,0:1|0:1,0:0:0:0:
415,98,76342,2,0,P|425:158|413:209,1,110.000003356934,8|0,0:0|0:0,0:0:0:0:
198,57,76615,6,0,B|296:50|296:50|338:57|338:57|422:51,1,220.000006713867,12|8,0:1|0:0,0:0:0:0:
283,254,77024,1,8,0:1:0:0:
198,57,77161,1,8,0:0:0:0:
415,98,77297,1,8,0:1:0:0:
177,234,77433,1,8,0:0:0:0:
432,344,77570,6,0,P|452:283|360:246,1,165.000005035401,8|0,0:1|0:0,0:0:0:0:
283,254,77842,1,8,0:1:0:0:
198,57,77979,1,8,0:0:0:0:
70,230,78115,1,8,0:1:0:0:
294,129,78252,1,8,0:0:0:0:
81,105,78389,1,8,0:1:0:0:
166,302,78525,1,8,0:0:0:0:
198,57,78661,2,0,L|205:0,1,55.0000016784668
294,129,78797,6,0,P|381:147|435:76,1,165.000005035401,12|0,0:1|0:0,0:0:0:0:
351,68,79070,1,8,0:0:0:0:
166,302,79206,1,8,0:1:0:0:
402,258,79342,2,0,L|512:248,1,110.000003356934,8|0,0:1|0:1,0:0:0:0:
294,129,79615,1,8,0:0:0:0:
281,360,79752,1,8,0:1:0:0:
87,233,79888,6,0,P|72:171|95:121,1,110.000003356934,8|0,0:1|0:0,0:0:0:0:
198,57,80092,1,0,0:0:0:0:
216,71,80161,2,0,L|328:75,1,110.000003356934,8|8,0:0|0:1,0:0:0:0:
166,302,80433,1,8,0:1:0:0:
180,43,80570,1,0,0:0:0:0:
292,254,80706,2,0,L|404:258,1,110.000003356934,8|8,0:0|0:1,0:0:0:0:
166,302,80979,6,0,B|139:302|119:315|119:315|150:193,1,165.000005035401,12|0,0:1|0:0,0:0:0:0:
180,43,81252,1,8,0:0:0:0:
32,254,81388,1,8,0:1:0:0:
227,141,81524,2,0,L|336:145,1,110.000003356934,8|0,0:1|0:0,0:0:0:0:
292,254,81797,1,8,0:0:0:0:
292,28,81933,1,8,0:1:0:0:
432,166,82070,6,0,P|456:225|449:290,1,110.000003356934,8|0,0:1|0:0,0:0:0:0:
393,347,82274,1,0,0:0:0:0:
375,356,82342,2,0,L|265:351,1,110.000003356934,8|8,0:0|0:1,0:0:0:0:
106,161,82615,2,0,P|174:160|185:264,1,165.000005035401,8|0,0:1|0:0,0:0:0:0:
143,350,82888,1,8,0:0:0:0:
0,185,83024,2,0,L|11:123,1,55.0000016784668
232,81,83161,6,0,B|282:110|282:110|390:86|390:86|452:117,1,220.000006713867,12|8,0:1|0:0,0:0:0:0:
375,356,83570,2,0,B|359:286|359:286|378:180|378:180|339:190,1,220.000006713867,8|8,0:1|0:1,0:0:0:0:
143,350,83979,1,8,0:0:0:0:
466,281,84115,1,8,0:1:0:0:
184,264,84252,5,8,0:1:0:0:
432,176,84388,1,8,0:1:0:0:
223,173,84524,1,8,0:0:0:0:
402,83,84661,1,8,0:0:0:0:
466,281,84797,1,8,0:1:0:0:
223,173,84933,1,8,0:1:0:0:
488,36,85070,2,0,B|508:92|508:92|494:141,1,110.000003356934,8|0,0:0|0:0,0:0:0:0:
267,251,85342,6,0,P|196:259|140:128,1,220.000006713867,12|8,0:1|0:0,0:0:0:0:
242,26,85752,1,8,0:1:0:0:
332,178,85888,2,0,L|205:172,1,110.000003356934,8|0,0:1|0:0,0:0:0:0:
396,91,86161,1,8,0:0:0:0:
317,326,86297,1,8,0:1:0:0:
242,26,86433,5,8,0:1:0:0:
382,258,86570,1,8,0:0:0:0:
133,153,86706,1,8,0:0:0:0:
396,91,86842,1,8,0:1:0:0:
218,295,86979,1,8,0:0:0:0:
382,258,87115,5,0,0:0:0:0:
133,153,87252,1,8,0:0:0:0:
396,91,87388,1,8,0:1:0:0:
317,326,87524,6,0,B|252:325|252:325|221:318|183:328|183:328|145:313|145:313|101:323,1,220.000006713867,12|8,0:1|0:0,0:0:0:0:
28,240,87933,2,0,P|28:171|89:247,1,220.000006713867,8|8,0:1|0:1,0:0:0:0:
20,338,88342,1,8,0:0:0:0:
133,153,88479,1,8,0:1:0:0:
242,344,88615,5,8,0:0:0:0:
28,240,88752,1,8,0:0:0:0:
365,203,88888,1,8,0:0:0:0:
33,122,89024,1,8,0:0:0:0:
